  0
SECTION
  2
HEADER
  9
$ACADVER
  1
AC1015
  9
$ACADMAINTVER
 70
     6
  9
$DWGCODEPAGE
  3
ANSI_932
  9
$INSBASE
 10
0.0
 20
0.0
 30
0.0
  9
$EXTMIN
 10
344.0638958645051
 20
512.5704494522346
 30
0.0
  9
$EXTMAX
 10
677.4223303871056
 20
747.4620839047365
 30
0.0
  9
$LIMMIN
 10
344.0638958645051
 20
512.5704494522346
  9
$LIMMAX
 10
677.4223303871056
 20
747.4620839047365
  9
$ORTHOMODE
 70
     0
  9
$REGENMODE
 70
     0
  9
$FILLMODE
 70
     1
  9
$QTEXTMODE
 70
     0
  9
$MIRRTEXT
 70
     1
  9
$LTSCALE
 40
1.0
  9
$ATTMODE
 70
     1
  9
$TEXTSIZE
 40
4.0
  9
$TRACEWID
 40
0.05
  9
$TEXTSTYLE
  7
Standard
  9
$CLAYER
  8
無題001
  9
$CELTYPE
  6
Continuous
  9
$CECOLOR
 62
     4
  9
$CELTSCALE
 40
1.0
  9
$DISPSILH
 70
     0
  9
$DIMSCALE
 40
1.0
  9
$DIMASZ
 40
3.0
  9
$DIMEXO
 40
0.0
  9
$DIMDLI
 40
10.0
  9
$DIMRND
 40
0.0
  9
$DIMDLE
 40
1.0
  9
$DIMEXE
 40
1.0
  9
$DIMTP
 40
0.0
  9
$DIMTM
 40
0.0
  9
$DIMTXT
 40
3.5
  9
$DIMCEN
 40
0.09
  9
$DIMTSZ
 40
0.0
  9
$DIMTOL
 70
     0
  9
$DIMLIM
 70
     0
  9
$DIMTIH
 70
     0
  9
$DIMTOH
 70
     0
  9
$DIMSE1
 70
     0
  9
$DIMSE2
 70
     0
  9
$DIMTAD
 70
     1
  9
$DIMZIN
 70
     8
  9
$DIMBLK
  1
OPEN30
  9
$DIMASO
 70
     1
  9
$DIMSHO
 70
     0
  9
$DIMPOST
  1

  9
$DIMAPOST
  1

  9
$DIMALT
 70
     0
  9
$DIMALTD
 70
     3
  9
$DIMALTF
 40
25.4
  9
$DIMLFAC
 40
1.0
  9
$DIMTOFL
 70
     0
  9
$DIMTVP
 40
0.0
  9
$DIMTIX
 70
     0
  9
$DIMSOXD
 70
     0
  9
$DIMSAH
 70
     0
  9
$DIMBLK1
  1
OPEN30
  9
$DIMBLK2
  1
OPEN30
  9
$DIMSTYLE
  2
Standard
  9
$DIMCLRD
 70
     4
  9
$DIMCLRE
 70
     4
  9
$DIMCLRT
 70
     4
  9
$DIMTFAC
 40
0.7
  9
$DIMGAP
 40
0.784
  9
$DIMJUST
 70
     0
  9
$DIMSD1
 70
     0
  9
$DIMSD2
 70
     0
  9
$DIMTOLJ
 70
     1
  9
$DIMTZIN
 70
     0
  9
$DIMALTZ
 70
     0
  9
$DIMALTTZ
 70
     0
  9
$DIMUPT
 70
     0
  9
$DIMDEC
 70
     3
  9
$DIMTDEC
 70
     3
  9
$DIMALTU
 70
     2
  9
$DIMALTTD
 70
     2
  9
$DIMTXSTY
  7
WinFont17
  9
$DIMAUNIT
 70
     0
  9
$DIMADEC
 70
     3
  9
$DIMALTRND
 40
0.0
  9
$DIMAZIN
 70
     2
  9
$DIMDSEP
 70
    46
  9
$DIMATFIT
 70
     3
  9
$DIMFRAC
 70
     0
  9
$DIMLDRBLK
  1

  9
$DIMLUNIT
 70
     2
  9
$DIMLWD
 70
    -1
  9
$DIMLWE
 70
    -1
  9
$DIMTMOVE
 70
     0
  9
$LUNITS
 70
     2
  9
$LUPREC
 70
     4
  9
$SKETCHINC
 40
0.1
  9
$FILLETRAD
 40
0.0
  9
$AUNITS
 70
     0
  9
$AUPREC
 70
     0
  9
$MENU
  1
ACAD
  9
$ELEVATION
 40
0.0
  9
$PELEVATION
 40
0.0
  9
$THICKNESS
 40
0.0
  9
$LIMCHECK
 70
     0
  9
$CHAMFERA
 40
0.0
  9
$CHAMFERB
 40
0.0
  9
$CHAMFERC
 40
0.0
  9
$CHAMFERD
 40
0.0
  9
$SKPOLY
 70
     0
  9
$TDCREATE
 40
2305814.375
  9
$TDUCREATE
 40
26363811.0
  9
$TDUPDATE
 40
2458653.572589838
  9
$TDUUPDATE
 40
2458653.197589838
  9
$TDINDWG
 40
0.0
  9
$TDUSRTIMER
 40
0.0
  9
$USRTIMER
 70
     1
  9
$ANGBASE
 50
0.0
  9
$ANGDIR
 70
     0
  9
$PDMODE
 70
    65
  9
$PDSIZE
 40
0.2
  9
$PLINEWID
 40
0.0
  9
$SPLFRAME
 70
     0
  9
$SPLINETYPE
 70
     6
  9
$SPLINESEGS
 70
     8
  9
$HANDSEED
  5
3C6
  9
$SURFTAB1
 70
     6
  9
$SURFTAB2
 70
     6
  9
$SURFTYPE
 70
     6
  9
$SURFU
 70
     6
  9
$SURFV
 70
     6
  9
$UCSBASE
  2

  9
$UCSNAME
  2

  9
$UCSORG
 10
0.0
 20
0.0
 30
0.0
  9
$UCSXDIR
 10
1.0
 20
0.0
 30
0.0
  9
$UCSYDIR
 10
0.0
 20
1.0
 30
0.0
  9
$UCSORTHOREF
  2

  9
$UCSORTHOVIEW
 70
     0
  9
$UCSORGTOP
 10
0.0
 20
0.0
 30
0.0
  9
$UCSORGBOTTOM
 10
0.0
 20
0.0
 30
0.0
  9
$UCSORGLEFT
 10
0.0
 20
0.0
 30
0.0
  9
$UCSORGRIGHT
 10
0.0
 20
0.0
 30
0.0
  9
$UCSORGFRONT
 10
0.0
 20
0.0
 30
0.0
  9
$UCSORGBACK
 10
0.0
 20
0.0
 30
0.0
  9
$PUCSBASE
  2

  9
$PUCSNAME
  2

  9
$PUCSORG
 10
0.0
 20
0.0
 30
0.0
  9
$PUCSXDIR
 10
1.0
 20
0.0
 30
0.0
  9
$PUCSYDIR
 10
0.0
 20
1.0
 30
0.0
  9
$PUCSORTHOREF
  2

  9
$PUCSORTHOVIEW
 70
     0
  9
$PUCSORGTOP
 10
0.0
 20
0.0
 30
0.0
  9
$PUCSORGBOTTOM
 10
0.0
 20
0.0
 30
0.0
  9
$PUCSORGLEFT
 10
0.0
 20
0.0
 30
0.0
  9
$PUCSORGRIGHT
 10
0.0
 20
0.0
 30
0.0
  9
$PUCSORGFRONT
 10
0.0
 20
0.0
 30
0.0
  9
$PUCSORGBACK
 10
0.0
 20
0.0
 30
0.0
  9
$USERI1
 70
     0
  9
$USERI2
 70
     0
  9
$USERI3
 70
     0
  9
$USERI4
 70
     0
  9
$USERI5
 70
     0
  9
$USERR1
 40
0.0
  9
$USERR2
 40
0.0
  9
$USERR3
 40
0.0
  9
$USERR4
 40
0.0
  9
$USERR5
 40
0.0
  9
$WORLDVIEW
 70
     1
  9
$SHADEDGE
 70
     3
  9
$SHADEDIF
 70
    70
  9
$TILEMODE
 70
     1
  9
$MAXACTVP
 70
    64
  9
$PINSBASE
 10
0.0
 20
0.0
 30
0.0
  9
$PLIMCHECK
 70
     0
  9
$PEXTMIN
 10
1.000000000000000E+20
 20
1.000000000000000E+20
 30
1.000000000000000E+20
  9
$PEXTMAX
 10
-1.000000000000000E+20
 20
-1.000000000000000E+20
 30
-1.000000000000000E+20
  9
$PLIMMIN
 10
0.0
 20
0.0
  9
$PLIMMAX
 10
12.0
 20
9.0
  9
$UNITMODE
 70
     0
  9
$VISRETAIN
 70
     1
  9
$PLINEGEN
 70
     0
  9
$PSLTSCALE
 70
     1
  9
$TREEDEPTH
 70
  3020
  9
$CMLSTYLE
  2
Standard
  9
$CMLJUST
 70
     0
  9
$CMLSCALE
 40
1.0
  9
$PROXYGRAPHICS
 70
     1
  9
$MEASUREMENT
 70
     0
  9
$CELWEIGHT
370
    -1
  9
$ENDCAPS
280
     0
  9
$JOINSTYLE
280
     0
  9
$LWDISPLAY
290
     0
  9
$INSUNITS
 70
     1
  9
$HYPERLINKBASE
  1

  9
$STYLESHEET
  1

  9
$XEDIT
290
     1
  9
$CEPSNTYPE
380
     0
  9
$PSTYLEMODE
290
     1
  9
$FINGERPRINTGUID
  2
{8CC293B7-D12A-459D-8AA2-57D47AEF6FA9}
  9
$VERSIONGUID
  2
{FAEB1C32-E019-11D5-929B-00C0DF256EC4}
  9
$EXTNAMES
290
     1
  9
$PSVPSCALE
 40
0.0
  9
$OLESTARTUP
290
     0
  0
ENDSEC
  0
SECTION
  2
CLASSES
  0
CLASS
  1
ACDBDICTIONARYWDFLT
  2
AcDbDictionaryWithDefault
  3
ObjectDBX Classes
 90
        0
280
     0
281
     0
  0
CLASS
  1
VISUALSTYLE
  2
AcDbVisualStyle
  3
ObjectDBX Classes
 90
     4095
280
     0
281
     0
  0
CLASS
  1
MATERIAL
  2
AcDbMaterial
  3
ObjectDBX Classes
 90
     1153
280
     0
281
     0
  0
CLASS
  1
SCALE
  2
AcDbScale
  3
ObjectDBX Classes
 90
     1153
280
     0
281
     0
  0
CLASS
  1
TABLESTYLE
  2
AcDbTableStyle
  3
ObjectDBX Classes
 90
     4095
280
     0
281
     0
  0
CLASS
  1
MLEADERSTYLE
  2
AcDbMLeaderStyle
  3
ACDB_MLEADERSTYLE_CLASS
 90
     4095
280
     0
281
     0
  0
CLASS
  1
SUN
  2
AcDbSun
  3
SCENEOE
 90
     1153
280
     0
281
     0
  0
CLASS
  1
DICTIONARYVAR
  2
AcDbDictionaryVar
  3
ObjectDBX Classes
 90
        0
280
     0
281
     0
  0
CLASS
  1
ACDBPLACEHOLDER
  2
AcDbPlaceHolder
  3
ObjectDBX Classes
 90
        0
280
     0
281
     0
  0
CLASS
  1
LAYOUT
  2
AcDbLayout
  3
ObjectDBX Classes
 90
        0
280
     0
281
     0
  0
ENDSEC
  0
SECTION
  2
TABLES
  0
TABLE
  2
VPORT
  5
8
102
{ACAD_XDICTIONARY
360
389
102
}
330
0
100
AcDbSymbolTable
 70
     1
  0
VPORT
  5
29
330
8
100
AcDbSymbolTableRecord
100
AcDbViewportTableRecord
  2
*Active
 70
     0
 10
0.0
 20
0.0
 11
1.0
 21
1.0
 12
166.6792172613003
 22
117.4458172262509
 13
0.0
 23
0.0
 14
0.5
 24
0.5
 15
0.5
 25
0.5
 16
0.0
 26
0.0
 36
1.0
 17
0.0
 27
0.0
 37
0.0
 40
234.8916344525019
 41
1.419200966009753
 42
50.0
 43
0.0
 44
0.0
 50
0.0
 51
0.0
 71
     0
 72
   100
 73
     1
 74
     3
 75
     0
 76
     0
 77
     0
 78
     0
281
     0
 65
     1
110
0.0
120
0.0
130
0.0
111
1.0
121
0.0
131
0.0
112
0.0
122
1.0
132
0.0
 79
     0
146
0.0
  0
ENDTAB
  0
TABLE
  2
LTYPE
  5
5
330
0
100
AcDbSymbolTable
 70
    17
  0
LTYPE
  5
14
330
5
100
AcDbSymbolTableRecord
100
AcDbLinetypeTableRecord
  2
ByBlock
 70
     0
  3

 72
    65
 73
     0
 40
0.0
  0
LTYPE
  5
15
330
5
100
AcDbSymbolTableRecord
100
AcDbLinetypeTableRecord
  2
ByLayer
 70
     0
  3

 72
    65
 73
     0
 40
0.0
  0
LTYPE
  5
16
330
5
100
AcDbSymbolTableRecord
100
AcDbLinetypeTableRecord
  2
Continuous
 70
     0
  3
Solid line
 72
    65
 73
     0
 40
0.0
  0
LTYPE
  5
6E
330
5
100
AcDbSymbolTableRecord
100
AcDbLinetypeTableRecord
  2
DIVIDE
 70
     0
  3
Divide ____ . . ____ . . ____ . . ____ . . ____
 72
    65
 73
     6
 40
1.25
 49
0.5
 74
     0
 49
-0.25
 74
     0
 49
0.0
 74
     0
 49
-0.25
 74
     0
 49
0.0
 74
     0
 49
-0.25
 74
     0
  0
LTYPE
  5
6F
330
5
100
AcDbSymbolTableRecord
100
AcDbLinetypeTableRecord
  2
HIDDEN
 70
     0
  3
Hidden __ __ __ __ __ __ __ __ __ __ __ __ __ _
 72
    65
 73
     2
 40
9.525
 49
6.35
 74
     0
 49
-3.175
 74
     0
  0
LTYPE
  5
70
330
5
100
AcDbSymbolTableRecord
100
AcDbLinetypeTableRecord
  2
HIDDEN2
 70
     0
  3
Hidden (.5x) _ _ _ _ _ _ _ _ _ _ _ _ _ _ _ _ _
 72
    65
 73
     2
 40
4.7625
 49
3.175
 74
     0
 49
-1.5875
 74
     0
  0
LTYPE
  5
71
330
5
100
AcDbSymbolTableRecord
100
AcDbLinetypeTableRecord
  2
CENTER2
 70
     0
  3
Center (.5x) ___ _ ___ _ ___ _ ___ _ ___ _ ___
 72
    65
 73
     4
 40
28.575
 49
19.05
 74
     0
 49
-3.175
 74
     0
 49
3.175
 74
     0
 49
-3.175
 74
     0
  0
LTYPE
  5
72
330
5
100
AcDbSymbolTableRecord
100
AcDbLinetypeTableRecord
  2
PHANTOM2
 70
     0
  3
Phantom (.5x) ___ _ _ ___ _ _ ___ _ _ ___ _ _
 72
    65
 73
     6
 40
31.75
 49
15.875
 74
     0
 49
-3.175
 74
     0
 49
3.175
 74
     0
 49
-3.175
 74
     0
 49
3.175
 74
     0
 49
-3.175
 74
     0
  0
LTYPE
  5
73
330
5
100
AcDbSymbolTableRecord
100
AcDbLinetypeTableRecord
  2
DASHED
 70
     0
  3
Dashed __ __ __ __ __ __ __ __ __ __ __ __ __ _
 72
    65
 73
     2
 40
19.05
 49
12.7
 74
     0
 49
-6.35
 74
     0
  0
LTYPE
  5
74
330
5
100
AcDbSymbolTableRecord
100
AcDbLinetypeTableRecord
  2
CENTER
 70
     0
  3
Center ____ _ ____ _ ____ _ ____ _ ____ _ ____
 72
    65
 73
     4
 40
50.8
 49
31.75
 74
     0
 49
-6.35
 74
     0
 49
6.35
 74
     0
 49
-6.35
 74
     0
  0
LTYPE
  5
75
330
5
100
AcDbSymbolTableRecord
100
AcDbLinetypeTableRecord
  2
PHANTOM
 70
     0
  3
Phantom ______  __  __  ______  __  __  ______
 72
    65
 73
     6
 40
63.5
 49
31.75
 74
     0
 49
-6.35
 74
     0
 49
6.35
 74
     0
 49
-6.35
 74
     0
 49
6.35
 74
     0
 49
-6.35
 74
     0
  0
LTYPE
  5
76
330
5
100
AcDbSymbolTableRecord
100
AcDbLinetypeTableRecord
  2
BORDER2
 70
     0
  3
Border (.5x) __.__.__.__.__.__.__.__.__.__.__.
 72
    65
 73
     6
 40
22.225
 49
6.35
 74
     0
 49
-3.175
 74
     0
 49
6.35
 74
     0
 49
-3.175
 74
     0
 49
0.0
 74
     0
 49
-3.175
 74
     0
  0
LTYPE
  5
77
330
5
100
AcDbSymbolTableRecord
100
AcDbLinetypeTableRecord
  2
HIDDENX2
 70
     0
  3
Hidden (2x) ____ ____ ____ ____ ____ ____ ____
 72
    65
 73
     2
 40
19.05
 49
12.7
 74
     0
 49
-6.35
 74
     0
  0
LTYPE
  5
78
330
5
100
AcDbSymbolTableRecord
100
AcDbLinetypeTableRecord
  2
DOTX2
 70
     0
  3
Dot (2x) .  .  .  .  .  .  .  .  .  .  .  .  . 
 72
    65
 73
     2
 40
12.7
 49
0.0
 74
     0
 49
-12.7
 74
     0
  0
LTYPE
  5
79
330
5
100
AcDbSymbolTableRecord
100
AcDbLinetypeTableRecord
  2
DASHDOTX2
 70
     0
  3
Dash dot (2x) ____  .  ____  .  ____  .  ___
 72
    65
 73
     4
 40
50.8
 49
25.4
 74
     0
 49
-12.7
 74
     0
 49
0.0
 74
     0
 49
-12.7
 74
     0
  0
LTYPE
  5
7A
330
5
100
AcDbSymbolTableRecord
100
AcDbLinetypeTableRecord
  2
DIVIDEX2
 70
     0
  3
Divide (2x) ________  .  .  ________  .  .  _
 72
    65
 73
     6
 40
63.5
 49
25.4
 74
     0
 49
-12.7
 74
     0
 49
0.0
 74
     0
 49
-12.7
 74
     0
 49
0.0
 74
     0
 49
-12.7
 74
     0
  0
LTYPE
  5
7B
330
5
100
AcDbSymbolTableRecord
100
AcDbLinetypeTableRecord
  2
DASHEDX2
 70
     0
  3
Dashed (2x) ____  ____  ____  ____  ____  ___
 72
    65
 73
     2
 40
38.1
 49
25.4
 74
     0
 49
-12.7
 74
     0
  0
LTYPE
  5
7C
330
5
100
AcDbSymbolTableRecord
100
AcDbLinetypeTableRecord
  2
CENTERX2
 70
     0
  3
Center (2x) ________  __  ________  __  _____
 72
    65
 73
     4
 40
101.6
 49
63.5
 74
     0
 49
-12.7
 74
     0
 49
12.7
 74
     0
 49
-12.7
 74
     0
  0
LTYPE
  5
7D
330
5
100
AcDbSymbolTableRecord
100
AcDbLinetypeTableRecord
  2
PHANTOMX2
 70
     0
  3
Phantom (2x) ____________    ____    ____   _
 72
    65
 73
     6
 40
127.0
 49
63.5
 74
     0
 49
-12.7
 74
     0
 49
12.7
 74
     0
 49
-12.7
 74
     0
 49
12.7
 74
     0
 49
-12.7
 74
     0
  0
ENDTAB
  0
TABLE
  2
LAYER
  5
2
330
0
100
AcDbSymbolTable
 70
     4
  0
LAYER
  5
10
330
2
100
AcDbSymbolTableRecord
100
AcDbLayerTableRecord
  2
0
 70
     0
 62
     7
  6
Continuous
370
    -3
390
F
  0
LAYER
  5
7E
330
2
100
AcDbSymbolTableRecord
100
AcDbLayerTableRecord
  2
無題001
 70
     0
 62
     7
  6
Continuous
370
     0
390
F
  0
LAYER
  5
7F
330
2
100
AcDbSymbolTableRecord
100
AcDbLayerTableRecord
  2
2
 70
     0
 62
     7
  6
Continuous
370
     0
390
F
  0
LAYER
  5
80
330
2
100
AcDbSymbolTableRecord
100
AcDbLayerTableRecord
  2
DEFPOINTS
 70
     0
 62
     3
  6
DIVIDE
290
     0
370
     0
390
F
  0
ENDTAB
  0
TABLE
  2
STYLE
  5
3
330
0
100
AcDbSymbolTable
 70
    23
  0
STYLE
  5
11
330
3
100
AcDbSymbolTableRecord
100
AcDbTextStyleTableRecord
  2
Standard
 70
     0
 40
0.0
 41
0.8
 50
0.0
 71
     0
 42
4.0
  3
MONOTXT.shx
  4
EXTFONT.shx
  0
STYLE
  5
81
330
3
100
AcDbSymbolTableRecord
100
AcDbTextStyleTableRecord
  2
DIMSTANDARD
 70
     0
 40
0.0
 41
0.4
 50
0.0
 71
     0
 42
4.0
  3
MONOTXT.shx
  4
EXTFONT.shx
  0
STYLE
  5
170
330
3
100
AcDbSymbolTableRecord
100
AcDbTextStyleTableRecord
  2
MTSTANDARD
 70
     0
 40
0.0
 41
1.0
 50
0.0
 71
     0
 42
4.0
  3
MONOTXT.shx
  4
EXTFONT.shx
  0
STYLE
  5
171
330
3
100
AcDbSymbolTableRecord
100
AcDbTextStyleTableRecord
  2
MTSTANDARD1
 70
     0
 40
0.0
 41
1.0
 50
0.0
 71
     0
 42
4.0
  3
MONOTXT.shx
  4
EXTFONT.shx
  0
STYLE
  5
176
330
3
100
AcDbSymbolTableRecord
100
AcDbTextStyleTableRecord
  2
WinFont1
 70
     0
 40
0.0
 41
0.8
 50
0.0
 71
     0
 42
4.0
  3

  4

1001
ACAD
1000
MS Gothic
1071
    32768
  0
STYLE
  5
185
330
3
100
AcDbSymbolTableRecord
100
AcDbTextStyleTableRecord
  2
WinFont2
 70
     0
 40
0.0
 41
0.8
 50
0.0
 71
     0
 42
4.0
  3

  4

1001
ACAD
1000
MS Gothic
1071
    32768
  0
STYLE
  5
195
330
3
100
AcDbSymbolTableRecord
100
AcDbTextStyleTableRecord
  2
WinFont3
 70
     0
 40
0.0
 41
0.8
 50
0.0
 71
     0
 42
4.0
  3

  4

1001
ACAD
1000
MS Gothic
1071
    32768
  0
STYLE
  5
1A4
330
3
100
AcDbSymbolTableRecord
100
AcDbTextStyleTableRecord
  2
WinFont4
 70
     0
 40
0.0
 41
0.8
 50
0.0
 71
     0
 42
4.0
  3

  4

1001
ACAD
1000
MS Gothic
1071
    32768
  0
STYLE
  5
1B3
330
3
100
AcDbSymbolTableRecord
100
AcDbTextStyleTableRecord
  2
WinFont5
 70
     0
 40
0.0
 41
0.8
 50
0.0
 71
     0
 42
4.0
  3

  4

1001
ACAD
1000
MS Gothic
1071
    32768
  0
STYLE
  5
1C9
330
3
100
AcDbSymbolTableRecord
100
AcDbTextStyleTableRecord
  2
WinFont6
 70
     0
 40
0.0
 41
0.8
 50
0.0
 71
     0
 42
4.0
  3

  4

1001
ACAD
1000
MS Gothic
1071
    32768
  0
STYLE
  5
292
330
3
100
AcDbSymbolTableRecord
100
AcDbTextStyleTableRecord
  2
MTSTANDARD2
 70
     0
 40
0.0
 41
1.0
 50
0.0
 71
     0
 42
4.0
  3
MONOTXT.shx
  4
EXTFONT.shx
  0
STYLE
  5
2A0
330
3
100
AcDbSymbolTableRecord
100
AcDbTextStyleTableRecord
  2
WinFont7
 70
     0
 40
0.0
 41
0.8
 50
0.0
 71
     0
 42
4.0
  3

  4

1001
ACAD
1000
MS Gothic
1071
    32768
  0
STYLE
  5
2AF
330
3
100
AcDbSymbolTableRecord
100
AcDbTextStyleTableRecord
  2
WinFont8
 70
     0
 40
0.0
 41
0.8
 50
0.0
 71
     0
 42
4.0
  3

  4

1001
ACAD
1000
MS Gothic
1071
    32768
  0
STYLE
  5
2B2
330
3
100
AcDbSymbolTableRecord
100
AcDbTextStyleTableRecord
  2
MTSTANDARD3
 70
     0
 40
0.0
 41
0.8
 50
0.0
 71
     0
 42
4.0
  3
MONOTXT.shx
  4
EXTFONT.shx
  0
STYLE
  5
2C3
330
3
100
AcDbSymbolTableRecord
100
AcDbTextStyleTableRecord
  2
WinFont9
 70
     0
 40
0.0
 41
0.8
 50
0.0
 71
     0
 42
4.0
  3

  4

1001
ACAD
1000
MS Gothic
1071
    32768
  0
STYLE
  5
2D2
330
3
100
AcDbSymbolTableRecord
100
AcDbTextStyleTableRecord
  2
WinFont10
 70
     0
 40
0.0
 41
0.8
 50
0.0
 71
     0
 42
4.0
  3

  4

1001
ACAD
1000
MS Gothic
1071
    32768
  0
STYLE
  5
2E1
330
3
100
AcDbSymbolTableRecord
100
AcDbTextStyleTableRecord
  2
WinFont11
 70
     0
 40
0.0
 41
0.8
 50
0.0
 71
     0
 42
4.0
  3

  4

1001
ACAD
1000
MS Gothic
1071
    32768
  0
STYLE
  5
2F0
330
3
100
AcDbSymbolTableRecord
100
AcDbTextStyleTableRecord
  2
WinFont12
 70
     0
 40
0.0
 41
0.8
 50
0.0
 71
     0
 42
4.0
  3

  4

1001
ACAD
1000
MS Gothic
1071
    32768
  0
STYLE
  5
2FF
330
3
100
AcDbSymbolTableRecord
100
AcDbTextStyleTableRecord
  2
WinFont13
 70
     0
 40
0.0
 41
0.8
 50
0.0
 71
     0
 42
4.0
  3

  4

1001
ACAD
1000
MS Gothic
1071
    32768
  0
STYLE
  5
30E
330
3
100
AcDbSymbolTableRecord
100
AcDbTextStyleTableRecord
  2
WinFont14
 70
     0
 40
0.0
 41
0.8
 50
0.0
 71
     0
 42
4.0
  3

  4

1001
ACAD
1000
MS Gothic
1071
    32768
  0
STYLE
  5
34E
330
3
100
AcDbSymbolTableRecord
100
AcDbTextStyleTableRecord
  2
WinFont15
 70
     0
 40
0.0
 41
0.8
 50
0.0
 71
     0
 42
4.0
  3

  4

1001
ACAD
1000
MS Gothic
1071
    32768
  0
STYLE
  5
361
330
3
100
AcDbSymbolTableRecord
100
AcDbTextStyleTableRecord
  2
WinFont16
 70
     0
 40
0.0
 41
0.8
 50
0.0
 71
     0
 42
4.0
  3

  4

1001
ACAD
1000
MS Gothic
1071
    32768
  0
STYLE
  5
370
330
3
100
AcDbSymbolTableRecord
100
AcDbTextStyleTableRecord
  2
WinFont17
 70
     0
 40
0.0
 41
0.8
 50
0.0
 71
     0
 42
4.0
  3

  4

1001
ACAD
1000
MS Gothic
1071
    32768
  0
ENDTAB
  0
TABLE
  2
VIEW
  5
6
330
0
100
AcDbSymbolTable
 70
     0
  0
ENDTAB
  0
TABLE
  2
UCS
  5
7
330
0
100
AcDbSymbolTable
 70
     0
  0
ENDTAB
  0
TABLE
  2
APPID
  5
9
330
0
100
AcDbSymbolTable
 70
     2
  0
APPID
  5
12
330
9
100
AcDbSymbolTableRecord
100
AcDbRegAppTableRecord
  2
ACAD
 70
     0
  0
APPID
  5
3C3
330
9
100
AcDbSymbolTableRecord
100
AcDbRegAppTableRecord
  2
ACAD_MLEADERVER
 70
     0
  0
ENDTAB
  0
TABLE
  2
DIMSTYLE
  5
A
330
0
100
AcDbSymbolTable
 70
    20
100
AcDbDimStyleTable
  0
DIMSTYLE
105
27
330
A
100
AcDbSymbolTableRecord
100
AcDbDimStyleTableRecord
  2
Standard
 70
     0
 41
3.0
 42
0.0
 43
10.0
 44
1.0
 73
     0
 74
     0
 77
     3
 78
     8
 79
     2
140
3.5
141
0.0
146
0.7
147
0.784
176
     4
177
     4
271
     3
178
     4
179
     3
271
     3
340
11
342
86
371
    -1
372
    -1
  0
DIMSTYLE
105
177
102
{ACAD_REACTORS
330
178
102
}
330
A
100
AcDbSymbolTableRecord
100
AcDbDimStyleTableRecord
  2
DIMSTYEX_1
 70
     0
 41
2.0
 42
0.0
 43
3.639999999999418
 44
1.0
 73
     0
 74
     0
 77
     3
 78
     8
 79
     2
140
3.136
141
0.0
146
0.7
147
0.784
173
     1
176
     4
177
     4
271
     1
178
     4
179
     3
271
     1
272
     1
340
176
342
86
343
86
344
86
371
    -1
372
    -1
  0
DIMSTYLE
105
186
102
{ACAD_REACTORS
330
187
102
}
330
A
100
AcDbSymbolTableRecord
100
AcDbDimStyleTableRecord
  2
DIMSTYEX_2
 70
     0
 41
3.0
 42
0.0
 43
6.329716
 44
1.0
 73
     0
 74
     0
 77
     3
 78
     8
 79
     2
140
3.136
141
0.0
146
0.7
147
0.784
173
     1
176
     4
177
     4
271
     1
178
     4
179
     3
271
     1
272
     1
340
185
342
86
343
86
344
86
371
    -1
372
    -1
  0
DIMSTYLE
105
196
102
{ACAD_REACTORS
330
197
102
}
330
A
100
AcDbSymbolTableRecord
100
AcDbDimStyleTableRecord
  2
DIMSTYEX_3
 70
     0
 41
3.0
 42
0.0
 43
0.0
 44
1.0
 73
     0
 74
     0
 77
     3
 78
     8
 79
     2
140
3.136
141
0.0
146
0.7
147
0.784
173
     1
176
     4
177
     4
271
     3
178
     4
179
     3
271
     3
272
     3
340
195
342
86
343
86
344
86
371
    -1
372
    -1
  0
DIMSTYLE
105
1A5
102
{ACAD_REACTORS
330
1A6
102
}
330
A
100
AcDbSymbolTableRecord
100
AcDbDimStyleTableRecord
  2
DIMSTYEX_4
 70
     0
 41
3.0
 42
0.0
 43
4.670901440905027
 44
1.0
 73
     0
 74
     0
 77
     3
 78
     8
 79
     2
140
3.136
141
0.0
146
0.7
147
0.784
173
     1
176
     4
177
     4
271
     3
178
     4
179
     3
271
     3
272
     3
340
1A4
342
86
343
86
344
86
371
    -1
372
    -1
  0
DIMSTYLE
105
1B4
102
{ACAD_REACTORS
330
1B5
102
}
330
A
100
AcDbSymbolTableRecord
100
AcDbDimStyleTableRecord
  2
DIMSTYEX_5
 70
     0
 41
3.0
 42
0.0
 43
0.0
 44
1.0
 73
     0
 74
     0
 77
     3
 78
     8
 79
     2
140
3.136
141
0.0
146
0.7
147
0.784
173
     1
176
     4
177
     4
271
     3
178
     4
179
     3
271
     3
272
     3
340
1B3
342
86
343
86
344
86
371
    -1
372
    -1
  0
DIMSTYLE
105
1B7
330
A
100
AcDbSymbolTableRecord
100
AcDbDimStyleTableRecord
  2
DIMSTYEX_6
 70
     0
 41
3.0
 42
0.0
 43
10.0
 44
1.0
 73
     0
 74
     0
 77
     3
 78
     8
 79
     2
140
3.5
141
0.0
146
0.7
147
0.784
176
     4
177
     4
271
     3
178
     4
179
     3
271
     3
340
11
341
86
342
86
371
    -1
372
    -1
  0
DIMSTYLE
105
1CA
102
{ACAD_REACTORS
330
1CB
102
}
330
A
100
AcDbSymbolTableRecord
100
AcDbDimStyleTableRecord
  2
DIMSTYEX_7
 70
     0
 41
3.0
 42
0.0
 43
0.0
 44
1.0
 73
     0
 74
     0
 77
     3
 78
     8
 79
     2
140
3.136
141
0.0
146
0.7
147
1.784
173
     1
176
     4
177
     4
271
     3
178
     4
179
     3
271
     3
272
     3
340
1C9
342
86
343
86
344
86
371
    -1
372
    -1
  0
DIMSTYLE
105
1D4
330
A
100
AcDbSymbolTableRecord
100
AcDbDimStyleTableRecord
  2
DIMSTYEX_8
 70
     0
 41
3.0
 42
0.0
 43
10.0
 44
1.0
 73
     0
 74
     0
 77
     3
 78
     8
 79
     2
140
3.5
141
0.0
146
0.7
147
0.784
176
     4
177
     4
271
     3
178
     4
179
     3
271
     3
340
11
341
86
342
86
371
    -1
372
    -1
  0
DIMSTYLE
105
2A1
102
{ACAD_REACTORS
330
2A2
102
}
330
A
100
AcDbSymbolTableRecord
100
AcDbDimStyleTableRecord
  2
DIMSTYEX_9
 70
     0
 41
3.0
 42
0.0
 43
0.0
 44
1.0
 73
     0
 74
     0
 77
     3
 78
     8
 79
     2
140
3.136
141
0.0
146
0.7
147
0.784
173
     1
176
     4
177
     4
271
     3
178
     4
179
     3
271
     3
272
     3
340
2A0
342
86
343
86
344
86
371
    -1
372
    -1
  0
DIMSTYLE
105
2B0
102
{ACAD_REACTORS
330
2B1
102
}
330
A
100
AcDbSymbolTableRecord
100
AcDbDimStyleTableRecord
  2
DIMSTYEX_10
 70
     0
 41
3.0
 42
0.0
 43
7.190567521945638
 44
1.0
 73
     0
 74
     0
 77
     3
 78
     8
 79
     2
140
3.136
141
0.0
146
0.7
147
0.784
173
     1
176
     4
177
     4
271
     3
178
     4
179
     3
271
     3
272
     3
340
2AF
342
86
343
86
344
86
371
    -1
372
    -1
  0
DIMSTYLE
105
2C4
102
{ACAD_REACTORS
330
2C5
102
}
330
A
100
AcDbSymbolTableRecord
100
AcDbDimStyleTableRecord
  2
DIMSTYEX_11
 70
     0
 41
3.0
 42
0.0
 43
4.020562103193015
 44
1.0
 73
     0
 74
     0
 77
     3
 78
     8
 79
     2
140
3.136
141
0.0
146
0.7
147
0.784
173
     1
176
     4
177
     4
271
     3
178
     4
179
     3
271
     3
272
     3
340
2C3
342
86
343
86
344
86
371
    -1
372
    -1
  0
DIMSTYLE
105
2D3
102
{ACAD_REACTORS
330
2D4
102
}
330
A
100
AcDbSymbolTableRecord
100
AcDbDimStyleTableRecord
  2
DIMSTYEX_12
 70
     0
 41
3.0
 42
0.0
 43
0.0
 44
1.0
 73
     0
 74
     0
 77
     3
 78
     8
 79
     2
140
3.136
141
0.0
146
0.7
147
0.784
173
     1
176
     4
177
     4
271
     3
178
     4
179
     3
271
     3
272
     3
340
2D2
342
86
343
86
344
86
371
    -1
372
    -1
  0
DIMSTYLE
105
2E2
102
{ACAD_REACTORS
330
2E3
102
}
330
A
100
AcDbSymbolTableRecord
100
AcDbDimStyleTableRecord
  2
DIMSTYEX_13
 70
     0
 41
3.0
 42
0.0
 43
0.0
 44
1.0
 73
     0
 74
     0
 77
     3
 78
     8
 79
     2
140
3.136
141
0.0
146
0.7
147
0.784
173
     1
176
     4
177
     4
271
     3
178
     4
179
     3
271
     3
272
     3
340
2E1
342
86
343
86
344
86
371
    -1
372
    -1
  0
DIMSTYLE
105
2F1
102
{ACAD_REACTORS
330
2F2
102
}
330
A
100
AcDbSymbolTableRecord
100
AcDbDimStyleTableRecord
  2
DIMSTYEX_14
 70
     0
 41
3.0
 42
0.0
 43
0.0
 44
1.0
 73
     0
 74
     0
 77
     3
 78
     8
 79
     2
140
3.136
141
0.0
146
0.7
147
0.784
173
     1
176
     4
177
     4
271
     3
178
     4
179
     3
271
     3
272
     3
340
2F0
342
86
343
86
344
86
371
    -1
372
    -1
  0
DIMSTYLE
105
300
102
{ACAD_REACTORS
330
301
102
}
330
A
100
AcDbSymbolTableRecord
100
AcDbDimStyleTableRecord
  2
DIMSTYEX_15
 70
     0
 41
3.0
 42
0.0
 43
1.694894268018288
 44
1.0
 73
     0
 74
     0
 77
     3
 78
     8
 79
     2
140
3.136
141
0.0
146
0.7
147
0.784
173
     1
176
     4
177
     4
271
     3
178
     4
179
     3
271
     3
272
     3
340
2FF
342
86
343
86
344
86
371
    -1
372
    -1
  0
DIMSTYLE
105
30F
102
{ACAD_REACTORS
330
310
102
}
330
A
100
AcDbSymbolTableRecord
100
AcDbDimStyleTableRecord
  2
DIMSTYEX_16
 70
     0
 41
3.0
 42
0.0
 43
1.694894268018288
 44
1.0
 73
     0
 74
     0
 77
     3
 78
     8
 79
     2
140
3.136
141
0.0
146
0.7
147
0.784
173
     1
176
     4
177
     4
271
     3
178
     4
179
     3
271
     3
272
     3
340
30E
342
86
343
86
344
86
371
    -1
372
    -1
  0
DIMSTYLE
105
34F
102
{ACAD_REACTORS
330
350
102
}
330
A
100
AcDbSymbolTableRecord
100
AcDbDimStyleTableRecord
  2
DIMSTYEX_17
 70
     0
 41
3.0
 42
0.0
 43
0.1393120204936622
 44
1.0
 73
     0
 74
     0
 77
     3
 78
     8
 79
     2
140
3.136
141
0.0
146
0.7
147
0.784
173
     1
176
     4
177
     4
271
     3
178
     4
179
     3
271
     3
272
     3
340
34E
342
86
343
86
344
86
371
    -1
372
    -1
  0
DIMSTYLE
105
362
102
{ACAD_REACTORS
330
363
102
}
330
A
100
AcDbSymbolTableRecord
100
AcDbDimStyleTableRecord
  2
DIMSTYEX_18
 70
     0
 41
3.0
 42
0.0
 43
3.057642387014312
 44
1.0
 73
     0
 74
     0
 77
     3
 78
     8
 79
     2
140
3.136
141
0.0
146
0.7
147
0.784
173
     1
176
     4
177
     4
271
     1
178
     4
179
     3
271
     1
272
     1
340
361
342
86
343
86
344
86
371
    -1
372
    -1
  0
DIMSTYLE
105
371
102
{ACAD_REACTORS
330
372
102
}
330
A
100
AcDbSymbolTableRecord
100
AcDbDimStyleTableRecord
  2
DIMSTYEX_19
 70
     0
 41
3.0
 42
0.0
 43
0.0
 44
1.0
 73
     0
 74
     0
 77
     3
 78
     8
 79
     2
140
3.136
141
0.0
146
0.7
147
0.784
173
     1
176
     4
177
     4
271
     3
178
     4
179
     3
271
     3
272
     3
340
370
342
86
343
86
344
86
371
    -1
372
    -1
  0
ENDTAB
  0
TABLE
  2
BLOCK_RECORD
  5
1
330
0
100
AcDbSymbolTable
 70
    34
  0
BLOCK_RECORD
  5
1F
330
1
100
AcDbSymbolTableRecord
100
AcDbBlockTableRecord
  2
*Model_Space
340
22
  0
BLOCK_RECORD
  5
1B
330
1
100
AcDbSymbolTableRecord
100
AcDbBlockTableRecord
  2
*Paper_Space
340
1E
  0
BLOCK_RECORD
  5
82
330
1
100
AcDbSymbolTableRecord
100
AcDbBlockTableRecord
  2
_SMALL
340
0
  0
BLOCK_RECORD
  5
86
330
1
100
AcDbSymbolTableRecord
100
AcDbBlockTableRecord
  2
_OPEN30
340
0
102
{BLKREFS
331
16C
331
16D
331
17D
331
17E
331
18D
331
18E
331
19C
331
19D
331
1AB
331
1AC
331
1C1
331
1C2
331
298
331
299
331
2A7
331
2A8
331
2BB
331
2BC
331
2CA
331
2CB
331
2D9
331
2DA
331
2E8
331
2E9
331
2F7
331
2F8
331
306
331
307
331
346
331
347
331
359
331
35A
331
368
331
369
102
}
  0
BLOCK_RECORD
  5
8C
330
1
100
AcDbSymbolTableRecord
100
AcDbBlockTableRecord
  2
_OBLIQUE
340
0
  0
BLOCK_RECORD
  5
90
330
1
100
AcDbSymbolTableRecord
100
AcDbBlockTableRecord
  2
_DOT
340
0
  0
BLOCK_RECORD
  5
94
330
1
100
AcDbSymbolTableRecord
100
AcDbBlockTableRecord
  2
_DOTSMALL
340
0
  0
BLOCK_RECORD
  5
98
330
1
100
AcDbSymbolTableRecord
100
AcDbBlockTableRecord
  2
_DATUMFILLED
340
0
  0
BLOCK_RECORD
  5
9C
330
1
100
AcDbSymbolTableRecord
100
AcDbBlockTableRecord
  2
DATUMFILLED2
340
0
  0
BLOCK_RECORD
  5
A0
330
1
100
AcDbSymbolTableRecord
100
AcDbBlockTableRecord
  2
_DATUMBLANK
340
0
  0
BLOCK_RECORD
  5
A6
330
1
100
AcDbSymbolTableRecord
100
AcDbBlockTableRecord
  2
DATUMBLANK2
340
0
  0
BLOCK_RECORD
  5
AC
330
1
100
AcDbSymbolTableRecord
100
AcDbBlockTableRecord
  2
_NONE
340
0
  0
BLOCK_RECORD
  5
AF
330
1
100
AcDbSymbolTableRecord
100
AcDbBlockTableRecord
  2
BLK0
340
0
102
{BLKREFS
331
C9
102
}
  0
BLOCK_RECORD
  5
126
330
1
100
AcDbSymbolTableRecord
100
AcDbBlockTableRecord
  2
BLK1
340
0
102
{BLKREFS
331
140
102
}
  0
BLOCK_RECORD
  5
164
330
1
100
AcDbSymbolTableRecord
100
AcDbBlockTableRecord
  2
_D1
340
0
  0
BLOCK_RECORD
  5
179
330
1
100
AcDbSymbolTableRecord
100
AcDbBlockTableRecord
  2
_D2
340
0
  0
BLOCK_RECORD
  5
189
330
1
100
AcDbSymbolTableRecord
100
AcDbBlockTableRecord
  2
_D3
340
0
  0
BLOCK_RECORD
  5
198
330
1
100
AcDbSymbolTableRecord
100
AcDbBlockTableRecord
  2
_D4
340
0
  0
BLOCK_RECORD
  5
1A7
330
1
100
AcDbSymbolTableRecord
100
AcDbBlockTableRecord
  2
_D5
340
0
  0
BLOCK_RECORD
  5
1B9
330
1
100
AcDbSymbolTableRecord
100
AcDbBlockTableRecord
  2
_D6
340
0
  0
BLOCK_RECORD
  5
1DB
330
1
100
AcDbSymbolTableRecord
100
AcDbBlockTableRecord
  2
BLK2
340
0
102
{BLKREFS
331
1F5
102
}
  0
BLOCK_RECORD
  5
1F9
330
1
100
AcDbSymbolTableRecord
100
AcDbBlockTableRecord
  2
BLK3
340
0
102
{BLKREFS
331
206
102
}
  0
BLOCK_RECORD
  5
209
330
1
100
AcDbSymbolTableRecord
100
AcDbBlockTableRecord
  2
BLK4
340
0
102
{BLKREFS
331
213
102
}
  0
BLOCK_RECORD
  5
23B
330
1
100
AcDbSymbolTableRecord
100
AcDbBlockTableRecord
  2
BLK5
340
0
102
{BLKREFS
331
255
102
}
  0
BLOCK_RECORD
  5
294
330
1
100
AcDbSymbolTableRecord
100
AcDbBlockTableRecord
  2
_D7
340
0
  0
BLOCK_RECORD
  5
2A3
330
1
100
AcDbSymbolTableRecord
100
AcDbBlockTableRecord
  2
_D8
340
0
  0
BLOCK_RECORD
  5
2B7
330
1
100
AcDbSymbolTableRecord
100
AcDbBlockTableRecord
  2
_D9
340
0
  0
BLOCK_RECORD
  5
2C6
330
1
100
AcDbSymbolTableRecord
100
AcDbBlockTableRecord
  2
_D10
340
0
  0
BLOCK_RECORD
  5
2D5
330
1
100
AcDbSymbolTableRecord
100
AcDbBlockTableRecord
  2
_D11
340
0
  0
BLOCK_RECORD
  5
2E4
330
1
100
AcDbSymbolTableRecord
100
AcDbBlockTableRecord
  2
_D12
340
0
  0
BLOCK_RECORD
  5
2F3
330
1
100
AcDbSymbolTableRecord
100
AcDbBlockTableRecord
  2
_D13
340
0
  0
BLOCK_RECORD
  5
302
330
1
100
AcDbSymbolTableRecord
100
AcDbBlockTableRecord
  2
_D14
340
0
  0
BLOCK_RECORD
  5
342
330
1
100
AcDbSymbolTableRecord
100
AcDbBlockTableRecord
  2
_D15
340
0
  0
BLOCK_RECORD
  5
351
330
1
100
AcDbSymbolTableRecord
100
AcDbBlockTableRecord
  2
_D16
340
0
  0
BLOCK_RECORD
  5
364
330
1
100
AcDbSymbolTableRecord
100
AcDbBlockTableRecord
  2
_D17
340
0
  0
ENDTAB
  0
ENDSEC
  0
SECTION
  2
BLOCKS
  0
BLOCK
  5
20
330
1F
100
AcDbEntity
  8
0
100
AcDbBlockBegin
  2
*Model_Space
 70
     0
 10
0.0
 20
0.0
 30
0.0
  3
*Model_Space
  1

  0
ENDBLK
  5
21
330
1F
100
AcDbEntity
  8
0
100
AcDbBlockEnd
  0
BLOCK
  5
1C
330
1B
100
AcDbEntity
 67
     1
  8
0
100
AcDbBlockBegin
  2
*Paper_Space
 70
     0
 10
0.0
 20
0.0
 30
0.0
  3
*Paper_Space
  1

  0
ENDBLK
  5
1D
330
1B
100
AcDbEntity
 67
     1
  8
0
100
AcDbBlockEnd
  0
BLOCK
  5
83
330
82
100
AcDbEntity
  8
0
100
AcDbBlockBegin
  2
_SMALL
 70
     0
 10
0.0
 20
0.0
 30
0.0
  3
_SMALL
  1

  0
CIRCLE
  5
85
330
82
100
AcDbEntity
  8
0
  6
ByBlock
 62
     0
370
    -2
100
AcDbCircle
 10
0.0
 20
0.0
 30
0.0
 40
0.1666666666
  0
CIRCLE
  5
373
330
82
100
AcDbEntity
  8
0
  6
ByBlock
 62
     0
370
    -2
100
AcDbCircle
 10
0.0
 20
0.0
 30
0.0
 40
0.1666666666
  0
ENDBLK
  5
84
330
82
100
AcDbEntity
  8
0
100
AcDbBlockEnd
  0
BLOCK
  5
87
330
86
100
AcDbEntity
  8
0
100
AcDbBlockBegin
  2
_OPEN30
 70
     0
 10
0.0
 20
0.0
 30
0.0
  3
_OPEN30
  1

  0
LINE
  5
89
330
86
100
AcDbEntity
  8
0
  6
ByBlock
 62
     0
370
    -2
100
AcDbLine
 10
-1.0
 20
0.26794919
 30
0.0
 11
0.0
 21
0.0
 31
0.0
  0
LINE
  5
8A
330
86
100
AcDbEntity
  8
0
  6
ByBlock
 62
     0
370
    -2
100
AcDbLine
 10
0.0
 20
0.0
 30
0.0
 11
-1.0
 21
-0.26794919
 31
0.0
  0
LINE
  5
8B
330
86
100
AcDbEntity
  8
0
  6
ByBlock
 62
     0
370
    -2
100
AcDbLine
 10
0.0
 20
0.0
 30
0.0
 11
-1.0
 21
0.0
 31
0.0
  0
LINE
  5
374
330
86
100
AcDbEntity
  8
0
  6
ByBlock
 62
     0
370
    -2
100
AcDbLine
 10
-1.0
 20
0.26794919
 30
0.0
 11
0.0
 21
0.0
 31
0.0
  0
LINE
  5
375
330
86
100
AcDbEntity
  8
0
  6
ByBlock
 62
     0
370
    -2
100
AcDbLine
 10
0.0
 20
0.0
 30
0.0
 11
-1.0
 21
-0.26794919
 31
0.0
  0
LINE
  5
376
330
86
100
AcDbEntity
  8
0
  6
ByBlock
 62
     0
370
    -2
100
AcDbLine
 10
0.0
 20
0.0
 30
0.0
 11
-1.0
 21
0.0
 31
0.0
  0
ENDBLK
  5
88
330
86
100
AcDbEntity
  8
0
100
AcDbBlockEnd
  0
BLOCK
  5
8D
330
8C
100
AcDbEntity
  8
0
100
AcDbBlockBegin
  2
_OBLIQUE
 70
     0
 10
0.0
 20
0.0
 30
0.0
  3
_OBLIQUE
  1

  0
LINE
  5
8F
330
8C
100
AcDbEntity
  8
0
  6
ByBlock
 62
     0
370
    -2
100
AcDbLine
 10
-0.5
 20
-0.5
 30
0.0
 11
0.5
 21
0.5
 31
0.0
  0
LINE
  5
377
330
8C
100
AcDbEntity
  8
0
  6
ByBlock
 62
     0
370
    -2
100
AcDbLine
 10
-0.5
 20
-0.5
 30
0.0
 11
0.5
 21
0.5
 31
0.0
  0
ENDBLK
  5
8E
330
8C
100
AcDbEntity
  8
0
100
AcDbBlockEnd
  0
BLOCK
  5
91
330
90
100
AcDbEntity
  8
0
100
AcDbBlockBegin
  2
_DOT
 70
     0
 10
0.0
 20
0.0
 30
0.0
  3
_DOT
  1

  0
LWPOLYLINE
  5
93
330
90
100
AcDbEntity
  8
0
  6
ByBlock
 62
     0
370
    -2
100
AcDbPolyline
 90
        2
 70
     1
 43
0.5
 10
-0.25
 20
0.0
 42
1.0
 10
0.25
 20
0.0
 42
1.0
  0
LWPOLYLINE
  5
378
330
90
100
AcDbEntity
  8
0
  6
ByBlock
 62
     0
370
    -2
100
AcDbPolyline
 90
        2
 70
     1
 43
0.5
 10
-0.25
 20
0.0
 42
1.0
 10
0.25
 20
0.0
 42
1.0
  0
ENDBLK
  5
92
330
90
100
AcDbEntity
  8
0
100
AcDbBlockEnd
  0
BLOCK
  5
95
330
94
100
AcDbEntity
  8
0
100
AcDbBlockBegin
  2
_DOTSMALL
 70
     0
 10
0.0
 20
0.0
 30
0.0
  3
_DOTSMALL
  1

  0
LWPOLYLINE
  5
97
330
94
100
AcDbEntity
  8
0
  6
ByBlock
 62
     0
370
    -2
100
AcDbPolyline
 90
        2
 70
     1
 43
0.5
 10
-0.0625
 20
0.0
 42
1.0
 10
0.0625
 20
0.0
 42
1.0
  0
LWPOLYLINE
  5
379
330
94
100
AcDbEntity
  8
0
  6
ByBlock
 62
     0
370
    -2
100
AcDbPolyline
 90
        2
 70
     1
 43
0.5
 10
-0.0625
 20
0.0
 42
1.0
 10
0.0625
 20
0.0
 42
1.0
  0
ENDBLK
  5
96
330
94
100
AcDbEntity
  8
0
100
AcDbBlockEnd
  0
BLOCK
  5
99
330
98
100
AcDbEntity
  8
0
100
AcDbBlockBegin
  2
_DATUMFILLED
 70
     0
 10
0.0
 20
0.0
 30
0.0
  3
_DATUMFILLED
  1

  0
SOLID
  5
9B
330
98
100
AcDbEntity
  8
0
  6
ByBlock
 62
     0
370
    -2
100
AcDbTrace
 10
0.0
 20
0.57735027
 30
0.0
 11
-1.0
 21
0.0
 31
0.0
 12
0.0
 22
-0.57735027
 32
0.0
 13
0.0
 23
-0.57735027
 33
0.0
  0
SOLID
  5
37A
330
98
100
AcDbEntity
  8
0
  6
ByBlock
 62
     0
370
    -2
100
AcDbTrace
 10
0.0
 20
0.57735027
 30
0.0
 11
-1.0
 21
0.0
 31
0.0
 12
0.0
 22
-0.57735027
 32
0.0
 13
0.0
 23
-0.57735027
 33
0.0
  0
ENDBLK
  5
9A
330
98
100
AcDbEntity
  8
0
100
AcDbBlockEnd
  0
BLOCK
  5
9D
330
9C
100
AcDbEntity
  8
0
100
AcDbBlockBegin
  2
DATUMFILLED2
 70
     0
 10
0.0
 20
0.0
 30
0.0
  3
DATUMFILLED2
  1

  0
SOLID
  5
9F
330
9C
100
AcDbEntity
  8
0
  6
ByBlock
 62
     0
370
    -2
100
AcDbTrace
 10
0.0
 20
1.0
 30
0.0
 11
-1.0
 21
0.0
 31
0.0
 12
0.0
 22
-1.0
 32
0.0
 13
0.0
 23
-1.0
 33
0.0
  0
SOLID
  5
37B
330
9C
100
AcDbEntity
  8
0
  6
ByBlock
 62
     0
370
    -2
100
AcDbTrace
 10
0.0
 20
1.0
 30
0.0
 11
-1.0
 21
0.0
 31
0.0
 12
0.0
 22
-1.0
 32
0.0
 13
0.0
 23
-1.0
 33
0.0
  0
ENDBLK
  5
9E
330
9C
100
AcDbEntity
  8
0
100
AcDbBlockEnd
  0
BLOCK
  5
A1
330
A0
100
AcDbEntity
  8
0
100
AcDbBlockBegin
  2
_DATUMBLANK
 70
     0
 10
0.0
 20
0.0
 30
0.0
  3
_DATUMBLANK
  1

  0
LINE
  5
A3
330
A0
100
AcDbEntity
  8
0
  6
ByBlock
 62
     0
370
    -2
100
AcDbLine
 10
0.0
 20
0.57735027
 30
0.0
 11
-1.0
 21
0.0
 31
0.0
  0
LINE
  5
A4
330
A0
100
AcDbEntity
  8
0
  6
ByBlock
 62
     0
370
    -2
100
AcDbLine
 10
-1.0
 20
0.0
 30
0.0
 11
0.0
 21
-0.57735027
 31
0.0
  0
LINE
  5
A5
330
A0
100
AcDbEntity
  8
0
  6
ByBlock
 62
     0
370
    -2
100
AcDbLine
 10
0.0
 20
-0.57735027
 30
0.0
 11
0.0
 21
0.57735027
 31
0.0
  0
LINE
  5
37C
330
A0
100
AcDbEntity
  8
0
  6
ByBlock
 62
     0
370
    -2
100
AcDbLine
 10
0.0
 20
0.57735027
 30
0.0
 11
-1.0
 21
0.0
 31
0.0
  0
LINE
  5
37D
330
A0
100
AcDbEntity
  8
0
  6
ByBlock
 62
     0
370
    -2
100
AcDbLine
 10
-1.0
 20
0.0
 30
0.0
 11
0.0
 21
-0.57735027
 31
0.0
  0
LINE
  5
37E
330
A0
100
AcDbEntity
  8
0
  6
ByBlock
 62
     0
370
    -2
100
AcDbLine
 10
0.0
 20
-0.57735027
 30
0.0
 11
0.0
 21
0.57735027
 31
0.0
  0
ENDBLK
  5
A2
330
A0
100
AcDbEntity
  8
0
100
AcDbBlockEnd
  0
BLOCK
  5
A7
330
A6
100
AcDbEntity
  8
0
100
AcDbBlockBegin
  2
DATUMBLANK2
 70
     0
 10
0.0
 20
0.0
 30
0.0
  3
DATUMBLANK2
  1

  0
LINE
  5
A9
330
A6
100
AcDbEntity
  8
0
  6
ByBlock
 62
     0
370
    -2
100
AcDbLine
 10
0.0
 20
1.0
 30
0.0
 11
-1.0
 21
0.0
 31
0.0
  0
LINE
  5
AA
330
A6
100
AcDbEntity
  8
0
  6
ByBlock
 62
     0
370
    -2
100
AcDbLine
 10
-1.0
 20
0.0
 30
0.0
 11
0.0
 21
-1.0
 31
0.0
  0
LINE
  5
AB
330
A6
100
AcDbEntity
  8
0
  6
ByBlock
 62
     0
370
    -2
100
AcDbLine
 10
0.0
 20
-1.0
 30
0.0
 11
0.0
 21
1.0
 31
0.0
  0
LINE
  5
37F
330
A6
100
AcDbEntity
  8
0
  6
ByBlock
 62
     0
370
    -2
100
AcDbLine
 10
0.0
 20
1.0
 30
0.0
 11
-1.0
 21
0.0
 31
0.0
  0
LINE
  5
380
330
A6
100
AcDbEntity
  8
0
  6
ByBlock
 62
     0
370
    -2
100
AcDbLine
 10
-1.0
 20
0.0
 30
0.0
 11
0.0
 21
-1.0
 31
0.0
  0
LINE
  5
381
330
A6
100
AcDbEntity
  8
0
  6
ByBlock
 62
     0
370
    -2
100
AcDbLine
 10
0.0
 20
-1.0
 30
0.0
 11
0.0
 21
1.0
 31
0.0
  0
ENDBLK
  5
A8
330
A6
100
AcDbEntity
  8
0
100
AcDbBlockEnd
  0
BLOCK
  5
AD
330
AC
100
AcDbEntity
  8
0
100
AcDbBlockBegin
  2
_NONE
 70
     0
 10
0.0
 20
0.0
 30
0.0
  3
_NONE
  1

  0
ENDBLK
  5
AE
330
AC
100
AcDbEntity
  8
0
100
AcDbBlockEnd
  0
BLOCK
  5
B0
330
AF
100
AcDbEntity
  8
0
100
AcDbBlockBegin
  2
BLK0
 70
     0
 10
548.9698134782335
 20
588.5750998608411
 30
0.0
  3
BLK0
  1

  0
LINE
  5
B2
330
AF
100
AcDbEntity
  8
無題001
  6
Continuous
 62
     7
100
AcDbLine
 10
555.6198134782335
 20
593.5750998608411
 30
0.0
 11
555.6198134782335
 21
583.5750998608413
 31
0.0
  0
LINE
  5
B3
330
AF
100
AcDbEntity
  8
無題001
  6
Continuous
 62
     7
100
AcDbLine
 10
549.4698134782335
 20
584.0750998608413
 30
0.0
 11
555.3311383436385
 21
584.0750998608413
 31
0.0
  0
LINE
  5
B4
330
AF
100
AcDbEntity
  8
無題001
  6
Continuous
 62
     7
100
AcDbLine
 10
563.8698134782335
 20
592.0750998608411
 30
0.0
 11
563.3698134782326
 21
592.0750998608411
 31
0.0
  0
LINE
  5
B5
330
AF
100
AcDbEntity
  8
無題001
  6
Continuous
 62
     7
100
AcDbLine
 10
563.3698134782335
 20
593.0750998608411
 30
0.0
 11
562.4879135267886
 21
593.0750998608411
 31
0.0
  0
LINE
  5
B6
330
AF
100
AcDbEntity
  8
無題001
  6
Continuous
 62
     7
100
AcDbLine
 10
549.4698134782335
 20
592.5750998608411
 30
0.0
 11
548.9698134782335
 21
592.5750998608411
 31
0.0
  0
LINE
  5
B7
330
AF
100
AcDbEntity
  8
無題001
  6
Continuous
 62
     7
100
AcDbLine
 10
555.6198134782335
 20
583.5750998608413
 30
0.0
 11
562.4879135267886
 21
583.5750998608404
 31
0.0
  0
LINE
  5
B8
330
AF
100
AcDbEntity
  8
無題001
  6
Continuous
 62
     7
100
AcDbLine
 10
562.4879135267886
 20
593.5750998608411
 30
0.0
 11
555.6198134782335
 21
593.5750998608411
 31
0.0
  0
LINE
  5
B9
330
AF
100
AcDbEntity
  8
無題001
  6
Continuous
 62
     7
100
AcDbLine
 10
549.4698134782335
 20
593.0750998608411
 30
0.0
 11
549.4698134782335
 21
584.0750998608413
 31
0.0
  0
LINE
  5
BA
330
AF
100
AcDbEntity
  8
無題001
  6
Continuous
 62
     7
100
AcDbLine
 10
562.4879135267886
 20
583.5750998608404
 30
0.0
 11
562.4879135267886
 21
593.5750998608411
 31
0.0
  0
LINE
  5
BB
330
AF
100
AcDbEntity
  8
無題001
  6
Continuous
 62
     7
100
AcDbLine
 10
563.8698134782335
 20
583.5750998608413
 30
0.0
 11
565.3698134782335
 21
583.5750998608413
 31
0.0
  0
LINE
  5
BC
330
AF
100
AcDbEntity
  8
無題001
  6
Continuous
 62
     7
100
AcDbLine
 10
548.9698134782335
 20
592.5750998608411
 30
0.0
 11
548.9698134782335
 21
584.5750998608413
 31
0.0
  0
LINE
  5
BD
330
AF
100
AcDbEntity
  8
無題001
  6
Continuous
 62
     7
100
AcDbLine
 10
562.4879135267886
 20
584.0750998608413
 30
0.0
 11
563.3698134782335
 21
584.0750998608413
 31
0.0
  0
LINE
  5
BE
330
AF
100
AcDbEntity
  8
無題001
  6
Continuous
 62
     7
100
AcDbLine
 10
563.8698134782335
 20
583.5750998608413
 30
0.0
 11
563.8698134782335
 21
593.5750998608411
 31
0.0
  0
LINE
  5
BF
330
AF
100
AcDbEntity
  8
無題001
  6
Continuous
 62
     7
100
AcDbLine
 10
555.3311383436385
 20
593.0750998608411
 30
0.0
 11
549.4698134782335
 21
593.0750998608411
 31
0.0
  0
LINE
  5
C0
330
AF
100
AcDbEntity
  8
無題001
  6
Continuous
 62
     7
100
AcDbLine
 10
555.6198134782335
 20
593.5750998608411
 30
0.0
 11
555.3311383436385
 21
593.0750998608411
 31
0.0
  0
LINE
  5
C1
330
AF
100
AcDbEntity
  8
無題001
  6
Continuous
 62
     7
100
AcDbLine
 10
563.8698134782335
 20
585.0350998608413
 30
0.0
 11
563.3698134782345
 21
585.0350998608413
 31
0.0
  0
LINE
  5
C2
330
AF
100
AcDbEntity
  8
無題001
  6
Continuous
 62
     7
100
AcDbLine
 10
563.3698134782335
 20
584.0750998608413
 30
0.0
 11
563.3698134782335
 21
593.0750998608411
 31
0.0
  0
LINE
  5
C3
330
AF
100
AcDbEntity
  8
無題001
  6
Continuous
 62
     7
100
AcDbLine
 10
555.3311383436385
 20
593.0750998608411
 30
0.0
 11
555.3311383436385
 21
584.0750998608413
 31
0.0
  0
LINE
  5
C4
330
AF
100
AcDbEntity
  8
無題001
  6
Continuous
 62
     7
100
AcDbLine
 10
555.3311383436385
 20
584.0750998608413
 30
0.0
 11
555.6198134782335
 21
583.5750998608413
 31
0.0
  0
LINE
  5
C5
330
AF
100
AcDbEntity
  8
無題001
  6
Continuous
 62
     7
100
AcDbLine
 10
565.3698134782335
 20
583.5750998608413
 30
0.0
 11
565.3698134782335
 21
593.5750998608411
 31
0.0
  0
LINE
  5
C6
330
AF
100
AcDbEntity
  8
無題001
  6
Continuous
 62
     7
100
AcDbLine
 10
565.3698134782335
 20
593.5750998608411
 30
0.0
 11
563.8698134782335
 21
593.5750998608411
 31
0.0
  0
LINE
  5
C7
330
AF
100
AcDbEntity
  8
無題001
  6
CENTER
 62
     1
100
AcDbLine
 10
546.9698134782335
 20
588.5750998608402
 30
0.0
 11
567.3698134782335
 21
588.5750998608402
 31
0.0
  0
LINE
  5
C8
330
AF
100
AcDbEntity
  8
無題001
  6
Continuous
 62
     7
100
AcDbLine
 10
549.4698134782335
 20
584.5750998608413
 30
0.0
 11
548.9698134782335
 21
584.5750998608413
 31
0.0
  0
ENDBLK
  5
B1
330
AF
100
AcDbEntity
  8
0
100
AcDbBlockEnd
  0
BLOCK
  5
127
330
126
100
AcDbEntity
  8
0
100
AcDbBlockBegin
  2
BLK1
 70
     0
 10
548.9698134782366
 20
568.680898026247
 30
0.0
  3
BLK1
  1

  0
LINE
  5
129
330
126
100
AcDbEntity
  8
無題001
  6
Continuous
 62
     7
100
AcDbLine
 10
555.6198134782366
 20
573.680898026247
 30
0.0
 11
555.6198134782366
 21
563.6808980262471
 31
0.0
  0
LINE
  5
12A
330
126
100
AcDbEntity
  8
無題001
  6
Continuous
 62
     7
100
AcDbLine
 10
549.4698134782366
 20
564.1808980262471
 30
0.0
 11
555.3311383436416
 21
564.1808980262471
 31
0.0
  0
LINE
  5
12B
330
126
100
AcDbEntity
  8
無題001
  6
Continuous
 62
     7
100
AcDbLine
 10
563.8698134782366
 20
572.180898026247
 30
0.0
 11
563.3698134782355
 21
572.180898026247
 31
0.0
  0
LINE
  5
12C
330
126
100
AcDbEntity
  8
無題001
  6
Continuous
 62
     7
100
AcDbLine
 10
563.3698134782366
 20
573.180898026247
 30
0.0
 11
562.4879135267915
 21
573.180898026247
 31
0.0
  0
LINE
  5
12D
330
126
100
AcDbEntity
  8
無題001
  6
Continuous
 62
     7
100
AcDbLine
 10
549.4698134782366
 20
572.680898026247
 30
0.0
 11
548.9698134782366
 21
572.680898026247
 31
0.0
  0
LINE
  5
12E
330
126
100
AcDbEntity
  8
無題001
  6
Continuous
 62
     7
100
AcDbLine
 10
555.6198134782366
 20
563.6808980262471
 30
0.0
 11
562.4879135267915
 21
563.6808980262462
 31
0.0
  0
LINE
  5
12F
330
126
100
AcDbEntity
  8
無題001
  6
Continuous
 62
     7
100
AcDbLine
 10
562.4879135267915
 20
573.680898026247
 30
0.0
 11
555.6198134782366
 21
573.680898026247
 31
0.0
  0
LINE
  5
130
330
126
100
AcDbEntity
  8
無題001
  6
Continuous
 62
     7
100
AcDbLine
 10
549.4698134782366
 20
573.180898026247
 30
0.0
 11
549.4698134782366
 21
564.1808980262471
 31
0.0
  0
LINE
  5
131
330
126
100
AcDbEntity
  8
無題001
  6
Continuous
 62
     7
100
AcDbLine
 10
562.4879135267915
 20
563.6808980262462
 30
0.0
 11
562.4879135267915
 21
573.680898026247
 31
0.0
  0
LINE
  5
132
330
126
100
AcDbEntity
  8
無題001
  6
Continuous
 62
     7
100
AcDbLine
 10
563.8698134782366
 20
563.6808980262471
 30
0.0
 11
565.3698134782366
 21
563.6808980262471
 31
0.0
  0
LINE
  5
133
330
126
100
AcDbEntity
  8
無題001
  6
Continuous
 62
     7
100
AcDbLine
 10
548.9698134782366
 20
572.680898026247
 30
0.0
 11
548.9698134782366
 21
564.6808980262471
 31
0.0
  0
LINE
  5
134
330
126
100
AcDbEntity
  8
無題001
  6
Continuous
 62
     7
100
AcDbLine
 10
562.4879135267915
 20
564.1808980262471
 30
0.0
 11
563.3698134782366
 21
564.1808980262471
 31
0.0
  0
LINE
  5
135
330
126
100
AcDbEntity
  8
無題001
  6
Continuous
 62
     7
100
AcDbLine
 10
563.8698134782366
 20
563.6808980262471
 30
0.0
 11
563.8698134782366
 21
573.680898026247
 31
0.0
  0
LINE
  5
136
330
126
100
AcDbEntity
  8
無題001
  6
Continuous
 62
     7
100
AcDbLine
 10
555.3311383436416
 20
573.180898026247
 30
0.0
 11
549.4698134782366
 21
573.180898026247
 31
0.0
  0
LINE
  5
137
330
126
100
AcDbEntity
  8
無題001
  6
Continuous
 62
     7
100
AcDbLine
 10
555.6198134782366
 20
573.680898026247
 30
0.0
 11
555.3311383436416
 21
573.180898026247
 31
0.0
  0
LINE
  5
138
330
126
100
AcDbEntity
  8
無題001
  6
Continuous
 62
     7
100
AcDbLine
 10
563.8698134782366
 20
565.1408980262471
 30
0.0
 11
563.3698134782376
 21
565.1408980262471
 31
0.0
  0
LINE
  5
139
330
126
100
AcDbEntity
  8
無題001
  6
Continuous
 62
     7
100
AcDbLine
 10
563.3698134782366
 20
564.1808980262471
 30
0.0
 11
563.3698134782366
 21
573.180898026247
 31
0.0
  0
LINE
  5
13A
330
126
100
AcDbEntity
  8
無題001
  6
Continuous
 62
     7
100
AcDbLine
 10
555.3311383436416
 20
573.180898026247
 30
0.0
 11
555.3311383436416
 21
564.1808980262471
 31
0.0
  0
LINE
  5
13B
330
126
100
AcDbEntity
  8
無題001
  6
Continuous
 62
     7
100
AcDbLine
 10
555.3311383436416
 20
564.1808980262471
 30
0.0
 11
555.6198134782366
 21
563.6808980262471
 31
0.0
  0
LINE
  5
13C
330
126
100
AcDbEntity
  8
無題001
  6
Continuous
 62
     7
100
AcDbLine
 10
565.3698134782366
 20
563.6808980262471
 30
0.0
 11
565.3698134782366
 21
573.680898026247
 31
0.0
  0
LINE
  5
13D
330
126
100
AcDbEntity
  8
無題001
  6
Continuous
 62
     7
100
AcDbLine
 10
565.3698134782366
 20
573.680898026247
 30
0.0
 11
563.8698134782366
 21
573.680898026247
 31
0.0
  0
LINE
  5
13E
330
126
100
AcDbEntity
  8
無題001
  6
CENTER
 62
     1
100
AcDbLine
 10
546.9698134782366
 20
568.680898026246
 30
0.0
 11
567.3698134782366
 21
568.680898026246
 31
0.0
  0
LINE
  5
13F
330
126
100
AcDbEntity
  8
無題001
  6
Continuous
 62
     7
100
AcDbLine
 10
549.4698134782366
 20
564.6808980262471
 30
0.0
 11
548.9698134782366
 21
564.6808980262471
 31
0.0
  0
ENDBLK
  5
128
330
126
100
AcDbEntity
  8
0
100
AcDbBlockEnd
  0
BLOCK
  5
165
330
164
100
AcDbEntity
  8
0
100
AcDbBlockBegin
  2
_D1
 70
     0
 10
0.0
 20
0.0
 30
0.0
  3
_D1
  1

  0
LINE
  5
167
330
164
100
AcDbEntity
  8
無題001
  6
Continuous
 62
     4
100
AcDbLine
 10
440.969813478237
 20
540.4916900714637
 30
0.0
 11
432.2931822481149
 21
540.4916900714637
 31
0.0
  0
LINE
  5
168
330
164
100
AcDbEntity
  8
無題001
  6
Continuous
 62
     4
100
AcDbLine
 10
440.969813478237
 20
540.4916900714637
 30
0.0
 11
443.969813478237
 21
540.4916900714638
 31
0.0
  0
LINE
  5
169
330
164
100
AcDbEntity
  8
無題001
  6
Continuous
 62
     4
100
AcDbLine
 10
440.969813478237
 20
540.4916900714637
 30
0.0
 11
436.6314978631759
 21
540.4916900714637
 31
0.0
  0
LINE
  5
16A
330
164
100
AcDbEntity
  8
無題001
  6
Continuous
 62
     4
100
AcDbLine
 10
432.2931822481149
 20
540.4916900714637
 30
0.0
 11
436.6314978631759
 21
540.4916900714637
 31
0.0
  0
LINE
  5
16B
330
164
100
AcDbEntity
  8
無題001
  6
Continuous
 62
     4
100
AcDbLine
 10
432.2931822481149
 20
540.4916900714637
 30
0.0
 11
424.0544394796095
 21
540.4916900714637
 31
0.0
  0
INSERT
  5
16C
330
164
100
AcDbEntity
  8
無題001
  6
Continuous
 62
     4
100
AcDbBlockReference
  2
_OPEN30
 10
440.969813478237
 20
540.4916900714637
 30
0.0
 41
1.969615506024411
 42
1.969615506024411
 43
1.969615506024411
 50
180.0
  0
INSERT
  5
16D
330
164
100
AcDbEntity
  8
無題001
  6
Continuous
 62
     4
100
AcDbBlockReference
  2
_OPEN30
 10
432.2931822481149
 20
540.4916900714637
 30
0.0
 41
1.969615506024411
 42
1.969615506024411
 43
1.969615506024411
  0
LINE
  5
16E
330
164
100
AcDbEntity
  8
無題001
  6
Continuous
 62
     4
100
AcDbLine
 10
440.969813478237
 20
558.5916900714632
 30
0.0
 11
440.969813478237
 21
539.4916900714637
 31
0.0
  0
LINE
  5
16F
330
164
100
AcDbEntity
  8
無題001
  6
Continuous
 62
     4
100
AcDbLine
 10
432.2931822481149
 20
572.0690403406533
 30
0.0
 11
432.2931822481149
 21
539.4916900714637
 31
0.0
  0
MTEXT
  5
172
330
164
100
AcDbEntity
  8
無題001
  6
Continuous
 62
     4
100
AcDbMText
 10
424.0544394796095
 20
541.2756900714637
 30
0.0
 40
3.5
 41
0.0
 71
     7
 72
     5
  1
{\fＭＳ ゴシック|b0|i0|c128|p49;\W1.0;(8.7)}
  7
MTSTANDARD1
 73
     1
 44
1.25
  0
POINT
  5
173
330
164
100
AcDbEntity
  8
DEFPOINTS
  6
Continuous
 62
     4
100
AcDbPoint
 10
440.969813478237
 20
558.5916900714632
 30
0.0
  0
POINT
  5
174
330
164
100
AcDbEntity
  8
DEFPOINTS
  6
Continuous
 62
     4
100
AcDbPoint
 10
432.2931822481149
 20
572.0690403406533
 30
0.0
  0
POINT
  5
175
330
164
100
AcDbEntity
  8
DEFPOINTS
  6
Continuous
 62
     4
100
AcDbPoint
 10
432.2931822481149
 20
540.4916900714637
 30
0.0
  0
ENDBLK
  5
166
330
164
100
AcDbEntity
  8
0
100
AcDbBlockEnd
  0
BLOCK
  5
17A
330
179
100
AcDbEntity
  8
0
100
AcDbBlockBegin
  2
_D2
 70
     0
 10
0.0
 20
0.0
 30
0.0
  3
_D2
  1

  0
LINE
  5
17C
330
179
100
AcDbEntity
  8
無題001
  6
ByBlock
 62
     4
100
AcDbLine
 10
573.9698134782243
 20
532.9916903433441
 30
0.0
 11
432.2931822481135
 21
532.9916903433441
 31
0.0
  0
INSERT
  5
17D
330
179
100
AcDbEntity
  8
無題001
  6
ByBlock
 62
     4
100
AcDbBlockReference
  2
_OPEN30
 10
573.9698134782243
 20
532.9916903433441
 30
0.0
 41
2.954423259036616
 42
2.954423259036616
 43
2.954423259036616
  0
INSERT
  5
17E
330
179
100
AcDbEntity
  8
無題001
  6
ByBlock
 62
     4
100
AcDbBlockReference
  2
_OPEN30
 10
432.2931822481135
 20
532.9916903433441
 30
0.0
 41
2.954423259036616
 42
2.954423259036616
 43
2.954423259036616
 50
180.0
  0
LINE
  5
17F
330
179
100
AcDbEntity
  8
無題001
  6
ByBlock
 62
     4
100
AcDbLine
 10
573.9698134782243
 20
571.0701510405473
 30
0.0
 11
573.9698134782244
 21
531.9916903433441
 31
0.0
  0
LINE
  5
180
330
179
100
AcDbEntity
  8
無題001
  6
ByBlock
 62
     4
100
AcDbLine
 10
432.2931822481135
 20
572.0690403406533
 30
0.0
 11
432.2931822481135
 21
531.9916903433441
 31
0.0
  0
MTEXT
  5
181
330
179
100
AcDbEntity
  8
無題001
  6
Continuous
 62
     4
100
AcDbMText
 10
498.7564978631689
 20
533.7756903433441
 30
0.0
 40
3.5
 41
0.0
 71
     7
 72
     5
  1
{\fＭＳ ゴシック|b0|i0|c128|p49;\W1.0;141.7}
  7
MTSTANDARD1
 73
     1
 44
0.8035714285714286
  0
POINT
  5
182
330
179
100
AcDbEntity
  8
DEFPOINTS
  6
ByBlock
 62
     4
100
AcDbPoint
 10
573.9698134782243
 20
571.0701510405473
 30
0.0
  0
POINT
  5
183
330
179
100
AcDbEntity
  8
DEFPOINTS
  6
ByBlock
 62
     4
100
AcDbPoint
 10
432.2931822481135
 20
572.0690403406533
 30
0.0
  0
POINT
  5
184
330
179
100
AcDbEntity
  8
DEFPOINTS
  6
ByBlock
 62
     4
100
AcDbPoint
 10
432.2931822481135
 20
532.9916903433441
 30
0.0
  0
ENDBLK
  5
17B
330
179
100
AcDbEntity
  8
0
100
AcDbBlockEnd
  0
BLOCK
  5
18A
330
189
100
AcDbEntity
  8
0
100
AcDbBlockBegin
  2
_D3
 70
     0
 10
0.0
 20
0.0
 30
0.0
  3
_D3
  1

  0
LINE
  5
18C
330
189
100
AcDbEntity
  8
無題001
  6
ByBlock
 62
     4
100
AcDbLine
 10
583.9698134782242
 20
564.9916900714633
 30
0.0
 11
583.9698134782242
 21
585.9916900714633
 31
0.0
  0
INSERT
  5
18D
330
189
100
AcDbEntity
  8
無題001
  6
ByBlock
 62
     4
100
AcDbBlockReference
  2
_OPEN30
 10
583.9698134782242
 20
564.9916900714633
 30
0.0
 41
2.954423259036616
 42
2.954423259036616
 43
2.954423259036616
 50
270.0
  0
INSERT
  5
18E
330
189
100
AcDbEntity
  8
無題001
  6
ByBlock
 62
     4
100
AcDbBlockReference
  2
_OPEN30
 10
583.9698134782242
 20
585.9916900714633
 30
0.0
 41
2.954423259036616
 42
2.954423259036616
 43
2.954423259036616
 50
90.0
  0
LINE
  5
18F
330
189
100
AcDbEntity
  8
無題001
  6
ByBlock
 62
     4
100
AcDbLine
 10
567.4698134782266
 20
564.9916900714633
 30
0.0
 11
584.9698134782242
 21
564.9916900714633
 31
0.0
  0
LINE
  5
190
330
189
100
AcDbEntity
  8
無題001
  6
ByBlock
 62
     4
100
AcDbLine
 10
567.4698134782316
 20
585.9916900714633
 30
0.0
 11
584.9698134782242
 21
585.9916900714633
 31
0.0
  0
MTEXT
  5
191
330
189
100
AcDbEntity
  8
無題001
  6
Continuous
 62
     4
100
AcDbMText
 10
583.1858134782242
 20
571.9916900714633
 30
0.0
 40
3.5
 41
0.0
 71
     7
 72
     5
  1
{\fＭＳ ゴシック|b0|i0|c128|p49;\W1.0;φ21}
  7
MTSTANDARD1
 11
0.0
 21
1.0
 31
0.0
 73
     1
 44
0.8035714285714286
  0
POINT
  5
192
330
189
100
AcDbEntity
  8
DEFPOINTS
  6
ByBlock
 62
     4
100
AcDbPoint
 10
567.4698134782266
 20
564.9916900714633
 30
0.0
  0
POINT
  5
193
330
189
100
AcDbEntity
  8
DEFPOINTS
  6
ByBlock
 62
     4
100
AcDbPoint
 10
567.4698134782316
 20
585.9916900714633
 30
0.0
  0
POINT
  5
194
330
189
100
AcDbEntity
  8
DEFPOINTS
  6
ByBlock
 62
     4
100
AcDbPoint
 10
583.9698134782242
 20
585.9916900714633
 30
0.0
  0
ENDBLK
  5
18B
330
189
100
AcDbEntity
  8
0
100
AcDbBlockEnd
  0
BLOCK
  5
199
330
198
100
AcDbEntity
  8
0
100
AcDbBlockBegin
  2
_D4
 70
     0
 10
0.0
 20
0.0
 30
0.0
  3
_D4
  1

  0
LINE
  5
19B
330
198
100
AcDbEntity
  8
無題001
  6
ByBlock
 62
     4
100
AcDbLine
 10
538.9698134782275
 20
540.4916900714637
 30
0.0
 11
571.4698134782243
 21
540.4916900714637
 31
0.0
  0
INSERT
  5
19C
330
198
100
AcDbEntity
  8
無題001
  6
ByBlock
 62
     4
100
AcDbBlockReference
  2
_OPEN30
 10
538.9698134782275
 20
540.4916900714637
 30
0.0
 41
2.954423259036616
 42
2.954423259036616
 43
2.954423259036616
 50
180.0
  0
INSERT
  5
19D
330
198
100
AcDbEntity
  8
無題001
  6
ByBlock
 62
     4
100
AcDbBlockReference
  2
_OPEN30
 10
571.4698134782243
 20
540.4916900714637
 30
0.0
 41
2.954423259036616
 42
2.954423259036616
 43
2.954423259036616
  0
LINE
  5
19E
330
198
100
AcDbEntity
  8
無題001
  6
ByBlock
 62
     4
100
AcDbLine
 10
538.9698134782275
 20
555.7916900714617
 30
0.0
 11
538.9698134782276
 21
539.4916900714638
 31
0.0
  0
LINE
  5
19F
330
198
100
AcDbEntity
  8
無題001
  6
ByBlock
 62
     4
100
AcDbLine
 10
571.4698134782243
 20
568.9916900714601
 30
0.0
 11
571.4698134782243
 21
539.4916900714637
 31
0.0
  0
MTEXT
  5
1A0
330
198
100
AcDbEntity
  8
無題001
  6
Continuous
 62
     4
100
AcDbMText
 10
551.7198134782259
 20
541.2756900714637
 30
0.0
 40
3.5
 41
0.0
 71
     7
 72
     5
  1
{\fＭＳ ゴシック|b0|i0|c128|p49;\W1.0;32.5}
  7
MTSTANDARD1
 73
     1
 44
0.8035714285714286
  0
POINT
  5
1A1
330
198
100
AcDbEntity
  8
DEFPOINTS
  6
ByBlock
 62
     4
100
AcDbPoint
 10
538.9698134782275
 20
555.7916900714617
 30
0.0
  0
POINT
  5
1A2
330
198
100
AcDbEntity
  8
DEFPOINTS
  6
ByBlock
 62
     4
100
AcDbPoint
 10
571.4698134782243
 20
568.9916900714601
 30
0.0
  0
POINT
  5
1A3
330
198
100
AcDbEntity
  8
DEFPOINTS
  6
ByBlock
 62
     4
100
AcDbPoint
 10
571.4698134782243
 20
540.4916900714637
 30
0.0
  0
ENDBLK
  5
19A
330
198
100
AcDbEntity
  8
0
100
AcDbBlockEnd
  0
BLOCK
  5
1A8
330
1A7
100
AcDbEntity
  8
0
100
AcDbBlockBegin
  2
_D5
 70
     0
 10
0.0
 20
0.0
 30
0.0
  3
_D5
  1

  0
LINE
  5
1AA
330
1A7
100
AcDbEntity
  8
無題001
  6
ByBlock
 62
     4
100
AcDbLine
 10
411.7931822481153
 20
570.0916900714632
 30
0.0
 11
411.7931822481153
 21
580.8916900714642
 31
0.0
  0
INSERT
  5
1AB
330
1A7
100
AcDbEntity
  8
無題001
  6
ByBlock
 62
     4
100
AcDbBlockReference
  2
_OPEN30
 10
411.7931822481153
 20
570.0916900714632
 30
0.0
 41
2.954423259036616
 42
2.954423259036616
 43
2.954423259036616
 50
270.0
  0
INSERT
  5
1AC
330
1A7
100
AcDbEntity
  8
無題001
  6
ByBlock
 62
     4
100
AcDbBlockReference
  2
_OPEN30
 10
411.7931822481153
 20
580.8916900714642
 30
0.0
 41
2.954423259036616
 42
2.954423259036616
 43
2.954423259036616
 50
90.0
  0
LINE
  5
1AD
330
1A7
100
AcDbEntity
  8
無題001
  6
ByBlock
 62
     4
100
AcDbLine
 10
434.9860025711405
 20
570.0916900714632
 30
0.0
 11
410.7931822481153
 21
570.0916900714632
 31
0.0
  0
LINE
  5
1AE
330
1A7
100
AcDbEntity
  8
無題001
  6
ByBlock
 62
     4
100
AcDbLine
 10
434.9860025711407
 20
580.8916900714642
 30
0.0
 11
410.7931822481153
 21
580.891690071464
 31
0.0
  0
MTEXT
  5
1AF
330
1A7
100
AcDbEntity
  8
無題001
  6
Continuous
 62
     4
100
AcDbMText
 10
411.0091822481153
 20
570.2416900714636
 30
0.0
 40
3.5
 41
0.0
 71
     7
 72
     5
  1
{\fＭＳ ゴシック|b0|i0|c128|p49;\W1.0;φ10.8}
  7
MTSTANDARD1
 11
0.0
 21
1.0
 31
0.0
 73
     1
 44
0.8035714285714286
  0
POINT
  5
1B0
330
1A7
100
AcDbEntity
  8
DEFPOINTS
  6
ByBlock
 62
     4
100
AcDbPoint
 10
434.9860025711405
 20
570.0916900714632
 30
0.0
  0
POINT
  5
1B1
330
1A7
100
AcDbEntity
  8
DEFPOINTS
  6
ByBlock
 62
     4
100
AcDbPoint
 10
434.9860025711407
 20
580.8916900714642
 30
0.0
  0
POINT
  5
1B2
330
1A7
100
AcDbEntity
  8
DEFPOINTS
  6
ByBlock
 62
     4
100
AcDbPoint
 10
411.7931822481153
 20
580.8916900714642
 30
0.0
  0
ENDBLK
  5
1A9
330
1A7
100
AcDbEntity
  8
0
100
AcDbBlockEnd
  0
BLOCK
  5
1BA
330
1B9
100
AcDbEntity
  8
0
100
AcDbBlockBegin
  2
_D6
 70
     0
 10
0.0
 20
0.0
 30
0.0
  3
_D6
  1

  0
LINE
  5
1BC
330
1B9
100
AcDbEntity
  8
無題001
  6
ByBlock
 62
     4
100
AcDbLine
 10
571.4698134782285
 20
540.4916900714642
 30
0.0
 11
573.9698134782243
 21
540.4916900714642
 31
0.0
  0
LINE
  5
1BD
330
1B9
100
AcDbEntity
  8
無題001
  6
ByBlock
 62
     4
100
AcDbLine
 10
571.4698134782285
 20
540.4916900714642
 30
0.0
 11
565.4698134782285
 21
540.4916900714644
 31
0.0
  0
LINE
  5
1BE
330
1B9
100
AcDbEntity
  8
無題001
  6
ByBlock
 62
     4
100
AcDbLine
 10
571.4698134782285
 20
540.4916900714642
 30
0.0
 11
572.7198134782263
 21
540.4916900714642
 31
0.0
  0
LINE
  5
1BF
330
1B9
100
AcDbEntity
  8
無題001
  6
ByBlock
 62
     4
100
AcDbLine
 10
573.9698134782243
 20
540.4916900714642
 30
0.0
 11
572.7198134782263
 21
540.4916900714642
 31
0.0
  0
LINE
  5
1C0
330
1B9
100
AcDbEntity
  8
無題001
  6
ByBlock
 62
     4
100
AcDbLine
 10
573.9698134782243
 20
540.4916900714642
 30
0.0
 11
580.7379538591275
 21
540.4916900714642
 31
0.0
  0
INSERT
  5
1C1
330
1B9
100
AcDbEntity
  8
無題001
  6
ByBlock
 62
     4
100
AcDbBlockReference
  2
_OPEN30
 10
571.4698134782285
 20
540.4916900714642
 30
0.0
 41
2.954423259036616
 42
2.954423259036616
 43
2.954423259036616
  0
INSERT
  5
1C2
330
1B9
100
AcDbEntity
  8
無題001
  6
ByBlock
 62
     4
100
AcDbBlockReference
  2
_OPEN30
 10
573.9698134782243
 20
540.4916900714642
 30
0.0
 41
2.954423259036616
 42
2.954423259036616
 43
2.954423259036616
 50
180.0
  0
LINE
  5
1C3
330
1B9
100
AcDbEntity
  8
無題001
  6
ByBlock
 62
     4
100
AcDbLine
 10
571.4698134782285
 20
568.9916900714643
 30
0.0
 11
571.4698134782285
 21
539.4916900714642
 31
0.0
  0
LINE
  5
1C4
330
1B9
100
AcDbEntity
  8
無題001
  6
ByBlock
 62
     4
100
AcDbLine
 10
573.9698134782243
 20
571.0701510405473
 30
0.0
 11
573.9698134782243
 21
539.4916900714642
 31
0.0
  0
MTEXT
  5
1C5
330
1B9
100
AcDbEntity
  8
無題001
  6
Continuous
 62
     4
100
AcDbMText
 10
576.0339538591276
 20
541.2756900714642
 30
0.0
 40
3.5
 41
0.0
 71
     7
 72
     5
  1
{\fＭＳ ゴシック|b0|i0|c128|p49;\W1.0;2.5}
  7
MTSTANDARD1
 73
     1
 44
0.8035714285714286
  0
POINT
  5
1C6
330
1B9
100
AcDbEntity
  8
DEFPOINTS
  6
ByBlock
 62
     4
100
AcDbPoint
 10
571.4698134782285
 20
568.9916900714643
 30
0.0
  0
POINT
  5
1C7
330
1B9
100
AcDbEntity
  8
DEFPOINTS
  6
ByBlock
 62
     4
100
AcDbPoint
 10
573.9698134782243
 20
571.0701510405473
 30
0.0
  0
POINT
  5
1C8
330
1B9
100
AcDbEntity
  8
DEFPOINTS
  6
ByBlock
 62
     4
100
AcDbPoint
 10
573.9698134782243
 20
540.4916900714642
 30
0.0
  0
ENDBLK
  5
1BB
330
1B9
100
AcDbEntity
  8
0
100
AcDbBlockEnd
  0
BLOCK
  5
1DC
330
1DB
100
AcDbEntity
  8
0
100
AcDbBlockBegin
  2
BLK2
 70
     0
 10
538.9698134782292
 20
653.5750998608388
 30
0.0
  3
BLK2
  1

  0
LINE
  5
1DE
330
1DB
100
AcDbEntity
  8
無題001
  6
Continuous
 62
     7
100
AcDbLine
 10
545.6198134782292
 20
658.5750998608388
 30
0.0
 11
545.6198134782292
 21
648.575099860839
 31
0.0
  0
LINE
  5
1DF
330
1DB
100
AcDbEntity
  8
無題001
  6
Continuous
 62
     7
100
AcDbLine
 10
539.4698134782292
 20
649.075099860839
 30
0.0
 11
545.3311383436342
 21
649.075099860839
 31
0.0
  0
LINE
  5
1E0
330
1DB
100
AcDbEntity
  8
無題001
  6
Continuous
 62
     7
100
AcDbLine
 10
553.8698134782292
 20
657.0750998608388
 30
0.0
 11
553.3698134782283
 21
657.0750998608388
 31
0.0
  0
LINE
  5
1E1
330
1DB
100
AcDbEntity
  8
無題001
  6
Continuous
 62
     7
100
AcDbLine
 10
553.3698134782292
 20
658.0750998608388
 30
0.0
 11
552.4879135267843
 21
658.0750998608388
 31
0.0
  0
LINE
  5
1E2
330
1DB
100
AcDbEntity
  8
無題001
  6
Continuous
 62
     7
100
AcDbLine
 10
539.4698134782292
 20
657.5750998608388
 30
0.0
 11
538.9698134782292
 21
657.5750998608388
 31
0.0
  0
LINE
  5
1E3
330
1DB
100
AcDbEntity
  8
無題001
  6
Continuous
 62
     7
100
AcDbLine
 10
545.6198134782292
 20
648.575099860839
 30
0.0
 11
552.4879135267843
 21
648.5750998608381
 31
0.0
  0
LINE
  5
1E4
330
1DB
100
AcDbEntity
  8
無題001
  6
Continuous
 62
     7
100
AcDbLine
 10
552.4879135267843
 20
658.5750998608388
 30
0.0
 11
545.6198134782292
 21
658.5750998608388
 31
0.0
  0
LINE
  5
1E5
330
1DB
100
AcDbEntity
  8
無題001
  6
Continuous
 62
     7
100
AcDbLine
 10
539.4698134782292
 20
658.0750998608388
 30
0.0
 11
539.4698134782292
 21
649.075099860839
 31
0.0
  0
LINE
  5
1E6
330
1DB
100
AcDbEntity
  8
無題001
  6
Continuous
 62
     7
100
AcDbLine
 10
552.4879135267843
 20
648.5750998608381
 30
0.0
 11
552.4879135267843
 21
658.5750998608388
 31
0.0
  0
LINE
  5
1E7
330
1DB
100
AcDbEntity
  8
無題001
  6
Continuous
 62
     7
100
AcDbLine
 10
553.8698134782292
 20
648.575099860839
 30
0.0
 11
555.3698134782292
 21
648.575099860839
 31
0.0
  0
LINE
  5
1E8
330
1DB
100
AcDbEntity
  8
無題001
  6
Continuous
 62
     7
100
AcDbLine
 10
538.9698134782292
 20
657.5750998608388
 30
0.0
 11
538.9698134782292
 21
649.575099860839
 31
0.0
  0
LINE
  5
1E9
330
1DB
100
AcDbEntity
  8
無題001
  6
Continuous
 62
     7
100
AcDbLine
 10
552.4879135267843
 20
649.075099860839
 30
0.0
 11
553.3698134782292
 21
649.075099860839
 31
0.0
  0
LINE
  5
1EA
330
1DB
100
AcDbEntity
  8
無題001
  6
Continuous
 62
     7
100
AcDbLine
 10
553.8698134782292
 20
648.575099860839
 30
0.0
 11
553.8698134782292
 21
658.5750998608388
 31
0.0
  0
LINE
  5
1EB
330
1DB
100
AcDbEntity
  8
無題001
  6
Continuous
 62
     7
100
AcDbLine
 10
545.3311383436342
 20
658.0750998608388
 30
0.0
 11
539.4698134782292
 21
658.0750998608388
 31
0.0
  0
LINE
  5
1EC
330
1DB
100
AcDbEntity
  8
無題001
  6
Continuous
 62
     7
100
AcDbLine
 10
545.6198134782292
 20
658.5750998608388
 30
0.0
 11
545.3311383436342
 21
658.0750998608388
 31
0.0
  0
LINE
  5
1ED
330
1DB
100
AcDbEntity
  8
無題001
  6
Continuous
 62
     7
100
AcDbLine
 10
553.8698134782292
 20
650.0350998608391
 30
0.0
 11
553.3698134782302
 21
650.0350998608391
 31
0.0
  0
LINE
  5
1EE
330
1DB
100
AcDbEntity
  8
無題001
  6
Continuous
 62
     7
100
AcDbLine
 10
553.3698134782292
 20
649.075099860839
 30
0.0
 11
553.3698134782292
 21
658.0750998608388
 31
0.0
  0
LINE
  5
1EF
330
1DB
100
AcDbEntity
  8
無題001
  6
Continuous
 62
     7
100
AcDbLine
 10
545.3311383436342
 20
658.0750998608388
 30
0.0
 11
545.3311383436342
 21
649.075099860839
 31
0.0
  0
LINE
  5
1F0
330
1DB
100
AcDbEntity
  8
無題001
  6
Continuous
 62
     7
100
AcDbLine
 10
545.3311383436342
 20
649.075099860839
 30
0.0
 11
545.6198134782292
 21
648.575099860839
 31
0.0
  0
LINE
  5
1F1
330
1DB
100
AcDbEntity
  8
無題001
  6
Continuous
 62
     7
100
AcDbLine
 10
555.3698134782292
 20
648.575099860839
 30
0.0
 11
555.3698134782292
 21
658.5750998608388
 31
0.0
  0
LINE
  5
1F2
330
1DB
100
AcDbEntity
  8
無題001
  6
Continuous
 62
     7
100
AcDbLine
 10
555.3698134782292
 20
658.5750998608388
 30
0.0
 11
553.8698134782292
 21
658.5750998608388
 31
0.0
  0
LINE
  5
1F3
330
1DB
100
AcDbEntity
  8
無題001
  6
CENTER
 62
     1
100
AcDbLine
 10
536.9698134782292
 20
653.5750998608379
 30
0.0
 11
557.3698134782292
 21
653.5750998608379
 31
0.0
  0
LINE
  5
1F4
330
1DB
100
AcDbEntity
  8
無題001
  6
Continuous
 62
     7
100
AcDbLine
 10
539.4698134782292
 20
649.575099860839
 30
0.0
 11
538.9698134782292
 21
649.575099860839
 31
0.0
  0
ENDBLK
  5
1DD
330
1DB
100
AcDbEntity
  8
0
100
AcDbBlockEnd
  0
BLOCK
  5
1FA
330
1F9
100
AcDbEntity
  8
0
100
AcDbBlockBegin
  2
BLK3
 70
     0
 10
561.4698134782261
 20
640.4916900714619
 30
0.0
  3
BLK3
  1

  0
LINE
  5
1FC
330
1F9
100
AcDbEntity
  8
無題001
  6
Continuous
 62
     7
100
AcDbLine
 10
561.4698134782261
 20
635.491690071461
 30
0.0
 11
561.4698134782261
 21
645.4916900714609
 31
0.0
  0
LINE
  5
1FD
330
1F9
100
AcDbEntity
  8
無題001
  6
Continuous
 62
     7
100
AcDbLine
 10
563.4698134782261
 20
635.9916900714619
 30
0.0
 11
562.9698134782261
 21
635.491690071461
 31
0.0
  0
LINE
  5
1FE
330
1F9
100
AcDbEntity
  8
無題001
  6
Continuous
 62
     7
100
AcDbLine
 10
562.9698134782261
 20
645.4916900714609
 30
0.0
 11
563.4698134782261
 21
644.9916900714609
 31
0.0
  0
LINE
  5
1FF
330
1F9
100
AcDbEntity
  8
無題001
  6
Continuous
 62
     1
100
AcDbLine
 10
563.4698134782261
 20
636.3416900714609
 30
0.0
 11
564.4698134782261
 21
636.3416900714609
 31
0.0
  0
LINE
  5
200
330
1F9
100
AcDbEntity
  8
無題001
  6
Continuous
 62
     7
100
AcDbLine
 10
562.9698134782261
 20
635.491690071461
 30
0.0
 11
561.4698134782261
 21
635.491690071461
 31
0.0
  0
LINE
  5
201
330
1F9
100
AcDbEntity
  8
無題001
  6
Continuous
 62
     7
100
AcDbLine
 10
562.9698134782261
 20
645.4916900714609
 30
0.0
 11
561.4698134782261
 21
645.4916900714609
 31
0.0
  0
LINE
  5
202
330
1F9
100
AcDbEntity
  8
無題001
  6
Continuous
 62
     7
100
AcDbLine
 10
563.4698134782261
 20
635.9916900714619
 30
0.0
 11
563.4698134782261
 21
644.9916900714609
 31
0.0
  0
LINE
  5
203
330
1F9
100
AcDbEntity
  8
無題001
  6
Continuous
 62
     1
100
AcDbLine
 10
563.4698134782261
 20
644.641690071461
 30
0.0
 11
564.4698134782261
 21
644.641690071461
 31
0.0
  0
LINE
  5
204
330
1F9
100
AcDbEntity
  8
無題001
  6
Continuous
 62
     7
100
AcDbLine
 10
564.4698134782261
 20
636.041690071461
 30
0.0
 11
563.4698134782261
 21
636.041690071461
 31
0.0
  0
LINE
  5
205
330
1F9
100
AcDbEntity
  8
無題001
  6
Continuous
 62
     7
100
AcDbLine
 10
564.4698134782261
 20
644.9416900714609
 30
0.0
 11
563.4698134782261
 21
644.9416900714609
 31
0.0
  0
ENDBLK
  5
1FB
330
1F9
100
AcDbEntity
  8
0
100
AcDbBlockEnd
  0
BLOCK
  5
20A
330
209
100
AcDbEntity
  8
0
100
AcDbBlockBegin
  2
BLK4
 70
     0
 10
566.7698134782262
 20
640.491690071461
 30
0.0
  3
BLK4
  1

  0
LINE
  5
20C
330
209
100
AcDbEntity
  8
無題001
  6
Continuous
 62
     7
100
AcDbLine
 10
574.4698134782262
 20
643.973740879029
 30
0.0
 11
574.4698134782262
 21
637.0096392638919
 31
0.0
  0
LINE
  5
20D
330
209
100
AcDbEntity
  8
無題001
  6
Continuous
 62
     7
100
AcDbLine
 10
572.9698134782262
 20
636.357715475246
 30
0.0
 11
572.9698134782262
 21
644.625664667677
 31
0.0
  0
LINE
  5
20E
330
209
100
AcDbEntity
  8
無題001
  6
Continuous
 62
     7
100
AcDbLine
 10
571.4698134782262
 20
645.4916900714609
 30
0.0
 11
564.4698134782261
 21
645.4916900714609
 31
0.0
  0
LINE
  5
20F
330
209
100
AcDbEntity
  8
無題001
  6
Continuous
 62
     7
100
AcDbLine
 10
564.4698134782261
 20
645.4916900714609
 30
0.0
 11
564.4698134782261
 21
635.491690071461
 31
0.0
  0
LINE
  5
210
330
209
100
AcDbEntity
  8
無題001
  6
Continuous
 62
     7
100
AcDbLine
 10
572.9698134782262
 20
644.2416900714609
 30
0.0
 11
573.4698134782262
 21
644.2416900714609
 31
0.0
  0
LINE
  5
211
330
209
100
AcDbEntity
  8
無題001
  6
Continuous
 62
     7
100
AcDbLine
 10
572.9698134782262
 20
636.741690071461
 30
0.0
 11
573.4698134782262
 21
636.741690071461
 31
0.0
  0
LINE
  5
212
330
209
100
AcDbEntity
  8
無題001
  6
Continuous
 62
     7
100
AcDbLine
 10
572.9698134782262
 20
644.625664667677
 30
0.0
 11
571.4698134782262
 21
645.4916900714609
 31
0.0
  0
ENDBLK
  5
20B
330
209
100
AcDbEntity
  8
0
100
AcDbBlockEnd
  0
BLOCK
  5
23C
330
23B
100
AcDbEntity
  8
0
100
AcDbBlockBegin
  2
BLK5
 70
     0
 10
538.9698134782323
 20
633.6808980262447
 30
0.0
  3
BLK5
  1

  0
LINE
  5
23E
330
23B
100
AcDbEntity
  8
無題001
  6
Continuous
 62
     7
100
AcDbLine
 10
545.6198134782322
 20
638.6808980262447
 30
0.0
 11
545.6198134782322
 21
628.6808980262448
 31
0.0
  0
LINE
  5
23F
330
23B
100
AcDbEntity
  8
無題001
  6
Continuous
 62
     7
100
AcDbLine
 10
539.4698134782323
 20
629.1808980262448
 30
0.0
 11
545.3311383436372
 21
629.1808980262448
 31
0.0
  0
LINE
  5
240
330
23B
100
AcDbEntity
  8
無題001
  6
Continuous
 62
     7
100
AcDbLine
 10
553.8698134782322
 20
637.1808980262447
 30
0.0
 11
553.3698134782312
 21
637.1808980262447
 31
0.0
  0
LINE
  5
241
330
23B
100
AcDbEntity
  8
無題001
  6
Continuous
 62
     7
100
AcDbLine
 10
553.3698134782322
 20
638.1808980262447
 30
0.0
 11
552.4879135267872
 21
638.1808980262447
 31
0.0
  0
LINE
  5
242
330
23B
100
AcDbEntity
  8
無題001
  6
Continuous
 62
     7
100
AcDbLine
 10
539.4698134782323
 20
637.6808980262447
 30
0.0
 11
538.9698134782323
 21
637.6808980262447
 31
0.0
  0
LINE
  5
243
330
23B
100
AcDbEntity
  8
無題001
  6
Continuous
 62
     7
100
AcDbLine
 10
545.6198134782322
 20
628.6808980262448
 30
0.0
 11
552.4879135267872
 21
628.6808980262439
 31
0.0
  0
LINE
  5
244
330
23B
100
AcDbEntity
  8
無題001
  6
Continuous
 62
     7
100
AcDbLine
 10
552.4879135267872
 20
638.6808980262447
 30
0.0
 11
545.6198134782322
 21
638.6808980262447
 31
0.0
  0
LINE
  5
245
330
23B
100
AcDbEntity
  8
無題001
  6
Continuous
 62
     7
100
AcDbLine
 10
539.4698134782323
 20
638.1808980262447
 30
0.0
 11
539.4698134782323
 21
629.1808980262448
 31
0.0
  0
LINE
  5
246
330
23B
100
AcDbEntity
  8
無題001
  6
Continuous
 62
     7
100
AcDbLine
 10
552.4879135267872
 20
628.6808980262439
 30
0.0
 11
552.4879135267872
 21
638.6808980262447
 31
0.0
  0
LINE
  5
247
330
23B
100
AcDbEntity
  8
無題001
  6
Continuous
 62
     7
100
AcDbLine
 10
553.8698134782322
 20
628.6808980262448
 30
0.0
 11
555.3698134782322
 21
628.6808980262448
 31
0.0
  0
LINE
  5
248
330
23B
100
AcDbEntity
  8
無題001
  6
Continuous
 62
     7
100
AcDbLine
 10
538.9698134782323
 20
637.6808980262447
 30
0.0
 11
538.9698134782323
 21
629.6808980262448
 31
0.0
  0
LINE
  5
249
330
23B
100
AcDbEntity
  8
無題001
  6
Continuous
 62
     7
100
AcDbLine
 10
552.4879135267872
 20
629.1808980262448
 30
0.0
 11
553.3698134782322
 21
629.1808980262448
 31
0.0
  0
LINE
  5
24A
330
23B
100
AcDbEntity
  8
無題001
  6
Continuous
 62
     7
100
AcDbLine
 10
553.8698134782322
 20
628.6808980262448
 30
0.0
 11
553.8698134782322
 21
638.6808980262447
 31
0.0
  0
LINE
  5
24B
330
23B
100
AcDbEntity
  8
無題001
  6
Continuous
 62
     7
100
AcDbLine
 10
545.3311383436372
 20
638.1808980262447
 30
0.0
 11
539.4698134782323
 21
638.1808980262447
 31
0.0
  0
LINE
  5
24C
330
23B
100
AcDbEntity
  8
無題001
  6
Continuous
 62
     7
100
AcDbLine
 10
545.6198134782322
 20
638.6808980262447
 30
0.0
 11
545.3311383436372
 21
638.1808980262447
 31
0.0
  0
LINE
  5
24D
330
23B
100
AcDbEntity
  8
無題001
  6
Continuous
 62
     7
100
AcDbLine
 10
553.8698134782322
 20
630.1408980262448
 30
0.0
 11
553.3698134782333
 21
630.1408980262448
 31
0.0
  0
LINE
  5
24E
330
23B
100
AcDbEntity
  8
無題001
  6
Continuous
 62
     7
100
AcDbLine
 10
553.3698134782322
 20
629.1808980262448
 30
0.0
 11
553.3698134782322
 21
638.1808980262447
 31
0.0
  0
LINE
  5
24F
330
23B
100
AcDbEntity
  8
無題001
  6
Continuous
 62
     7
100
AcDbLine
 10
545.3311383436372
 20
638.1808980262447
 30
0.0
 11
545.3311383436372
 21
629.1808980262448
 31
0.0
  0
LINE
  5
250
330
23B
100
AcDbEntity
  8
無題001
  6
Continuous
 62
     7
100
AcDbLine
 10
545.3311383436372
 20
629.1808980262448
 30
0.0
 11
545.6198134782322
 21
628.6808980262448
 31
0.0
  0
LINE
  5
251
330
23B
100
AcDbEntity
  8
無題001
  6
Continuous
 62
     7
100
AcDbLine
 10
555.3698134782322
 20
628.6808980262448
 30
0.0
 11
555.3698134782322
 21
638.6808980262447
 31
0.0
  0
LINE
  5
252
330
23B
100
AcDbEntity
  8
無題001
  6
Continuous
 62
     7
100
AcDbLine
 10
555.3698134782322
 20
638.6808980262447
 30
0.0
 11
553.8698134782322
 21
638.6808980262447
 31
0.0
  0
LINE
  5
253
330
23B
100
AcDbEntity
  8
無題001
  6
CENTER
 62
     1
100
AcDbLine
 10
536.9698134782323
 20
633.6808980262438
 30
0.0
 11
557.3698134782322
 21
633.6808980262438
 31
0.0
  0
LINE
  5
254
330
23B
100
AcDbEntity
  8
無題001
  6
Continuous
 62
     7
100
AcDbLine
 10
539.4698134782323
 20
629.6808980262448
 30
0.0
 11
538.9698134782323
 21
629.6808980262448
 31
0.0
  0
ENDBLK
  5
23D
330
23B
100
AcDbEntity
  8
0
100
AcDbBlockEnd
  0
BLOCK
  5
295
330
294
100
AcDbEntity
  8
0
100
AcDbBlockBegin
  2
_D7
 70
     0
 10
0.0
 20
0.0
 30
0.0
  3
_D7
  1

  0
LINE
  5
297
330
294
100
AcDbEntity
  8
無題001
  6
ByBlock
 62
     4
100
AcDbLine
 10
518.8519854640405
 20
555.4916900714637
 30
0.0
 11
518.8519854640405
 21
595.4916900714637
 31
0.0
  0
INSERT
  5
298
330
294
100
AcDbEntity
  8
無題001
  6
ByBlock
 62
     4
100
AcDbBlockReference
  2
_OPEN30
 10
518.8519854640405
 20
555.4916900714637
 30
0.0
 41
2.954423259036616
 42
2.954423259036616
 43
2.954423259036616
 50
270.0
  0
INSERT
  5
299
330
294
100
AcDbEntity
  8
無題001
  6
ByBlock
 62
     4
100
AcDbBlockReference
  2
_OPEN30
 10
518.8519854640405
 20
595.4916900714637
 30
0.0
 41
2.954423259036616
 42
2.954423259036616
 43
2.954423259036616
 50
90.0
  0
LINE
  5
29A
330
294
100
AcDbEntity
  8
無題001
  6
ByBlock
 62
     4
100
AcDbLine
 10
518.8519854640405
 20
555.4916900714637
 30
0.0
 11
517.8519854640405
 21
555.4916900714637
 31
0.0
  0
LINE
  5
29B
330
294
100
AcDbEntity
  8
無題001
  6
ByBlock
 62
     4
100
AcDbLine
 10
518.8519854640405
 20
595.4916900714637
 30
0.0
 11
517.8519854640405
 21
595.4916900714637
 31
0.0
  0
MTEXT
  5
29C
330
294
100
AcDbEntity
  8
無題001
  6
Continuous
 62
     4
100
AcDbMText
 10
518.0679854640405
 20
568.3166900714638
 30
0.0
 40
3.5
 41
0.0
 71
     7
 72
     5
  1
{\fＭＳ ゴシック|b0|i0|c128|p49;\W1.0;φ40{\H0.70x;\A2\S 0^ -0.025;}}
  7
MTSTANDARD1
 11
0.0
 21
1.0
 31
0.0
 73
     1
 44
0.8035714285714286
  0
POINT
  5
29D
330
294
100
AcDbEntity
  8
DEFPOINTS
  6
ByBlock
 62
     4
100
AcDbPoint
 10
518.8519854640405
 20
555.4916900714637
 30
0.0
  0
POINT
  5
29E
330
294
100
AcDbEntity
  8
DEFPOINTS
  6
ByBlock
 62
     4
100
AcDbPoint
 10
518.8519854640405
 20
595.4916900714637
 30
0.0
  0
POINT
  5
29F
330
294
100
AcDbEntity
  8
DEFPOINTS
  6
ByBlock
 62
     4
100
AcDbPoint
 10
518.8519854640405
 20
595.4916900714637
 30
0.0
  0
ENDBLK
  5
296
330
294
100
AcDbEntity
  8
0
100
AcDbBlockEnd
  0
BLOCK
  5
2A4
330
2A3
100
AcDbEntity
  8
0
100
AcDbBlockBegin
  2
_D8
 70
     0
 10
0.0
 20
0.0
 30
0.0
  3
_D8
  1

  0
LINE
  5
2A6
330
2A3
100
AcDbEntity
  8
無題001
  6
ByBlock
 62
     4
100
AcDbLine
 10
404.2931822481225
 20
556.9916900714633
 30
0.0
 11
404.2931822481225
 21
593.991690071463
 31
0.0
  0
INSERT
  5
2A7
330
2A3
100
AcDbEntity
  8
無題001
  6
ByBlock
 62
     4
100
AcDbBlockReference
  2
_OPEN30
 10
404.2931822481225
 20
556.9916900714633
 30
0.0
 41
2.954423259036616
 42
2.954423259036616
 43
2.954423259036616
 50
270.0
  0
INSERT
  5
2A8
330
2A3
100
AcDbEntity
  8
無題001
  6
ByBlock
 62
     4
100
AcDbBlockReference
  2
_OPEN30
 10
404.2931822481225
 20
593.991690071463
 30
0.0
 41
2.954423259036616
 42
2.954423259036616
 43
2.954423259036616
 50
90.0
  0
LINE
  5
2A9
330
2A3
100
AcDbEntity
  8
無題001
  6
ByBlock
 62
     4
100
AcDbLine
 10
442.5698134782365
 20
556.9916900714633
 30
0.0
 11
403.2931822481226
 21
556.9916900714633
 31
0.0
  0
LINE
  5
2AA
330
2A3
100
AcDbEntity
  8
無題001
  6
ByBlock
 62
     4
100
AcDbLine
 10
442.5698134782285
 20
593.991690071463
 30
0.0
 11
403.2931822481225
 21
593.991690071463
 31
0.0
  0
MTEXT
  5
2AB
330
2A3
100
AcDbEntity
  8
無題001
  6
Continuous
 62
     4
100
AcDbMText
 10
403.5091822481226
 20
571.9916900714632
 30
0.0
 40
3.5
 41
0.0
 71
     7
 72
     5
  1
{\fＭＳ ゴシック|b0|i0|c128|p49;\W1.0;φ37}
  7
MTSTANDARD1
 11
0.0
 21
1.0
 31
0.0
 73
     1
 44
0.8035714285714286
  0
POINT
  5
2AC
330
2A3
100
AcDbEntity
  8
DEFPOINTS
  6
ByBlock
 62
     4
100
AcDbPoint
 10
442.5698134782365
 20
556.9916900714633
 30
0.0
  0
POINT
  5
2AD
330
2A3
100
AcDbEntity
  8
DEFPOINTS
  6
ByBlock
 62
     4
100
AcDbPoint
 10
442.5698134782285
 20
593.991690071463
 30
0.0
  0
POINT
  5
2AE
330
2A3
100
AcDbEntity
  8
DEFPOINTS
  6
ByBlock
 62
     4
100
AcDbPoint
 10
404.2931822481225
 20
593.991690071463
 30
0.0
  0
ENDBLK
  5
2A5
330
2A3
100
AcDbEntity
  8
0
100
AcDbBlockEnd
  0
BLOCK
  5
2B8
330
2B7
100
AcDbEntity
  8
0
100
AcDbBlockBegin
  2
_D9
 70
     0
 10
0.0
 20
0.0
 30
0.0
  3
_D9
  1

  0
LINE
  5
2BA
330
2B7
100
AcDbEntity
  8
無題001
  6
ByBlock
 62
     4
100
AcDbLine
 10
440.9698134782356
 20
540.4916900714637
 30
0.0
 11
447.4698134782295
 21
540.4916900714637
 31
0.0
  0
INSERT
  5
2BB
330
2B7
100
AcDbEntity
  8
無題001
  6
ByBlock
 62
     4
100
AcDbBlockReference
  2
_OPEN30
 10
440.9698134782356
 20
540.4916900714637
 30
0.0
 41
2.954423259036616
 42
2.954423259036616
 43
2.954423259036616
 50
180.0
  0
INSERT
  5
2BC
330
2B7
100
AcDbEntity
  8
無題001
  6
ByBlock
 62
     4
100
AcDbBlockReference
  2
_OPEN30
 10
447.4698134782295
 20
540.4916900714637
 30
0.0
 41
2.954423259036616
 42
2.954423259036616
 43
2.954423259036616
  0
LINE
  5
2BD
330
2B7
100
AcDbEntity
  8
無題001
  6
ByBlock
 62
     4
100
AcDbLine
 10
440.9698134782356
 20
558.5916900714632
 30
0.0
 11
440.9698134782356
 21
539.4916900714637
 31
0.0
  0
LINE
  5
2BE
330
2B7
100
AcDbEntity
  8
無題001
  6
ByBlock
 62
     4
100
AcDbLine
 10
447.4698134782295
 20
556.9916900714633
 30
0.0
 11
447.4698134782295
 21
539.4916900714637
 31
0.0
  0
MTEXT
  5
2BF
330
2B7
100
AcDbEntity
  8
無題001
  6
Continuous
 62
     4
100
AcDbMText
 10
441.5948134782325
 20
541.2756900714637
 30
0.0
 40
3.5
 41
0.0
 71
     7
 72
     5
  1
{\fＭＳ ゴシック|b0|i0|c128|p49;\W1.0;6.5}
  7
MTSTANDARD1
 73
     1
 44
0.8035714285714286
  0
POINT
  5
2C0
330
2B7
100
AcDbEntity
  8
DEFPOINTS
  6
ByBlock
 62
     4
100
AcDbPoint
 10
440.9698134782356
 20
558.5916900714632
 30
0.0
  0
POINT
  5
2C1
330
2B7
100
AcDbEntity
  8
DEFPOINTS
  6
ByBlock
 62
     4
100
AcDbPoint
 10
447.4698134782295
 20
556.9916900714633
 30
0.0
  0
POINT
  5
2C2
330
2B7
100
AcDbEntity
  8
DEFPOINTS
  6
ByBlock
 62
     4
100
AcDbPoint
 10
447.4698134782295
 20
540.4916900714637
 30
0.0
  0
ENDBLK
  5
2B9
330
2B7
100
AcDbEntity
  8
0
100
AcDbBlockEnd
  0
BLOCK
  5
2C7
330
2C6
100
AcDbEntity
  8
0
100
AcDbBlockBegin
  2
_D10
 70
     0
 10
0.0
 20
0.0
 30
0.0
  3
_D10
  1

  0
LINE
  5
2C9
330
2C6
100
AcDbEntity
  8
無題001
  6
ByBlock
 62
     4
100
AcDbLine
 10
447.4698134782295
 20
540.486066434817
 30
0.0
 11
474.9698134782295
 21
540.486066434817
 31
0.0
  0
INSERT
  5
2CA
330
2C6
100
AcDbEntity
  8
無題001
  6
ByBlock
 62
     4
100
AcDbBlockReference
  2
_OPEN30
 10
447.4698134782295
 20
540.486066434817
 30
0.0
 41
2.954423259036616
 42
2.954423259036616
 43
2.954423259036616
 50
180.0
  0
INSERT
  5
2CB
330
2C6
100
AcDbEntity
  8
無題001
  6
ByBlock
 62
     4
100
AcDbBlockReference
  2
_OPEN30
 10
474.9698134782295
 20
540.486066434817
 30
0.0
 41
2.954423259036616
 42
2.954423259036616
 43
2.954423259036616
  0
LINE
  5
2CC
330
2C6
100
AcDbEntity
  8
無題001
  6
ByBlock
 62
     4
100
AcDbLine
 10
447.4698134782295
 20
556.9916900714633
 30
0.0
 11
447.4698134782295
 21
539.486066434817
 31
0.0
  0
LINE
  5
2CD
330
2C6
100
AcDbEntity
  8
無題001
  6
ByBlock
 62
     4
100
AcDbLine
 10
474.9698134782295
 20
555.7916900714632
 30
0.0
 11
474.9698134782296
 21
539.4860664348171
 31
0.0
  0
MTEXT
  5
2CE
330
2C6
100
AcDbEntity
  8
無題001
  6
Continuous
 62
     4
100
AcDbMText
 10
457.7198134782295
 20
541.270066434817
 30
0.0
 40
3.5
 41
0.0
 71
     7
 72
     5
  1
{\fＭＳ ゴシック|b0|i0|c128|p49;\W1.0;27.5}
  7
MTSTANDARD1
 73
     1
 44
0.8035714285714286
  0
POINT
  5
2CF
330
2C6
100
AcDbEntity
  8
DEFPOINTS
  6
ByBlock
 62
     4
100
AcDbPoint
 10
447.4698134782295
 20
556.9916900714633
 30
0.0
  0
POINT
  5
2D0
330
2C6
100
AcDbEntity
  8
DEFPOINTS
  6
ByBlock
 62
     4
100
AcDbPoint
 10
474.9698134782295
 20
555.7916900714632
 30
0.0
  0
POINT
  5
2D1
330
2C6
100
AcDbEntity
  8
DEFPOINTS
  6
ByBlock
 62
     4
100
AcDbPoint
 10
474.9698134782295
 20
540.486066434817
 30
0.0
  0
ENDBLK
  5
2C8
330
2C6
100
AcDbEntity
  8
0
100
AcDbBlockEnd
  0
BLOCK
  5
2D6
330
2D5
100
AcDbEntity
  8
0
100
AcDbBlockBegin
  2
_D11
 70
     0
 10
0.0
 20
0.0
 30
0.0
  3
_D11
  1

  0
LINE
  5
2D8
330
2D5
100
AcDbEntity
  8
無題001
  6
ByBlock
 62
     4
100
AcDbLine
 10
474.9698134782295
 20
540.486066434817
 30
0.0
 11
493.9698134782295
 21
540.486066434817
 31
0.0
  0
INSERT
  5
2D9
330
2D5
100
AcDbEntity
  8
無題001
  6
ByBlock
 62
     4
100
AcDbBlockReference
  2
_OPEN30
 10
474.9698134782295
 20
540.486066434817
 30
0.0
 41
2.954423259036616
 42
2.954423259036616
 43
2.954423259036616
 50
180.0
  0
INSERT
  5
2DA
330
2D5
100
AcDbEntity
  8
無題001
  6
ByBlock
 62
     4
100
AcDbBlockReference
  2
_OPEN30
 10
493.9698134782295
 20
540.486066434817
 30
0.0
 41
2.954423259036616
 42
2.954423259036616
 43
2.954423259036616
  0
LINE
  5
2DB
330
2D5
100
AcDbEntity
  8
無題001
  6
ByBlock
 62
     4
100
AcDbLine
 10
474.9698134782295
 20
555.7916900714632
 30
0.0
 11
474.9698134782296
 21
539.4860664348171
 31
0.0
  0
LINE
  5
2DC
330
2D5
100
AcDbEntity
  8
無題001
  6
ByBlock
 62
     4
100
AcDbLine
 10
493.9698134782295
 20
555.7916900714632
 30
0.0
 11
493.9698134782295
 21
539.4860664348171
 31
0.0
  0
MTEXT
  5
2DD
330
2D5
100
AcDbEntity
  8
無題001
  6
Continuous
 62
     4
100
AcDbMText
 10
482.7198134782295
 20
541.270066434817
 30
0.0
 40
3.5
 41
0.0
 71
     7
 72
     5
  1
{\fＭＳ ゴシック|b0|i0|c128|p49;\W1.0;19}
  7
MTSTANDARD1
 73
     1
 44
0.8035714285714286
  0
POINT
  5
2DE
330
2D5
100
AcDbEntity
  8
DEFPOINTS
  6
ByBlock
 62
     4
100
AcDbPoint
 10
474.9698134782295
 20
555.7916900714632
 30
0.0
  0
POINT
  5
2DF
330
2D5
100
AcDbEntity
  8
DEFPOINTS
  6
ByBlock
 62
     4
100
AcDbPoint
 10
493.9698134782295
 20
555.7916900714632
 30
0.0
  0
POINT
  5
2E0
330
2D5
100
AcDbEntity
  8
DEFPOINTS
  6
ByBlock
 62
     4
100
AcDbPoint
 10
493.9698134782295
 20
540.486066434817
 30
0.0
  0
ENDBLK
  5
2D7
330
2D5
100
AcDbEntity
  8
0
100
AcDbBlockEnd
  0
BLOCK
  5
2E5
330
2E4
100
AcDbEntity
  8
0
100
AcDbBlockBegin
  2
_D12
 70
     0
 10
0.0
 20
0.0
 30
0.0
  3
_D12
  1

  0
LINE
  5
2E7
330
2E4
100
AcDbEntity
  8
無題001
  6
ByBlock
 62
     4
100
AcDbLine
 10
493.9698134782295
 20
540.486066434817
 30
0.0
 11
538.9698134782275
 21
540.486066434817
 31
0.0
  0
INSERT
  5
2E8
330
2E4
100
AcDbEntity
  8
無題001
  6
ByBlock
 62
     4
100
AcDbBlockReference
  2
_OPEN30
 10
493.9698134782295
 20
540.486066434817
 30
0.0
 41
2.954423259036616
 42
2.954423259036616
 43
2.954423259036616
 50
180.0
  0
INSERT
  5
2E9
330
2E4
100
AcDbEntity
  8
無題001
  6
ByBlock
 62
     4
100
AcDbBlockReference
  2
_OPEN30
 10
538.9698134782275
 20
540.486066434817
 30
0.0
 41
2.954423259036616
 42
2.954423259036616
 43
2.954423259036616
  0
LINE
  5
2EA
330
2E4
100
AcDbEntity
  8
無題001
  6
ByBlock
 62
     4
100
AcDbLine
 10
493.9698134782295
 20
555.7916900714632
 30
0.0
 11
493.9698134782295
 21
539.4860664348171
 31
0.0
  0
LINE
  5
2EB
330
2E4
100
AcDbEntity
  8
無題001
  6
ByBlock
 62
     4
100
AcDbLine
 10
538.9698134782275
 20
555.7916900714632
 30
0.0
 11
538.9698134782274
 21
539.4860664348171
 31
0.0
  0
MTEXT
  5
2EC
330
2E4
100
AcDbEntity
  8
無題001
  6
Continuous
 62
     4
100
AcDbMText
 10
514.7198134782285
 20
541.270066434817
 30
0.0
 40
3.5
 41
0.0
 71
     7
 72
     5
  1
{\fＭＳ ゴシック|b0|i0|c128|p49;\W1.0;45}
  7
MTSTANDARD1
 73
     1
 44
0.8035714285714286
  0
POINT
  5
2ED
330
2E4
100
AcDbEntity
  8
DEFPOINTS
  6
ByBlock
 62
     4
100
AcDbPoint
 10
493.9698134782295
 20
555.7916900714632
 30
0.0
  0
POINT
  5
2EE
330
2E4
100
AcDbEntity
  8
DEFPOINTS
  6
ByBlock
 62
     4
100
AcDbPoint
 10
538.9698134782275
 20
555.7916900714632
 30
0.0
  0
POINT
  5
2EF
330
2E4
100
AcDbEntity
  8
DEFPOINTS
  6
ByBlock
 62
     4
100
AcDbPoint
 10
538.9698134782275
 20
540.486066434817
 30
0.0
  0
ENDBLK
  5
2E6
330
2E4
100
AcDbEntity
  8
0
100
AcDbBlockEnd
  0
BLOCK
  5
2F4
330
2F3
100
AcDbEntity
  8
0
100
AcDbBlockBegin
  2
_D13
 70
     0
 10
0.0
 20
0.0
 30
0.0
  3
_D13
  1

  0
LINE
  5
2F6
330
2F3
100
AcDbEntity
  8
無題001
  6
ByBlock
 62
     4
100
AcDbLine
 10
528.9698134782279
 20
605.5916900714609
 30
0.0
 11
561.4698134782232
 21
605.5916900714609
 31
0.0
  0
INSERT
  5
2F7
330
2F3
100
AcDbEntity
  8
無題001
  6
ByBlock
 62
     4
100
AcDbBlockReference
  2
_OPEN30
 10
528.9698134782279
 20
605.5916900714609
 30
0.0
 41
2.954423259036616
 42
2.954423259036616
 43
2.954423259036616
 50
180.0
  0
INSERT
  5
2F8
330
2F3
100
AcDbEntity
  8
無題001
  6
ByBlock
 62
     4
100
AcDbBlockReference
  2
_OPEN30
 10
561.4698134782232
 20
605.5916900714609
 30
0.0
 41
2.954423259036616
 42
2.954423259036616
 43
2.954423259036616
  0
LINE
  5
2F9
330
2F3
100
AcDbEntity
  8
無題001
  6
ByBlock
 62
     4
100
AcDbLine
 10
528.9698134782279
 20
615.4916900714642
 30
0.0
 11
528.9698134782279
 21
604.5916900714609
 31
0.0
  0
LINE
  5
2FA
330
2F3
100
AcDbEntity
  8
無題001
  6
ByBlock
 62
     4
100
AcDbLine
 10
561.4698134782232
 20
633.991690071461
 30
0.0
 11
561.4698134782232
 21
604.5916900714609
 31
0.0
  0
MTEXT
  5
2FB
330
2F3
100
AcDbEntity
  8
無題001
  6
Continuous
 62
     4
100
AcDbMText
 10
541.7198134782255
 20
606.3756900714609
 30
0.0
 40
3.5
 41
0.0
 71
     7
 72
     5
  1
{\fＭＳ ゴシック|b0|i0|c128|p49;\W1.0;32.5}
  7
MTSTANDARD1
 73
     1
 44
0.8035714285714286
  0
POINT
  5
2FC
330
2F3
100
AcDbEntity
  8
DEFPOINTS
  6
ByBlock
 62
     4
100
AcDbPoint
 10
528.9698134782279
 20
615.4916900714642
 30
0.0
  0
POINT
  5
2FD
330
2F3
100
AcDbEntity
  8
DEFPOINTS
  6
ByBlock
 62
     4
100
AcDbPoint
 10
561.4698134782232
 20
633.991690071461
 30
0.0
  0
POINT
  5
2FE
330
2F3
100
AcDbEntity
  8
DEFPOINTS
  6
ByBlock
 62
     4
100
AcDbPoint
 10
561.4698134782232
 20
605.5916900714609
 30
0.0
  0
ENDBLK
  5
2F5
330
2F3
100
AcDbEntity
  8
0
100
AcDbBlockEnd
  0
BLOCK
  5
303
330
302
100
AcDbEntity
  8
0
100
AcDbBlockBegin
  2
_D14
 70
     0
 10
0.0
 20
0.0
 30
0.0
  3
_D14
  1

  0
LINE
  5
305
330
302
100
AcDbEntity
  8
無題001
  6
ByBlock
 62
     4
100
AcDbLine
 10
561.4698134782232
 20
605.5916900714609
 30
0.0
 11
574.4698134782262
 21
605.5916900714609
 31
0.0
  0
INSERT
  5
306
330
302
100
AcDbEntity
  8
無題001
  6
ByBlock
 62
     4
100
AcDbBlockReference
  2
_OPEN30
 10
561.4698134782232
 20
605.5916900714609
 30
0.0
 41
2.954423259036616
 42
2.954423259036616
 43
2.954423259036616
 50
180.0
  0
INSERT
  5
307
330
302
100
AcDbEntity
  8
無題001
  6
ByBlock
 62
     4
100
AcDbBlockReference
  2
_OPEN30
 10
574.4698134782262
 20
605.5916900714609
 30
0.0
 41
2.954423259036616
 42
2.954423259036616
 43
2.954423259036616
  0
LINE
  5
308
330
302
100
AcDbEntity
  8
無題001
  6
ByBlock
 62
     4
100
AcDbLine
 10
561.4698134782232
 20
633.991690071461
 30
0.0
 11
561.4698134782232
 21
604.5916900714609
 31
0.0
  0
LINE
  5
309
330
302
100
AcDbEntity
  8
無題001
  6
ByBlock
 62
     4
100
AcDbLine
 10
574.4698134782262
 20
637.0096392638919
 30
0.0
 11
574.4698134782262
 21
604.5916900714609
 31
0.0
  0
MTEXT
  5
30A
330
302
100
AcDbEntity
  8
無題001
  6
Continuous
 62
     4
100
AcDbMText
 10
566.2198134782248
 20
606.3756900714609
 30
0.0
 40
3.5
 41
0.0
 71
     7
 72
     5
  1
{\fＭＳ ゴシック|b0|i0|c128|p49;\W1.0;13}
  7
MTSTANDARD1
 73
     1
 44
0.8035714285714286
  0
POINT
  5
30B
330
302
100
AcDbEntity
  8
DEFPOINTS
  6
ByBlock
 62
     4
100
AcDbPoint
 10
561.4698134782232
 20
633.991690071461
 30
0.0
  0
POINT
  5
30C
330
302
100
AcDbEntity
  8
DEFPOINTS
  6
ByBlock
 62
     4
100
AcDbPoint
 10
574.4698134782262
 20
637.0096392638919
 30
0.0
  0
POINT
  5
30D
330
302
100
AcDbEntity
  8
DEFPOINTS
  6
ByBlock
 62
     4
100
AcDbPoint
 10
574.4698134782262
 20
605.5916900714609
 30
0.0
  0
ENDBLK
  5
304
330
302
100
AcDbEntity
  8
0
100
AcDbBlockEnd
  0
BLOCK
  5
343
330
342
100
AcDbEntity
  8
0
100
AcDbBlockBegin
  2
_D15
 70
     0
 10
0.0
 20
0.0
 30
0.0
  3
_D15
  1

  0
LINE
  5
345
330
342
100
AcDbEntity
  8
無題001
  6
ByBlock
 62
     4
100
AcDbLine
 10
366.5667770565051
 20
540.4916900714634
 30
0.0
 11
383.8667770565051
 21
540.4916900714634
 31
0.0
  0
INSERT
  5
346
330
342
100
AcDbEntity
  8
無題001
  6
ByBlock
 62
     4
100
AcDbBlockReference
  2
_OPEN30
 10
366.5667770565051
 20
540.4916900714634
 30
0.0
 41
2.954423259036616
 42
2.954423259036616
 43
2.954423259036616
 50
180.0
  0
INSERT
  5
347
330
342
100
AcDbEntity
  8
無題001
  6
ByBlock
 62
     4
100
AcDbBlockReference
  2
_OPEN30
 10
383.8667770565051
 20
540.4916900714634
 30
0.0
 41
2.954423259036616
 42
2.954423259036616
 43
2.954423259036616
  0
LINE
  5
348
330
342
100
AcDbEntity
  8
無題001
  6
ByBlock
 62
     4
100
AcDbLine
 10
366.5667770565051
 20
552.9888088794642
 30
0.0
 11
366.5667770565051
 21
539.4916900714634
 31
0.0
  0
LINE
  5
349
330
342
100
AcDbEntity
  8
無題001
  6
ByBlock
 62
     4
100
AcDbLine
 10
383.8667770565051
 20
568.9373022282642
 30
0.0
 11
383.8667770565051
 21
539.4916900714634
 31
0.0
  0
MTEXT
  5
34A
330
342
100
AcDbEntity
  8
無題001
  6
Continuous
 62
     4
100
AcDbMText
 10
371.7167770565051
 20
541.2756900714634
 30
0.0
 40
3.5
 41
0.0
 71
     7
 72
     5
  1
{\fＭＳ ゴシック|b0|i0|c128|p49;\W1.0;17.3}
  7
MTSTANDARD1
 73
     1
 44
0.8035714285714286
  0
POINT
  5
34B
330
342
100
AcDbEntity
  8
DEFPOINTS
  6
ByBlock
 62
     4
100
AcDbPoint
 10
366.5667770565051
 20
552.9888088794642
 30
0.0
  0
POINT
  5
34C
330
342
100
AcDbEntity
  8
DEFPOINTS
  6
ByBlock
 62
     4
100
AcDbPoint
 10
383.8667770565051
 20
568.9373022282642
 30
0.0
  0
POINT
  5
34D
330
342
100
AcDbEntity
  8
DEFPOINTS
  6
ByBlock
 62
     4
100
AcDbPoint
 10
383.8667770565051
 20
540.4916900714634
 30
0.0
  0
ENDBLK
  5
344
330
342
100
AcDbEntity
  8
0
100
AcDbBlockEnd
  0
BLOCK
  5
352
330
351
100
AcDbEntity
  8
0
100
AcDbBlockBegin
  2
_D16
 70
     0
 10
0.0
 20
0.0
 30
0.0
  3
_D16
  1

  0
LINE
  5
354
330
351
100
AcDbEntity
  8
無題001
  6
ByBlock
 62
     4
100
AcDbLine
 10
383.866777056497
 20
540.4916900714637
 30
0.0
 11
385.9167770565051
 21
540.4916900714637
 31
0.0
  0
LINE
  5
355
330
351
100
AcDbEntity
  8
無題001
  6
ByBlock
 62
     4
100
AcDbLine
 10
383.866777056497
 20
540.4916900714637
 30
0.0
 11
377.8667770564969
 21
540.4916900714637
 31
0.0
  0
LINE
  5
356
330
351
100
AcDbEntity
  8
無題001
  6
ByBlock
 62
     4
100
AcDbLine
 10
383.866777056497
 20
540.4916900714637
 30
0.0
 11
384.891777056501
 21
540.4916900714637
 31
0.0
  0
LINE
  5
357
330
351
100
AcDbEntity
  8
無題001
  6
ByBlock
 62
     4
100
AcDbLine
 10
385.9167770565051
 20
540.4916900714637
 30
0.0
 11
384.891777056501
 21
540.4916900714637
 31
0.0
  0
LINE
  5
358
330
351
100
AcDbEntity
  8
無題001
  6
ByBlock
 62
     4
100
AcDbLine
 10
385.9167770565051
 20
540.4916900714637
 30
0.0
 11
394.6447764621022
 21
540.4916900714637
 31
0.0
  0
INSERT
  5
359
330
351
100
AcDbEntity
  8
無題001
  6
ByBlock
 62
     4
100
AcDbBlockReference
  2
_OPEN30
 10
383.866777056497
 20
540.4916900714637
 30
0.0
 41
2.954423259036616
 42
2.954423259036616
 43
2.954423259036616
  0
INSERT
  5
35A
330
351
100
AcDbEntity
  8
無題001
  6
ByBlock
 62
     4
100
AcDbBlockReference
  2
_OPEN30
 10
385.9167770565051
 20
540.4916900714637
 30
0.0
 41
2.954423259036616
 42
2.954423259036616
 43
2.954423259036616
 50
180.0
  0
LINE
  5
35B
330
351
100
AcDbEntity
  8
無題001
  6
ByBlock
 62
     4
100
AcDbLine
 10
383.866777056497
 20
568.9373022281733
 30
0.0
 11
383.8667770564969
 21
539.4916900714637
 31
0.0
  0
LINE
  5
35C
330
351
100
AcDbEntity
  8
無題001
  6
ByBlock
 62
     4
100
AcDbLine
 10
385.9167770565051
 20
574.1416900715642
 30
0.0
 11
385.9167770565051
 21
539.4916900714637
 31
0.0
  0
MTEXT
  5
35D
330
351
100
AcDbEntity
  8
無題001
  6
Continuous
 62
     4
100
AcDbMText
 10
389.9407764621022
 20
541.2756900714637
 30
0.0
 40
3.5
 41
0.0
 71
     7
 72
     5
  1
{\fＭＳ ゴシック|b0|i0|c128|p49;\W1.0;2.1}
  7
MTSTANDARD1
 73
     1
 44
0.8035714285714286
  0
POINT
  5
35E
330
351
100
AcDbEntity
  8
DEFPOINTS
  6
ByBlock
 62
     4
100
AcDbPoint
 10
383.866777056497
 20
568.9373022281733
 30
0.0
  0
POINT
  5
35F
330
351
100
AcDbEntity
  8
DEFPOINTS
  6
ByBlock
 62
     4
100
AcDbPoint
 10
385.9167770565051
 20
574.1416900715642
 30
0.0
  0
POINT
  5
360
330
351
100
AcDbEntity
  8
DEFPOINTS
  6
ByBlock
 62
     4
100
AcDbPoint
 10
385.9167770565051
 20
540.4916900714637
 30
0.0
  0
ENDBLK
  5
353
330
351
100
AcDbEntity
  8
0
100
AcDbBlockEnd
  0
BLOCK
  5
365
330
364
100
AcDbEntity
  8
0
100
AcDbBlockBegin
  2
_D17
 70
     0
 10
0.0
 20
0.0
 30
0.0
  3
_D17
  1

  0
LINE
  5
367
330
364
100
AcDbEntity
  8
無題001
  6
ByBlock
 62
     4
100
AcDbLine
 10
361.5667770565051
 20
605.4916900714643
 30
0.0
 11
371.5667770565051
 21
605.4916900714643
 31
0.0
  0
INSERT
  5
368
330
364
100
AcDbEntity
  8
無題001
  6
ByBlock
 62
     4
100
AcDbBlockReference
  2
_OPEN30
 10
361.5667770565051
 20
605.4916900714643
 30
0.0
 41
2.954423259036616
 42
2.954423259036616
 43
2.954423259036616
 50
180.0
  0
INSERT
  5
369
330
364
100
AcDbEntity
  8
無題001
  6
ByBlock
 62
     4
100
AcDbBlockReference
  2
_OPEN30
 10
371.5667770565051
 20
605.4916900714643
 30
0.0
 41
2.954423259036616
 42
2.954423259036616
 43
2.954423259036616
  0
LINE
  5
36A
330
364
100
AcDbEntity
  8
無題001
  6
ByBlock
 62
     4
100
AcDbLine
 10
361.5667770565051
 20
577.5312978769012
 30
0.0
 11
361.5667770565051
 21
606.4916900714644
 31
0.0
  0
LINE
  5
36B
330
364
100
AcDbEntity
  8
無題001
  6
ByBlock
 62
     4
100
AcDbLine
 10
371.5667770565051
 20
577.5312978769012
 30
0.0
 11
371.5667770565051
 21
606.4916900714644
 31
0.0
  0
MTEXT
  5
36C
330
364
100
AcDbEntity
  8
無題001
  6
Continuous
 62
     4
100
AcDbMText
 10
364.8167770565051
 20
606.2756900714643
 30
0.0
 40
3.5
 41
0.0
 71
     7
 72
     5
  1
{\fＭＳ ゴシック|b0|i0|c128|p49;\W1.0;10}
  7
MTSTANDARD1
 73
     1
 44
0.8035714285714286
  0
POINT
  5
36D
330
364
100
AcDbEntity
  8
DEFPOINTS
  6
ByBlock
 62
     4
100
AcDbPoint
 10
361.5667770565051
 20
577.5312978769012
 30
0.0
  0
POINT
  5
36E
330
364
100
AcDbEntity
  8
DEFPOINTS
  6
ByBlock
 62
     4
100
AcDbPoint
 10
371.5667770565051
 20
577.5312978769012
 30
0.0
  0
POINT
  5
36F
330
364
100
AcDbEntity
  8
DEFPOINTS
  6
ByBlock
 62
     4
100
AcDbPoint
 10
371.5667770565051
 20
605.4916900714643
 30
0.0
  0
ENDBLK
  5
366
330
364
100
AcDbEntity
  8
0
100
AcDbBlockEnd
  0
ENDSEC
  0
SECTION
  2
ENTITIES
  0
INSERT
  5
C9
330
1F
100
AcDbEntity
  8
無題001
  6
Continuous
 62
     7
100
AcDbBlockReference
  2
BLK0
 10
548.9698134782335
 20
588.5750998608411
 30
0.0
  0
LINE
  5
CA
330
1F
100
AcDbEntity
  8
無題001
  6
Continuous
 62
     7
100
AcDbLine
 10
538.9698134782275
 20
595.1916900714631
 30
0.0
 11
538.9698134782275
 21
555.7916900714632
 31
0.0
  0
LINE
  5
CB
330
1F
100
AcDbEntity
  8
無題001
  6
Continuous
 62
     4
100
AcDbLine
 10
434.9860025711405
 20
571.0916902800633
 30
0.0
 11
434.9860025711405
 21
579.8916902800643
 31
0.0
  0
LINE
  5
CC
330
1F
100
AcDbEntity
  8
無題001
  6
Continuous
 62
     4
100
AcDbLine
 10
443.2718645402305
 20
574.2916900714641
 30
0.0
 11
444.6575051862855
 21
574.2916900714641
 31
0.0
  0
LINE
  5
CD
330
1F
100
AcDbEntity
  8
無題001
  6
Continuous
 62
     4
100
AcDbLine
 10
442.5698134782285
 20
569.4916900714712
 30
0.0
 11
442.5698134782365
 21
556.9916900714633
 31
0.0
  0
LINE
  5
CE
330
1F
100
AcDbEntity
  8
無題001
  6
Continuous
 62
     4
100
AcDbLine
 10
438.8931822481135
 20
577.5312978769011
 30
0.0
 11
436.1931822481125
 21
573.4520822660262
 31
0.0
  0
LINE
  5
CF
330
1F
100
AcDbEntity
  8
無題001
  6
Continuous
 62
     4
100
AcDbLine
 10
438.8931822481125
 20
573.4520822660273
 30
0.0
 11
436.1931822481135
 21
577.5312978769011
 31
0.0
  0
LINE
  5
D0
330
1F
100
AcDbEntity
  8
無題001
  6
Continuous
 62
   251
100
AcDbLine
 10
436.1931822481135
 20
577.5312978769011
 30
0.0
 11
438.8931822481135
 21
577.5312978769011
 31
0.0
  0
LINE
  5
D1
330
1F
100
AcDbEntity
  8
無題001
  6
Continuous
 62
     4
100
AcDbLine
 10
445.3503255093135
 20
575.4916900714642
 30
0.0
 11
444.6575051862855
 21
576.6916900714633
 31
0.0
  0
LINE
  5
D2
330
1F
100
AcDbEntity
  8
無題001
  6
Continuous
 62
     4
100
AcDbLine
 10
444.6575051862855
 20
574.2916900714641
 30
0.0
 11
445.3503255093135
 21
575.4916900714642
 31
0.0
  0
LINE
  5
D3
330
1F
100
AcDbEntity
  8
無題001
  6
Continuous
 62
     4
100
AcDbLine
 10
443.2718645402305
 20
576.6916900714633
 30
0.0
 11
442.5790442172025
 21
575.4916900714642
 31
0.0
  0
CIRCLE
  5
D4
330
1F
100
AcDbEntity
  8
無題001
  6
Continuous
 62
     7
100
AcDbCircle
 10
443.9646848632585
 20
575.4916900714642
 30
0.0
 40
3.0
  0
LINE
  5
D5
330
1F
100
AcDbEntity
  8
無題001
  6
Continuous
 62
     7
100
AcDbLine
 10
436.0431822481135
 20
580.8916900714642
 30
0.0
 11
434.9860025711415
 21
580.8916900714632
 31
0.0
  0
ARC
  5
D6
330
1F
100
AcDbEntity
  8
無題001
  6
Continuous
 62
     7
100
AcDbCircle
 10
434.9860025711405
 20
571.0916900714632
 30
0.0
 40
1.0
100
AcDbArc
 50
240.000000000119
 51
270.0
  0
ARC
  5
D7
330
1F
100
AcDbEntity
  8
無題001
  6
Continuous
 62
     7
100
AcDbCircle
 10
434.9860025711415
 20
579.8916900714632
 30
0.0
 40
1.0
100
AcDbArc
 50
90.0
 51
119.999999999881
  0
LINE
  5
D8
330
1F
100
AcDbEntity
  8
無題001
  6
PHANTOM
 62
     3
100
AcDbLine
 10
438.7431822481135
 20
570.0916900714623
 30
0.0
 11
438.8931822481135
 21
570.2416900714621
 31
0.0
  0
LINE
  5
D9
330
1F
100
AcDbEntity
  8
無題001
  6
Continuous
 62
     7
100
AcDbLine
 10
432.2931822481135
 20
572.0690403406533
 30
0.0
 11
432.2931822481135
 21
578.9143398022732
 31
0.0
  0
LINE
  5
DA
330
1F
100
AcDbEntity
  8
無題001
  6
Continuous
 62
     7
100
AcDbLine
 10
438.8931822481135
 20
570.2416900714621
 30
0.0
 11
439.0431822481135
 21
570.0916900714623
 31
0.0
  0
LINE
  5
DB
330
1F
100
AcDbEntity
  8
無題001
  6
Continuous
 62
     7
100
AcDbLine
 10
436.1931822481135
 20
580.7416900714643
 30
0.0
 11
436.1931822481135
 21
570.2416900714633
 31
0.0
  0
LINE
  5
DC
330
1F
100
AcDbEntity
  8
無題001
  6
PHANTOM
 62
     3
100
AcDbLine
 10
438.7431822481135
 20
570.0916900714623
 30
0.0
 11
436.3431822481135
 21
570.0916900714632
 31
0.0
  0
LINE
  5
DD
330
1F
100
AcDbEntity
  8
無題001
  6
Continuous
 62
     7
100
AcDbLine
 10
436.0431822481135
 20
570.0916900714632
 30
0.0
 11
434.9860025711405
 21
570.0916900714632
 31
0.0
  0
LINE
  5
DE
330
1F
100
AcDbEntity
  8
無題001
  6
Continuous
 62
     7
100
AcDbLine
 10
438.8931822481135
 20
580.7416900714652
 30
0.0
 11
438.8931822481135
 21
570.2416900714621
 31
0.0
  0
LINE
  5
DF
330
1F
100
AcDbEntity
  8
無題001
  6
Continuous
 62
     7
100
AcDbLine
 10
432.7931822481135
 20
571.2030149368683
 30
0.0
 11
434.4860025711405
 21
570.2256646676793
 31
0.0
  0
LINE
  5
E0
330
1F
100
AcDbEntity
  8
無題001
  6
PHANTOM
 62
     3
100
AcDbLine
 10
436.1931822481135
 20
570.2416900714633
 30
0.0
 11
436.3431822481135
 21
570.0916900714632
 31
0.0
  0
LINE
  5
E1
330
1F
100
AcDbEntity
  8
無題001
  6
Continuous
 62
     7
100
AcDbLine
 10
439.4698134782285
 20
580.8916900714642
 30
0.0
 11
439.0431822481135
 21
580.8916900714642
 31
0.0
  0
LINE
  5
E2
330
1F
100
AcDbEntity
  8
無題001
  6
Continuous
 62
     7
100
AcDbLine
 10
436.1931822481135
 20
580.4916900714632
 30
0.0
 11
438.8931822481135
 21
580.4916900714643
 31
0.0
  0
LINE
  5
E3
330
1F
100
AcDbEntity
  8
無題001
  6
Continuous
 62
     7
100
AcDbLine
 10
436.0431822481135
 20
580.8916900714642
 30
0.0
 11
436.1931822481135
 21
580.7416900714643
 31
0.0
  0
ARC
  5
E4
330
1F
100
AcDbEntity
  8
無題001
  6
Continuous
 62
     7
100
AcDbCircle
 10
433.2931822481135
 20
572.0690403406533
 30
0.0
 40
1.0
100
AcDbArc
 50
179.9999999960396
 51
240.000000000119
  0
ARC
  5
E5
330
1F
100
AcDbEntity
  8
無題001
  6
Continuous
 62
     7
100
AcDbCircle
 10
433.2931822481135
 20
578.9143398022743
 30
0.0
 40
1.0
100
AcDbArc
 50
119.999999999881
 51
180.0000000039604
  0
LINE
  5
E6
330
1F
100
AcDbEntity
  8
無題001
  6
Continuous
 62
     7
100
AcDbLine
 10
436.0431822481135
 20
570.0916900714632
 30
0.0
 11
436.1931822481135
 21
570.2416900714633
 31
0.0
  0
LINE
  5
E7
330
1F
100
AcDbEntity
  8
無題001
  6
PHANTOM
 62
     3
100
AcDbLine
 10
436.1931822481135
 20
580.7416900714643
 30
0.0
 11
436.3431822481135
 21
580.8916900714642
 31
0.0
  0
LINE
  5
E8
330
1F
100
AcDbEntity
  8
無題001
  6
Continuous
 62
     7
100
AcDbLine
 10
432.7931822481135
 20
579.7803652060581
 30
0.0
 11
434.4860025711415
 21
580.7577154752482
 31
0.0
  0
LINE
  5
E9
330
1F
100
AcDbEntity
  8
無題001
  6
Continuous
 62
     7
100
AcDbLine
 10
447.4646848632625
 20
581.4916900714652
 30
0.0
 11
440.9646848632585
 21
581.4916900714661
 31
0.0
  0
LINE
  5
EA
330
1F
100
AcDbEntity
  8
無題001
  6
Continuous
 62
     7
100
AcDbLine
 10
436.1931822481135
 20
570.4916900714633
 30
0.0
 11
438.8931822481135
 21
570.4916900714621
 31
0.0
  0
LINE
  5
EB
330
1F
100
AcDbEntity
  8
無題001
  6
Continuous
 62
     7
100
AcDbLine
 10
439.4698134782295
 20
570.0916900714623
 30
0.0
 11
439.0431822481135
 21
570.0916900714623
 31
0.0
  0
LINE
  5
EC
330
1F
100
AcDbEntity
  8
無題001
  6
PHANTOM
 62
     3
100
AcDbLine
 10
438.7431822481135
 20
580.8916900714653
 30
0.0
 11
436.3431822481135
 21
580.8916900714642
 31
0.0
  0
LINE
  5
ED
330
1F
100
AcDbEntity
  8
無題001
  6
Continuous
 62
     7
100
AcDbLine
 10
447.4646848632625
 20
569.4916900714712
 30
0.0
 11
440.9646848632585
 21
569.4916900714712
 31
0.0
  0
LINE
  5
EE
330
1F
100
AcDbEntity
  8
無題001
  6
Continuous
 62
     7
100
AcDbLine
 10
438.8931822481135
 20
580.7416900714652
 30
0.0
 11
439.0431822481135
 21
580.8916900714642
 31
0.0
  0
LINE
  5
EF
330
1F
100
AcDbEntity
  8
無題001
  6
PHANTOM
 62
     3
100
AcDbLine
 10
438.7431822481135
 20
580.8916900714653
 30
0.0
 11
438.8931822481135
 21
580.7416900714652
 31
0.0
  0
LINE
  5
F0
330
1F
100
AcDbEntity
  8
無題001
  6
Continuous
 62
     7
100
AcDbLine
 10
447.4698134782395
 20
557.2916900714632
 30
0.0
 11
447.1698134782395
 21
556.9916900714633
 31
0.0
  0
LINE
  5
F1
330
1F
100
AcDbEntity
  8
無題001
  6
Continuous
 62
     7
100
AcDbLine
 10
447.1698134782395
 20
593.991690071463
 30
0.0
 11
447.4698134782385
 21
593.6916900714631
 31
0.0
  0
LINE
  5
F2
330
1F
100
AcDbEntity
  8
無題001
  6
Continuous
 62
     4
100
AcDbLine
 10
448.9698134782295
 20
555.4916900714633
 30
0.0
 11
448.9698134782295
 21
595.491690071463
 31
0.0
  0
LINE
  5
F3
330
1F
100
AcDbEntity
  8
無題001
  6
Continuous
 62
     7
100
AcDbLine
 10
440.9698134782356
 20
558.5916900714632
 30
0.0
 11
440.9698134782285
 21
592.3916900714631
 31
0.0
  0
LINE
  5
F4
330
1F
100
AcDbEntity
  8
無題001
  6
Continuous
 62
     7
100
AcDbLine
 10
439.4698134782295
 20
568.9916900714633
 30
0.0
 11
440.9698134782285
 21
567.4916900714633
 31
0.0
  0
LINE
  5
F5
330
1F
100
AcDbEntity
  8
無題001
  6
Continuous
 62
     7
100
AcDbLine
 10
439.4698134782285
 20
581.9916900714632
 30
0.0
 11
440.9698134782285
 21
583.4916900714632
 31
0.0
  0
LINE
  5
F6
330
1F
100
AcDbEntity
  8
無題001
  6
Continuous
 62
     7
100
AcDbLine
 10
571.4698134782304
 20
581.9916900714632
 30
0.0
 11
571.4698134782275
 21
568.9916900714633
 31
0.0
  0
LINE
  5
F7
330
1F
100
AcDbEntity
  8
無題001
  6
CENTER
 62
     1
100
AcDbLine
 10
417.2931822481135
 20
575.4916900714642
 30
0.0
 11
578.9698134782243
 21
575.4916900714641
 31
0.0
  0
LINE
  5
F8
330
1F
100
AcDbEntity
  8
無題001
  6
Continuous
 62
     4
100
AcDbLine
 10
442.5790442172025
 20
575.4916900714642
 30
0.0
 11
443.2718645402305
 21
574.2916900714641
 31
0.0
  0
LINE
  5
F9
330
1F
100
AcDbEntity
  8
無題001
  6
Continuous
 62
     4
100
AcDbLine
 10
444.6575051862855
 20
576.6916900714633
 30
0.0
 11
443.2718645402305
 21
576.6916900714633
 31
0.0
  0
LINE
  5
FA
330
1F
100
AcDbEntity
  8
無題001
  6
Continuous
 62
     4
100
AcDbLine
 10
442.5698134782285
 20
593.991690071463
 30
0.0
 11
442.5698134782285
 21
581.4916900714652
 31
0.0
  0
LINE
  5
FB
330
1F
100
AcDbEntity
  8
無題001
  6
Continuous
 62
   251
100
AcDbLine
 10
436.1931822481125
 20
573.4520822660262
 30
0.0
 11
438.8931822481125
 21
573.4520822660273
 31
0.0
  0
LINE
  5
FC
330
1F
100
AcDbEntity
  8
無題001
  6
Continuous
 62
     7
100
AcDbLine
 10
447.1698134782395
 20
556.9916900714633
 30
0.0
 11
442.5698134782365
 21
556.9916900714633
 31
0.0
  0
LINE
  5
FD
330
1F
100
AcDbEntity
  8
無題001
  6
Continuous
 62
     7
100
AcDbLine
 10
442.5698134782365
 20
556.9916900714633
 30
0.0
 11
440.9698134782356
 21
558.5916900714632
 31
0.0
  0
LINE
  5
FE
330
1F
100
AcDbEntity
  8
無題001
  6
Continuous
 62
     7
100
AcDbLine
 10
539.1698134782275
 20
555.5916900714632
 30
0.0
 11
538.9698134782275
 21
555.7916900714632
 31
0.0
  0
LINE
  5
FF
330
1F
100
AcDbEntity
  8
無題001
  6
Continuous
 62
     7
100
AcDbLine
 10
440.9698134782285
 20
592.3916900714631
 30
0.0
 11
442.5698134782285
 21
593.991690071463
 31
0.0
  0
LINE
  5
100
330
1F
100
AcDbEntity
  8
無題001
  6
Continuous
 62
     7
100
AcDbLine
 10
439.4698134782285
 20
581.9916900714632
 30
0.0
 11
439.4698134782295
 21
568.9916900714633
 31
0.0
  0
LINE
  5
101
330
1F
100
AcDbEntity
  8
無題001
  6
Continuous
 62
     7
100
AcDbLine
 10
447.1698134782395
 20
593.991690071463
 30
0.0
 11
442.5698134782285
 21
593.991690071463
 31
0.0
  0
LINE
  5
102
330
1F
100
AcDbEntity
  8
無題001
  6
Continuous
 62
     7
100
AcDbLine
 10
569.9698134782304
 20
583.4916900714632
 30
0.0
 11
571.4698134782304
 21
581.9916900714632
 31
0.0
  0
LINE
  5
103
330
1F
100
AcDbEntity
  8
無題001
  6
PHANTOM
 62
     3
100
AcDbLine
 10
565.3698134782366
 20
585.991690071463
 30
0.0
 11
567.4698134782316
 21
585.9916900714633
 31
0.0
  0
LINE
  5
104
330
1F
100
AcDbEntity
  8
無題001
  6
Continuous
 62
     7
100
AcDbLine
 10
548.9698134782366
 20
556.5916900714632
 30
0.0
 11
547.9698134782375
 21
555.5916900714632
 31
0.0
  0
LINE
  5
105
330
1F
100
AcDbEntity
  8
無題001
  6
Continuous
 62
     7
100
AcDbLine
 10
547.9698134782345
 20
595.3916900714631
 30
0.0
 11
548.9698134782345
 21
594.3916900714631
 31
0.0
  0
LINE
  5
106
330
1F
100
AcDbEntity
  8
無題001
  6
Continuous
 62
     7
100
AcDbLine
 10
539.1698134782275
 20
555.5916900714632
 30
0.0
 11
547.9698134782375
 21
555.5916900714632
 31
0.0
  0
LINE
  5
107
330
1F
100
AcDbEntity
  8
無題001
  6
Continuous
 62
     7
100
AcDbLine
 10
539.1698134782275
 20
595.3916900714631
 30
0.0
 11
547.9698134782345
 21
595.3916900714631
 31
0.0
  0
LINE
  5
108
330
1F
100
AcDbEntity
  8
無題001
  6
Continuous
 62
     7
100
AcDbLine
 10
548.9698134782316
 20
583.4916900714643
 30
0.0
 11
569.9698134782304
 21
583.4916900714632
 31
0.0
  0
LINE
  5
109
330
1F
100
AcDbEntity
  8
無題001
  6
Continuous
 62
     7
100
AcDbLine
 10
565.3698134782366
 20
564.991690071463
 30
0.0
 11
567.4698134782266
 21
564.9916900714633
 31
0.0
  0
LINE
  5
10A
330
1F
100
AcDbEntity
  8
無題001
  6
Continuous
 62
     7
100
AcDbLine
 10
538.9698134782275
 20
595.1916900714631
 30
0.0
 11
539.1698134782275
 21
595.3916900714631
 31
0.0
  0
LINE
  5
10B
330
1F
100
AcDbEntity
  8
無題001
  6
Continuous
 62
     7
100
AcDbLine
 10
548.9698134782366
 20
556.5916900714632
 30
0.0
 11
548.9698134782345
 21
594.3916900714631
 31
0.0
  0
LINE
  5
10C
330
1F
100
AcDbEntity
  8
無題001
  6
PHANTOM
 62
     3
100
AcDbLine
 10
567.4698134782316
 20
585.9916900714633
 30
0.0
 11
569.9698134782304
 21
583.4916900714632
 31
0.0
  0
LINE
  5
10D
330
1F
100
AcDbEntity
  8
無題001
  6
Continuous
 62
     7
100
AcDbLine
 10
571.4698134782275
 20
568.9916900714633
 30
0.0
 11
567.4698134782266
 21
564.9916900714633
 31
0.0
  0
LINE
  5
10E
330
1F
100
AcDbEntity
  8
無題001
  6
Continuous
 62
     7
100
AcDbLine
 10
419.5931822481375
 20
573.9916900714633
 30
0.0
 11
432.2931822481135
 21
573.9916900714633
 31
0.0
  0
LINE
  5
10F
330
1F
100
AcDbEntity
  8
無題001
  6
Continuous
 62
     7
100
AcDbLine
 10
493.6698134782295
 20
595.491690071463
 30
0.0
 11
493.9698134782295
 21
595.1916900714631
 31
0.0
  0
LINE
  5
110
330
1F
100
AcDbEntity
  8
無題001
  6
Continuous
 62
     7
100
AcDbLine
 10
474.9698134782295
 20
595.1916900714631
 30
0.0
 11
475.2698134782295
 21
595.491690071463
 31
0.0
  0
LINE
  5
111
330
1F
100
AcDbEntity
  8
無題001
  6
Continuous
 62
     7
100
AcDbLine
 10
493.6698134782295
 20
595.491690071463
 30
0.0
 11
475.2698134782295
 21
595.491690071463
 31
0.0
  0
LINE
  5
112
330
1F
100
AcDbEntity
  8
無題001
  6
Continuous
 62
     7
100
AcDbLine
 10
475.2698134782295
 20
555.4916900714633
 30
0.0
 11
474.9698134782295
 21
555.7916900714632
 31
0.0
  0
LINE
  5
113
330
1F
100
AcDbEntity
  8
無題001
  6
Continuous
 62
     7
100
AcDbLine
 10
475.2698134782295
 20
555.4916900714633
 30
0.0
 11
493.6698134782295
 21
555.4916900714633
 31
0.0
  0
LINE
  5
114
330
1F
100
AcDbEntity
  8
無題001
  6
Continuous
 62
     7
100
AcDbLine
 10
474.9698134782295
 20
555.7916900714632
 30
0.0
 11
474.9698134782295
 21
595.1916900714631
 31
0.0
  0
LINE
  5
115
330
1F
100
AcDbEntity
  8
無題001
  6
Continuous
 62
     7
100
AcDbLine
 10
493.9698134782295
 20
555.7916900714632
 30
0.0
 11
493.6698134782295
 21
555.4916900714633
 31
0.0
  0
LINE
  5
116
330
1F
100
AcDbEntity
  8
無題001
  6
Continuous
 62
     7
100
AcDbLine
 10
538.9698134782295
 20
555.9516900714631
 30
0.0
 11
538.9698134782295
 21
595.0316900714632
 31
0.0
  0
LINE
  5
117
330
1F
100
AcDbEntity
  8
無題001
  6
Continuous
 62
     7
100
AcDbLine
 10
493.9698134782295
 20
595.1916900714631
 30
0.0
 11
493.9698134782295
 21
555.7916900714632
 31
0.0
  0
LINE
  5
118
330
1F
100
AcDbEntity
  8
無題001
  6
Continuous
 62
     7
100
AcDbLine
 10
474.9698134782295
 20
555.7916900714632
 30
0.0
 11
474.9698134782295
 21
595.1916900714631
 31
0.0
  0
ARC
  5
119
330
1F
100
AcDbEntity
  8
無題001
  6
Continuous
 62
     7
100
AcDbCircle
 10
419.5931822481375
 20
576.6916900714633
 30
0.0
 40
0.3
100
AcDbArc
 50
90.0
 51
180.0000000039951
  0
LINE
  5
11A
330
1F
100
AcDbEntity
  8
無題001
  6
Continuous
 62
     7
100
AcDbLine
 10
419.2931822481135
 20
576.6916900714842
 30
0.0
 11
419.2931822481135
 21
574.2916900714841
 31
0.0
  0
ARC
  5
11B
330
1F
100
AcDbEntity
  8
無題001
  6
Continuous
 62
     7
100
AcDbCircle
 10
419.5931822481375
 20
574.2916900714632
 30
0.0
 40
0.3
100
AcDbArc
 50
180.0000000039517
 51
270.0
  0
LINE
  5
11C
330
1F
100
AcDbEntity
  8
無題001
  6
Continuous
 62
     7
100
AcDbLine
 10
432.2931822481135
 20
576.9916900714633
 30
0.0
 11
419.5931822481375
 21
576.9916900714633
 31
0.0
  0
LINE
  5
11D
330
1F
100
AcDbEntity
  8
無題001
  6
Continuous
 62
     7
100
AcDbLine
 10
448.9698134782295
 20
555.4916900714633
 30
0.0
 11
447.4698134782295
 21
556.9916900714633
 31
0.0
  0
LINE
  5
11E
330
1F
100
AcDbEntity
  8
無題001
  6
Continuous
 62
     7
100
AcDbLine
 10
447.4698134782295
 20
593.991690071463
 30
0.0
 11
448.9698134782295
 21
595.491690071463
 31
0.0
  0
LINE
  5
11F
330
1F
100
AcDbEntity
  8
無題001
  6
Continuous
 62
     7
100
AcDbLine
 10
474.6698134782295
 20
595.491690071463
 30
0.0
 11
474.9698134782295
 21
595.1916900714631
 31
0.0
  0
LINE
  5
120
330
1F
100
AcDbEntity
  8
無題001
  6
Continuous
 62
     7
100
AcDbLine
 10
447.4698134782395
 20
557.2916900714632
 30
0.0
 11
447.4698134782385
 21
593.6916900714631
 31
0.0
  0
LINE
  5
121
330
1F
100
AcDbEntity
  8
無題001
  6
Continuous
 62
     7
100
AcDbLine
 10
474.9698134782295
 20
555.7916900714632
 30
0.0
 11
474.6698134782295
 21
555.4916900714633
 31
0.0
  0
LINE
  5
122
330
1F
100
AcDbEntity
  8
無題001
  6
Continuous
 62
     7
100
AcDbLine
 10
448.9698134782295
 20
595.491690071463
 30
0.0
 11
474.6698134782295
 21
595.491690071463
 31
0.0
  0
LINE
  5
123
330
1F
100
AcDbEntity
  8
無題001
  6
Continuous
 62
     7
100
AcDbLine
 10
448.9698134782295
 20
555.4916900714633
 30
0.0
 11
474.6698134782295
 21
555.4916900714633
 31
0.0
  0
LINE
  5
124
330
1F
100
AcDbEntity
  8
無題001
  6
Continuous
 62
     7
100
AcDbLine
 10
447.4698134782295
 20
556.9916900714633
 30
0.0
 11
447.4698134782295
 21
593.991690071463
 31
0.0
  0
LINE
  5
125
330
1F
100
AcDbEntity
  8
無題001
  6
CENTER
 62
     1
100
AcDbLine
 10
443.9646848632585
 20
570.4916900714633
 30
0.0
 11
443.9646848632585
 21
580.4916900714632
 31
0.0
  0
INSERT
  5
140
330
1F
100
AcDbEntity
  8
無題001
  6
Continuous
 62
     7
100
AcDbBlockReference
  2
BLK1
 10
548.9698134782366
 20
568.680898026247
 30
0.0
  0
LINE
  5
141
330
1F
100
AcDbEntity
  8
無題001
  6
Continuous
 62
     7
100
AcDbLine
 10
555.6198134782373
 20
567.4082802820851
 30
0.0
 11
555.6198134782373
 21
557.4082802820852
 31
0.0
  0
LINE
  5
142
330
1F
100
AcDbEntity
  8
無題001
  6
Continuous
 62
     7
100
AcDbLine
 10
549.4698134782373
 20
557.9082802820852
 30
0.0
 11
555.3311383436424
 21
557.9082802820852
 31
0.0
  0
LINE
  5
143
330
1F
100
AcDbEntity
  8
無題001
  6
Continuous
 62
     7
100
AcDbLine
 10
563.8698134782373
 20
565.9082802820851
 30
0.0
 11
563.3698134782362
 21
565.9082802820851
 31
0.0
  0
LINE
  5
144
330
1F
100
AcDbEntity
  8
無題001
  6
Continuous
 62
     7
100
AcDbLine
 10
555.6198134782373
 20
557.4082802820852
 30
0.0
 11
562.4879135267922
 21
557.4082802820843
 31
0.0
  0
LINE
  5
145
330
1F
100
AcDbEntity
  8
無題001
  6
Continuous
 62
     7
100
AcDbLine
 10
549.4698134782373
 20
566.9082802820851
 30
0.0
 11
549.4698134782373
 21
557.9082802820852
 31
0.0
  0
LINE
  5
146
330
1F
100
AcDbEntity
  8
無題001
  6
Continuous
 62
     7
100
AcDbLine
 10
562.4879135267922
 20
557.4082802820843
 30
0.0
 11
562.4879135267922
 21
567.4082802820851
 31
0.0
  0
LINE
  5
147
330
1F
100
AcDbEntity
  8
無題001
  6
Continuous
 62
     7
100
AcDbLine
 10
563.8698134782373
 20
557.4082802820852
 30
0.0
 11
565.3698134782373
 21
557.4082802820852
 31
0.0
  0
LINE
  5
148
330
1F
100
AcDbEntity
  8
無題001
  6
Continuous
 62
     7
100
AcDbLine
 10
548.9698134782373
 20
566.4082802820851
 30
0.0
 11
548.9698134782373
 21
558.4082802820852
 31
0.0
  0
LINE
  5
149
330
1F
100
AcDbEntity
  8
無題001
  6
Continuous
 62
     7
100
AcDbLine
 10
562.4879135267922
 20
557.9082802820852
 30
0.0
 11
563.3698134782373
 21
557.9082802820852
 31
0.0
  0
LINE
  5
14A
330
1F
100
AcDbEntity
  8
無題001
  6
Continuous
 62
     7
100
AcDbLine
 10
563.8698134782373
 20
557.4082802820852
 30
0.0
 11
563.8698134782373
 21
567.4082802820851
 31
0.0
  0
LINE
  5
14B
330
1F
100
AcDbEntity
  8
無題001
  6
Continuous
 62
     7
100
AcDbLine
 10
555.6198134782373
 20
567.4082802820851
 30
0.0
 11
555.3311383436424
 21
566.9082802820851
 31
0.0
  0
LINE
  5
14C
330
1F
100
AcDbEntity
  8
無題001
  6
Continuous
 62
     7
100
AcDbLine
 10
563.8698134782373
 20
558.8682802820853
 30
0.0
 11
563.3698134782383
 21
558.8682802820853
 31
0.0
  0
LINE
  5
14D
330
1F
100
AcDbEntity
  8
無題001
  6
Continuous
 62
     7
100
AcDbLine
 10
563.3698134782373
 20
557.9082802820852
 30
0.0
 11
563.3698134782373
 21
566.9082802820851
 31
0.0
  0
LINE
  5
14E
330
1F
100
AcDbEntity
  8
無題001
  6
Continuous
 62
     7
100
AcDbLine
 10
555.3311383436424
 20
566.9082802820851
 30
0.0
 11
555.3311383436424
 21
557.9082802820852
 31
0.0
  0
LINE
  5
14F
330
1F
100
AcDbEntity
  8
無題001
  6
Continuous
 62
     7
100
AcDbLine
 10
555.3311383436424
 20
557.9082802820852
 30
0.0
 11
555.6198134782373
 21
557.4082802820852
 31
0.0
  0
LINE
  5
150
330
1F
100
AcDbEntity
  8
無題001
  6
Continuous
 62
     7
100
AcDbLine
 10
565.3698134782373
 20
557.4082802820852
 30
0.0
 11
565.3698134782373
 21
567.4082802820851
 31
0.0
  0
LINE
  5
151
330
1F
100
AcDbEntity
  8
無題001
  6
CENTER
 62
     1
100
AcDbLine
 10
546.9698134782373
 20
562.4082802820842
 30
0.0
 11
567.3698134782373
 21
562.4082802820842
 31
0.0
  0
LINE
  5
152
330
1F
100
AcDbEntity
  8
無題001
  6
Continuous
 62
     7
100
AcDbLine
 10
549.4698134782373
 20
558.4082802820852
 30
0.0
 11
548.9698134782373
 21
558.4082802820852
 31
0.0
  0
LINE
  5
153
330
1F
100
AcDbEntity
  8
無題001
  6
Continuous
 62
     7
100
AcDbLine
 10
494.2698134782295
 20
595.4916900714637
 30
0.0
 11
538.6698134782296
 21
595.4916900714637
 31
0.0
  0
LINE
  5
154
330
1F
100
AcDbEntity
  8
無題001
  6
Continuous
 62
     7
100
AcDbLine
 10
494.2698134782295
 20
555.4916900714637
 30
0.0
 11
538.6698134782296
 21
555.4916900714637
 31
0.0
  0
LINE
  5
155
330
1F
100
AcDbEntity
  8
無題001
  6
Continuous
 62
     7
100
AcDbLine
 10
538.9698134782295
 20
595.1916900714638
 30
0.0
 11
538.6698134782296
 21
595.4916900714637
 31
0.0
  0
LINE
  5
156
330
1F
100
AcDbEntity
  8
無題001
  6
Continuous
 62
     7
100
AcDbLine
 10
493.9698134782295
 20
595.1916900714638
 30
0.0
 11
494.2698134782295
 21
595.4916900714637
 31
0.0
  0
LINE
  5
157
330
1F
100
AcDbEntity
  8
無題001
  6
Continuous
 62
     7
100
AcDbLine
 10
493.9698134782295
 20
555.7916900714637
 30
0.0
 11
494.2698134782295
 21
555.4916900714637
 31
0.0
  0
LINE
  5
158
330
1F
100
AcDbEntity
  8
無題001
  6
Continuous
 62
     7
100
AcDbLine
 10
538.9698134782295
 20
555.7916900714637
 30
0.0
 11
538.6698134782296
 21
555.4916900714637
 31
0.0
  0
LINE
  5
159
330
1F
100
AcDbEntity
  8
無題001
  6
Continuous
 62
     7
100
AcDbLine
 10
567.4698134782266
 20
564.9916900714633
 30
0.0
 11
567.4698134782279
 21
583.4916900714643
 31
0.0
  0
LINE
  5
15A
330
1F
100
AcDbEntity
  8
無題001
  6
Continuous
 62
     7
100
AcDbLine
 10
571.4698134782243
 20
581.9916900714661
 30
0.0
 11
571.4698134782243
 21
568.9916900714643
 31
0.0
  0
LINE
  5
15B
330
1F
100
AcDbEntity
  8
無題001
  6
Continuous
 62
     7
100
AcDbLine
 10
571.4698134782233
 20
568.9916900714643
 30
0.0
 11
572.7698134782243
 21
568.9916900714643
 31
0.0
  0
LINE
  5
15C
330
1F
100
AcDbEntity
  8
無題001
  6
Continuous
 62
     7
100
AcDbLine
 10
573.9698134782243
 20
571.0701510405473
 30
0.0
 11
573.9698134782243
 21
574.7416900714643
 31
0.0
  0
LINE
  5
15D
330
1F
100
AcDbEntity
  8
無題001
  6
Continuous
 62
     7
100
AcDbLine
 10
573.9698134782243
 20
576.2416900714643
 30
0.0
 11
573.9698134782243
 21
579.9132291023807
 31
0.0
  0
LINE
  5
15E
330
1F
100
AcDbEntity
  8
無題001
  6
Continuous
 62
     7
100
AcDbLine
 10
572.7698134782238
 20
581.9916900714643
 30
0.0
 11
571.4698134782243
 21
581.9916900714643
 31
0.0
  0
LINE
  5
15F
330
1F
100
AcDbEntity
  8
無題001
  6
Continuous
 62
     7
100
AcDbLine
 10
572.7698134782238
 20
581.9916900714643
 30
0.0
 11
573.9698134782243
 21
579.9132291023807
 31
0.0
  0
LINE
  5
160
330
1F
100
AcDbEntity
  8
無題001
  6
Continuous
 62
     7
100
AcDbLine
 10
573.9698134782243
 20
571.0701510405473
 30
0.0
 11
572.7698134782243
 21
568.9916900714643
 31
0.0
  0
LINE
  5
161
330
1F
100
AcDbEntity
  8
無題001
  6
Continuous
 62
     7
100
AcDbLine
 10
572.7698134782238
 20
581.9916900714643
 30
0.0
 11
572.7698134782238
 21
568.9916900714643
 31
0.0
  0
LINE
  5
162
330
1F
100
AcDbEntity
  8
無題001
  6
Continuous
 62
     7
100
AcDbLine
 10
573.9698134782243
 20
576.2416900714641
 30
0.0
 11
572.769813478224
 21
576.2416900714643
 31
0.0
  0
LINE
  5
163
330
1F
100
AcDbEntity
  8
無題001
  6
Continuous
 62
     7
100
AcDbLine
 10
572.7698134782238
 20
574.7416900714643
 30
0.0
 11
573.9698134782243
 21
574.7416900714645
 31
0.0
  0
DIMENSION
  5
178
330
1F
100
AcDbEntity
  8
無題001
  6
Continuous
 62
     4
100
AcDbDimension
  2
_D1
 10
432.2931822481149
 20
540.4916900714637
 30
0.0
 11
431.8944394796095
 21
541.2756900714637
 31
0.0
 70
   160
  1
(<>)
 71
     5
 42
-1.0
 52
90.0
  3
DIMSTYEX_1
100
AcDbAlignedDimension
 13
440.969813478237
 23
558.5916900714632
 33
0.0
 14
432.2931822481149
 24
572.0690403406533
 34
0.0
 50
180.0
100
AcDbRotatedDimension
1001
ACAD
1000
DSTYLE
1002
{
1070
    41
1040
2.0
1070
   343
1005
86
1070
   344
1005
86
1070
   271
1070
     1
1070
    43
1040
3.639999999999418
1070
   173
1070
     1
1070
   272
1070
     1
1070
   340
1005
176
1070
   140
1040
3.136
1002
}
  0
DIMENSION
  5
187
330
1F
100
AcDbEntity
  8
無題001
  6
ByBlock
 62
     4
100
AcDbDimension
  2
_D2
 10
432.2931822481135
 20
532.9916903433441
 30
0.0
 11
503.1314978631689
 21
535.5256903433441
 31
0.0
 70
   160
 71
     5
 42
-1.0
 52
90.0
  3
DIMSTYEX_2
100
AcDbAlignedDimension
 13
573.9698134782243
 23
571.0701510405473
 33
0.0
 14
432.2931822481135
 24
572.0690403406533
 34
0.0
 50
180.0
100
AcDbRotatedDimension
1001
ACAD
1000
DSTYLE
1002
{
1070
   343
1005
86
1070
   344
1005
86
1070
   271
1070
     1
1070
    43
1040
6.329716
1070
   173
1070
     1
1070
   272
1070
     1
1070
   340
1005
185
1070
   140
1040
3.136
1002
}
  0
LINE
  5
188
330
1F
100
AcDbEntity
  8
無題001
  6
Continuous
 62
     4
100
AcDbLine
 10
547.9698134782375
 20
555.5916900714632
 30
0.0
 11
547.9698134782345
 21
595.3916900714631
 31
0.0
  0
DIMENSION
  5
197
330
1F
100
AcDbEntity
  8
無題001
  6
ByBlock
 62
     4
100
AcDbDimension
  2
_D3
 10
583.9698134782242
 20
585.9916900714633
 30
0.0
 11
581.4358134782242
 21
575.4916900714633
 31
0.0
 70
   160
  1
φ<>
 71
     5
 42
-1.0
 52
90.0
  3
DIMSTYEX_3
100
AcDbAlignedDimension
 13
567.4698134782266
 23
564.9916900714633
 33
0.0
 14
567.4698134782316
 24
585.9916900714633
 34
0.0
 50
90.0
100
AcDbRotatedDimension
1001
ACAD
1000
DSTYLE
1002
{
1070
   343
1005
86
1070
   344
1005
86
1070
    43
1040
0.0
1070
   173
1070
     1
1070
   272
1070
     3
1070
   340
1005
195
1070
   140
1040
3.136
1002
}
  0
DIMENSION
  5
1A6
330
1F
100
AcDbEntity
  8
無題001
  6
ByBlock
 62
     4
100
AcDbDimension
  2
_D4
 10
571.4698134782243
 20
540.4916900714637
 30
0.0
 11
555.2198134782259
 21
543.0256900714637
 31
0.0
 70
   160
 71
     5
 42
-1.0
 52
90.0
  3
DIMSTYEX_4
100
AcDbAlignedDimension
 13
538.9698134782275
 23
555.7916900714617
 33
0.0
 14
571.4698134782243
 24
568.9916900714601
 34
0.0
100
AcDbRotatedDimension
1001
ACAD
1000
DSTYLE
1002
{
1070
   343
1005
86
1070
   344
1005
86
1070
    43
1040
4.670901440905027
1070
   173
1070
     1
1070
   272
1070
     3
1070
   340
1005
1A4
1070
   140
1040
3.136
1002
}
  0
DIMENSION
  5
1B5
330
1F
100
AcDbEntity
  8
無題001
  6
ByBlock
 62
     4
100
AcDbDimension
  2
_D5
 10
411.7931822481153
 20
580.8916900714642
 30
0.0
 11
409.2591822481153
 21
575.4916900714636
 31
0.0
 70
   160
  1
φ<>
 71
     5
 42
-1.0
 52
90.0
  3
DIMSTYEX_5
100
AcDbAlignedDimension
 13
434.9860025711405
 23
570.0916900714632
 33
0.0
 14
434.9860025711407
 24
580.8916900714642
 34
0.0
 50
90.0
100
AcDbRotatedDimension
1001
ACAD
1000
DSTYLE
1002
{
1070
   343
1005
86
1070
   344
1005
86
1070
    43
1040
0.0
1070
   173
1070
     1
1070
   272
1070
     3
1070
   340
1005
1B3
1070
   140
1040
3.136
1002
}
  0
MTEXT
  5
1B6
102
{ACAD_REACTORS
330
1B8
102
}
330
1F
100
AcDbEntity
  8
無題001
  6
Continuous
 62
     4
100
AcDbMText
 10
387.363355303903
 20
607.1766026619181
 30
0.0
 40
3.5
 41
0.0
 71
     7
 72
     5
  1
{\fＭＳ ゴシック|b0|i0|c128|p49;\W1.0;（標準付属品）}
  7
MTSTANDARD1
 73
     1
 44
0.8035714285714286
  0
LEADER
  5
1B8
330
1F
100
AcDbEntity
  8
無題001
  6
ByBlock
 62
     4
100
AcDbLeader
  3
DIMSTYEX_6
 73
     0
 74
     0
 76
     3
 10
425.9431822481255
 20
576.9916900714633
 30
0.0
 10
411.863355303903
 20
606.3926026619181
 30
0.0
 10
387.363355303903
 20
606.3926026619181
 30
0.0
340
1B6
1001
ACAD
1000
DSTYLE
1002
{
1070
   176
1070
     0
1002
}
  0
DIMENSION
  5
1CB
330
1F
100
AcDbEntity
  8
無題001
  6
ByBlock
 62
     4
100
AcDbDimension
  2
_D6
 10
573.9698134782243
 20
540.4916900714642
 30
0.0
 11
576.0339538591276
 21
541.2756900714642
 31
0.0
 70
   160
 71
     5
 42
-1.0
 52
90.0
  3
DIMSTYEX_7
100
AcDbAlignedDimension
 13
571.4698134782285
 23
568.9916900714643
 33
0.0
 14
573.9698134782243
 24
571.0701510405473
 34
0.0
100
AcDbRotatedDimension
1001
ACAD
1000
DSTYLE
1002
{
1070
   343
1005
86
1070
   344
1005
86
1070
    43
1040
0.0
1070
   147
1040
1.784
1070
   173
1070
     1
1070
   272
1070
     3
1070
   340
1005
1C9
1070
   140
1040
3.136
1002
}
  0
LINE
  5
1CC
330
1F
100
AcDbEntity
  8
無題001
  6
CENTER
 62
     1
100
AcDbLine
 10
598.9698134782401
 20
584.4916900714587
 30
0.0
 11
598.9698134782406
 21
566.4916900714587
 31
0.0
  0
CIRCLE
  5
1CD
330
1F
100
AcDbEntity
  8
無題001
  6
Continuous
 62
     7
100
AcDbCircle
 10
598.9698134782403
 20
575.4916900714605
 30
0.0
 40
5.999999999998181
  0
LINE
  5
1CE
330
1F
100
AcDbEntity
  8
無題001
  6
Continuous
 62
     7
100
AcDbLine
 10
593.0168730283464
 20
576.2416900714587
 30
0.0
 11
604.9227539281338
 21
576.2416900714587
 31
0.0
  0
LINE
  5
1CF
330
1F
100
AcDbEntity
  8
無題001
  6
Continuous
 62
     7
100
AcDbLine
 10
604.9227539281334
 20
574.7416900714587
 30
0.0
 11
593.0168730283468
 21
574.7416900714587
 31
0.0
  0
ARC
  5
1D0
330
1F
100
AcDbEntity
  8
無題001
  6
Continuous
 62
     7
100
AcDbCircle
 10
598.9698134782403
 20
575.4916900714605
 30
0.0
 40
4.42153903091463
100
AcDbArc
 50
189.7659697019885
 51
350.2340302980115
  0
ARC
  5
1D1
330
1F
100
AcDbEntity
  8
無題001
  6
Continuous
 62
     7
100
AcDbCircle
 10
598.9698134782403
 20
575.4916900714605
 30
0.0
 40
4.42153903091463
100
AcDbArc
 50
9.765969701940836
 51
170.2340302980592
  0
LINE
  5
1D2
330
1F
100
AcDbEntity
  8
無題001
  6
CENTER
 62
     1
100
AcDbLine
 10
589.9698134782421
 20
575.4916900714605
 30
0.0
 11
607.9698134782385
 21
575.4916900714605
 31
0.0
  0
MTEXT
  5
1D3
102
{ACAD_REACTORS
330
1D5
102
}
330
1F
100
AcDbEntity
  8
無題001
  6
Continuous
 62
     4
100
AcDbMText
 10
580.7416895289252
 20
594.3859146983449
 30
0.0
 40
3.5
 41
0.0
 71
     7
 72
     5
  1
{\fＭＳ ゴシック|b0|i0|c128|p49;\W1.0;蓋}
  7
MTSTANDARD1
 73
     1
 44
0.8035714285714286
  0
LEADER
  5
1D5
330
1F
100
AcDbEntity
  8
無題001
  6
ByBlock
 62
     4
100
AcDbLeader
  3
DIMSTYEX_8
 73
     0
 74
     0
 76
     3
 10
573.369813478224
 20
580.9524595869225
 30
0.0
 10
580.7416895289252
 20
593.6019146983449
 30
0.0
 10
581.7416895289252
 20
593.6019146983449
 30
0.0
340
1D3
1001
ACAD
1000
DSTYLE
1002
{
1070
   176
1070
     0
1002
}
  0
LINE
  5
1D6
330
1F
100
AcDbEntity
  8
無題001
  6
PHANTOM
 62
     4
100
AcDbLine
 10
528.9698134782279
 20
665.491690071466
 30
0.0
 11
528.9698134782279
 21
615.4916900714642
 31
0.0
  0
LINE
  5
1D7
330
1F
100
AcDbEntity
  8
無題001
  6
PHANTOM
 62
     4
100
AcDbLine
 10
526.9698134782279
 20
615.4916900714642
 30
0.0
 11
526.9698134782279
 21
665.491690071466
 31
0.0
  0
LINE
  5
1D8
330
1F
100
AcDbEntity
  8
無題001
  6
Continuous
 62
     7
100
AcDbLine
 10
593.2497093458866
 20
638.4916900714617
 30
0.0
 11
579.4698134782267
 21
638.4916900714619
 31
0.0
  0
LINE
  5
1D9
330
1F
100
AcDbEntity
  8
無題001
  6
Continuous
 62
     7
100
AcDbLine
 10
579.4698134782262
 20
642.9916900714609
 30
0.0
 11
579.4698134782262
 21
637.991690071461
 31
0.0
  0
LINE
  5
1DA
330
1F
100
AcDbEntity
  8
無題001
  6
Continuous
 62
     7
100
AcDbLine
 10
593.8426215107013
 20
642.4916900714621
 30
0.0
 11
579.4698134782249
 21
642.4916900714619
 31
0.0
  0
INSERT
  5
1F5
330
1F
100
AcDbEntity
  8
無題001
  6
Continuous
 62
     7
100
AcDbBlockReference
  2
BLK2
 10
538.9698134782292
 20
653.5750998608388
 30
0.0
  0
LINE
  5
1F6
330
1F
100
AcDbEntity
  8
無題001
  6
Continuous
 62
     7
100
AcDbLine
 10
528.9698134782232
 20
660.1916900714608
 30
0.0
 11
528.9698134782232
 21
620.791690071461
 31
0.0
  0
LINE
  5
1F7
330
1F
100
AcDbEntity
  8
無題001
  6
Continuous
 62
     7
100
AcDbLine
 10
579.4698134782262
 20
642.9916900714609
 30
0.0
 11
579.4698134782262
 21
637.991690071461
 31
0.0
  0
LINE
  5
1F8
330
1F
100
AcDbEntity
  8
無題001
  6
CENTER
 62
     1
100
AcDbLine
 10
596.4698134782287
 20
665.4916900714633
 30
0.0
 11
579.4698134782286
 21
665.491690071464
 31
0.0
  0
INSERT
  5
206
330
1F
100
AcDbEntity
  8
無題001
  6
Continuous
 62
     7
100
AcDbBlockReference
  2
BLK3
 10
561.4698134782261
 20
640.4916900714619
 30
0.0
  0
LINE
  5
207
330
1F
100
AcDbEntity
  8
無題001
  6
Continuous
 62
     7
100
AcDbLine
 10
571.4698134782262
 20
645.4916900714609
 30
0.0
 11
571.4698134782262
 21
644.9760035547599
 31
0.0
  0
LINE
  5
208
330
1F
100
AcDbEntity
  8
無題001
  6
Continuous
 62
     7
100
AcDbLine
 10
561.4698134782261
 20
646.9916900714609
 30
0.0
 11
561.4698134782232
 21
633.991690071461
 31
0.0
  0
INSERT
  5
213
330
1F
100
AcDbEntity
  8
無題001
  6
Continuous
 62
     7
100
AcDbBlockReference
  2
BLK4
 10
566.7698134782262
 20
640.491690071461
 30
0.0
  0
LINE
  5
214
330
1F
100
AcDbEntity
  8
無題001
  6
Continuous
 62
     7
100
AcDbLine
 10
564.4698134782261
 20
636.007376588162
 30
0.0
 11
571.4698134782262
 21
636.007376588162
 31
0.0
  0
LINE
  5
215
330
1F
100
AcDbEntity
  8
無題001
  6
Continuous
 62
     7
100
AcDbLine
 10
529.1698134782232
 20
620.5916900714609
 30
0.0
 11
528.9698134782232
 21
620.791690071461
 31
0.0
  0
LINE
  5
216
330
1F
100
AcDbEntity
  8
無題001
  6
Continuous
 62
     7
100
AcDbLine
 10
559.9698134782261
 20
648.4916900714609
 30
0.0
 11
561.4698134782261
 21
646.9916900714609
 31
0.0
  0
LINE
  5
217
330
1F
100
AcDbEntity
  8
無題001
  6
PHANTOM
 62
     3
100
AcDbLine
 10
555.3698134782322
 20
650.9916900714608
 30
0.0
 11
557.4698134782273
 21
650.991690071461
 31
0.0
  0
LINE
  5
218
330
1F
100
AcDbEntity
  8
無題001
  6
Continuous
 62
     7
100
AcDbLine
 10
538.9698134782323
 20
621.5916900714609
 30
0.0
 11
537.9698134782332
 21
620.5916900714609
 31
0.0
  0
LINE
  5
219
330
1F
100
AcDbEntity
  8
無題001
  6
Continuous
 62
     7
100
AcDbLine
 10
537.9698134782302
 20
660.3916900714609
 30
0.0
 11
538.9698134782302
 21
659.3916900714609
 31
0.0
  0
LINE
  5
21A
330
1F
100
AcDbEntity
  8
無題001
  6
Continuous
 62
     7
100
AcDbLine
 10
529.1698134782232
 20
620.5916900714609
 30
0.0
 11
537.9698134782332
 21
620.5916900714609
 31
0.0
  0
LINE
  5
21B
330
1F
100
AcDbEntity
  8
無題001
  6
Continuous
 62
     7
100
AcDbLine
 10
529.1698134782232
 20
660.3916900714609
 30
0.0
 11
537.9698134782302
 21
660.3916900714609
 31
0.0
  0
LINE
  5
21C
330
1F
100
AcDbEntity
  8
無題001
  6
Continuous
 62
     7
100
AcDbLine
 10
538.9698134782273
 20
648.491690071462
 30
0.0
 11
559.9698134782261
 21
648.4916900714609
 31
0.0
  0
LINE
  5
21D
330
1F
100
AcDbEntity
  8
無題001
  6
Continuous
 62
     7
100
AcDbLine
 10
555.3698134782322
 20
629.9916900714608
 30
0.0
 11
557.4698134782222
 21
629.991690071461
 31
0.0
  0
LINE
  5
21E
330
1F
100
AcDbEntity
  8
無題001
  6
Continuous
 62
     7
100
AcDbLine
 10
528.9698134782232
 20
660.1916900714608
 30
0.0
 11
529.1698134782232
 21
660.3916900714609
 31
0.0
  0
LINE
  5
21F
330
1F
100
AcDbEntity
  8
無題001
  6
Continuous
 62
     7
100
AcDbLine
 10
538.9698134782323
 20
621.5916900714609
 30
0.0
 11
538.9698134782302
 21
659.3916900714609
 31
0.0
  0
LINE
  5
220
330
1F
100
AcDbEntity
  8
無題001
  6
PHANTOM
 62
     3
100
AcDbLine
 10
557.4698134782273
 20
650.991690071461
 30
0.0
 11
559.9698134782261
 21
648.4916900714609
 31
0.0
  0
LINE
  5
221
330
1F
100
AcDbEntity
  8
無題001
  6
Continuous
 62
     7
100
AcDbLine
 10
561.4698134782232
 20
633.991690071461
 30
0.0
 11
557.4698134782222
 21
629.991690071461
 31
0.0
  0
LINE
  5
222
330
1F
100
AcDbEntity
  8
無題001
  6
Continuous
 62
     7
100
AcDbLine
 10
528.9698134782252
 20
620.9516900714608
 30
0.0
 11
528.9698134782252
 21
660.031690071461
 31
0.0
  0
LINE
  5
223
330
1F
100
AcDbEntity
  8
無題001
  6
Continuous
 62
     7
100
AcDbLine
 10
562.7198134782261
 20
636.007376588162
 30
0.0
 11
561.4698134782261
 21
636.007376588162
 31
0.0
  0
LINE
  5
224
330
1F
100
AcDbEntity
  8
無題001
  6
Continuous
 62
     7
100
AcDbLine
 10
561.4698134782261
 20
639.97600355476
 30
0.0
 11
562.7198134782261
 21
639.97600355476
 31
0.0
  0
LINE
  5
225
330
1F
100
AcDbEntity
  8
無題001
  6
Continuous
 62
     7
100
AcDbLine
 10
571.4698134782262
 20
636.007376588162
 30
0.0
 11
571.4698134782262
 21
635.491690071461
 31
0.0
  0
LINE
  5
226
330
1F
100
AcDbEntity
  8
無題001
  6
Continuous
 62
     7
100
AcDbLine
 10
571.4698134782262
 20
641.007376588162
 30
0.0
 11
571.4698134782262
 21
639.97600355476
 31
0.0
  0
LINE
  5
227
330
1F
100
AcDbEntity
  8
無題001
  6
Continuous
 62
     7
100
AcDbLine
 10
562.7198134782261
 20
641.007376588162
 30
0.0
 11
562.7198134782261
 21
639.97600355476
 31
0.0
  0
ARC
  5
228
330
1F
100
AcDbEntity
  8
無題001
  6
Continuous
 62
     7
100
AcDbCircle
 10
569.2198134782252
 20
637.991690071461
 30
0.0
 40
3.0
100
AcDbArc
 50
318.590377890841
 51
41.40962210915903
  0
ARC
  5
229
330
1F
100
AcDbEntity
  8
無題001
  6
Continuous
 62
     7
100
AcDbCircle
 10
569.2198134782252
 20
642.9916900714609
 30
0.0
 40
3.0
100
AcDbArc
 50
318.5903778908426
 51
41.40962210915903
  0
LINE
  5
22A
330
1F
100
AcDbEntity
  8
無題001
  6
Continuous
 62
     7
100
AcDbLine
 10
561.4698134782261
 20
644.9760035547599
 30
0.0
 11
562.7198134782261
 21
644.9760035547599
 31
0.0
  0
LINE
  5
22B
330
1F
100
AcDbEntity
  8
無題001
  6
Continuous
 62
     7
100
AcDbLine
 10
572.9698134782262
 20
636.357715475246
 30
0.0
 11
571.4698134782262
 21
635.491690071461
 31
0.0
  0
LINE
  5
22C
330
1F
100
AcDbEntity
  8
無題001
  6
Continuous
 62
     7
100
AcDbLine
 10
564.4698134782261
 20
635.491690071461
 30
0.0
 11
571.4698134782262
 21
635.491690071461
 31
0.0
  0
LINE
  5
22D
330
1F
100
AcDbEntity
  8
無題001
  6
Continuous
 62
     7
100
AcDbLine
 10
562.7198134782261
 20
636.007376588162
 30
0.0
 11
562.7198134782261
 21
635.491690071461
 31
0.0
  0
LINE
  5
22E
330
1F
100
AcDbEntity
  8
無題001
  6
Continuous
 62
     7
100
AcDbLine
 10
562.7198134782261
 20
645.4916900714609
 30
0.0
 11
562.7198134782261
 21
644.9760035547599
 31
0.0
  0
ARC
  5
22F
330
1F
100
AcDbEntity
  8
無題001
  6
Continuous
 62
     7
100
AcDbCircle
 10
560.4698134782252
 20
637.991690071461
 30
0.0
 40
3.0
100
AcDbArc
 50
318.590377890841
 51
41.40962210915903
  0
LINE
  5
230
330
1F
100
AcDbEntity
  8
無題001
  6
Continuous
 62
     7
100
AcDbLine
 10
564.4698134782261
 20
639.97600355476
 30
0.0
 11
571.4698134782262
 21
639.97600355476
 31
0.0
  0
LINE
  5
231
330
1F
100
AcDbEntity
  8
無題001
  6
Continuous
 62
     7
100
AcDbLine
 10
564.4698134782261
 20
641.007376588162
 30
0.0
 11
571.4698134782262
 21
641.007376588162
 31
0.0
  0
ARC
  5
232
330
1F
100
AcDbEntity
  8
無題001
  6
Continuous
 62
     7
100
AcDbCircle
 10
560.4698134782252
 20
642.9916900714609
 30
0.0
 40
3.0
100
AcDbArc
 50
318.5903778908426
 51
41.40962210915903
  0
LINE
  5
233
330
1F
100
AcDbEntity
  8
無題001
  6
Continuous
 62
     7
100
AcDbLine
 10
573.4698134782262
 20
636.741690071461
 30
0.0
 11
574.4698134782262
 21
637.0096392638919
 31
0.0
  0
LINE
  5
234
330
1F
100
AcDbEntity
  8
無題001
  6
Continuous
 62
     7
100
AcDbLine
 10
564.4698134782261
 20
644.976003554759
 30
0.0
 11
571.4698134782262
 21
644.9760035547599
 31
0.0
  0
LINE
  5
235
330
1F
100
AcDbEntity
  8
無題001
  6
Continuous
 62
     7
100
AcDbLine
 10
573.4698134782262
 20
644.2416900714609
 30
0.0
 11
574.4698134782262
 21
643.973740879029
 31
0.0
  0
LINE
  5
236
330
1F
100
AcDbEntity
  8
無題001
  6
Continuous
 62
     7
100
AcDbLine
 10
561.4698134782261
 20
641.007376588162
 30
0.0
 11
562.7198134782261
 21
641.007376588162
 31
0.0
  0
SPLINE
  5
237
330
1F
100
AcDbEntity
  8
無題001
  6
Continuous
 62
     4
100
AcDbSpline
210
0.0
220
0.0
230
1.0
 70
     8
 71
     3
 72
    14
 73
    10
 74
     0
 42
0.000000001
 43
0.0
 40
0.0
 40
0.0
 40
0.0
 40
0.0
 40
1.0
 40
1.0
 40
1.0
 40
2.0
 40
2.0
 40
2.0
 40
3.0
 40
3.0
 40
3.0
 40
3.0
 10
592.7609318799748
 20
645.0354716386198
 30
0.0
 10
592.7609318799748
 20
645.0354716386198
 30
0.0
 10
593.9710083299835
 20
642.6653781945589
 30
0.0
 10
594.0524712409688
 20
641.574747933366
 30
0.0
 10
594.133934151954
 20
640.484117672173
 30
0.0
 10
593.1641797731834
 20
639.5815694539202
 30
0.0
 10
593.2497093458865
 20
638.4916900714626
 30
0.0
 10
593.3352389185893
 20
637.401810689005
 30
0.0
 10
594.5656486771866
 20
635.0354716386199
 30
0.0
 10
594.5656486771866
 20
635.0354716386199
 30
0.0
  0
SPLINE
  5
238
330
1F
100
AcDbEntity
  8
無題001
  6
Continuous
 62
     4
100
AcDbSpline
210
0.0
220
0.0
230
1.0
 70
     8
 71
     3
 72
    14
 73
    10
 74
     0
 42
0.000000001
 43
0.0
 40
0.0
 40
0.0
 40
0.0
 40
0.0
 40
1.0
 40
1.0
 40
1.0
 40
2.0
 40
2.0
 40
2.0
 40
3.0
 40
3.0
 40
3.0
 40
3.0
 10
594.0518781162418
 20
645.0354716386198
 30
0.0
 10
594.0518781162418
 20
645.0354716386198
 30
0.0
 10
595.2619545662506
 20
642.6653781945589
 30
0.0
 10
595.3434174772358
 20
641.574747933366
 30
0.0
 10
595.424880388221
 20
640.484117672173
 30
0.0
 10
594.4551260094504
 20
639.5815694539202
 30
0.0
 10
594.5406555821535
 20
638.4916900714626
 30
0.0
 10
594.6261851548563
 20
637.401810689005
 30
0.0
 10
595.8565949134536
 20
635.0354716386199
 30
0.0
 10
595.8565949134536
 20
635.0354716386199
 30
0.0
  0
SPLINE
  5
239
330
1F
100
AcDbEntity
  8
無題001
  6
Continuous
 62
     4
100
AcDbSpline
210
0.0
220
0.0
230
1.0
 70
     8
 71
     3
 72
    14
 73
    10
 74
     0
 42
0.000000001
 43
0.0
 40
0.0
 40
0.0
 40
0.0
 40
0.0
 40
1.0
 40
1.0
 40
1.0
 40
2.0
 40
2.0
 40
2.0
 40
3.0
 40
3.0
 40
3.0
 40
3.0
 10
592.681038602114
 20
660.4916900714634
 30
0.0
 10
592.681038602114
 20
660.4916900714634
 30
0.0
 10
593.8911150521225
 20
662.8617835155243
 30
0.0
 10
593.9725779631079
 20
663.9524137767171
 30
0.0
 10
594.0540408740932
 20
665.04304403791
 30
0.0
 10
593.0842864953228
 20
665.9455922561629
 30
0.0
 10
593.1698160680256
 20
667.0354716386205
 30
0.0
 10
593.2553456407287
 20
668.1253510210782
 30
0.0
 10
594.4857553993262
 20
670.4916900714632
 30
0.0
 10
594.4857553993262
 20
670.4916900714632
 30
0.0
  0
SPLINE
  5
23A
330
1F
100
AcDbEntity
  8
無題001
  6
Continuous
 62
     4
100
AcDbSpline
210
0.0
220
0.0
230
1.0
 70
     8
 71
     3
 72
    14
 73
    10
 74
     0
 42
0.000000001
 43
0.0
 40
0.0
 40
0.0
 40
0.0
 40
0.0
 40
1.0
 40
1.0
 40
1.0
 40
2.0
 40
2.0
 40
2.0
 40
3.0
 40
3.0
 40
3.0
 40
3.0
 10
593.971984838381
 20
660.4916900714634
 30
0.0
 10
593.971984838381
 20
660.4916900714634
 30
0.0
 10
595.1820612883897
 20
662.861783515524
 30
0.0
 10
595.2635241993752
 20
663.9524137767169
 30
0.0
 10
595.3449871103604
 20
665.0430440379098
 30
0.0
 10
594.3752327315898
 20
665.9455922561626
 30
0.0
 10
594.4607623042926
 20
667.0354716386203
 30
0.0
 10
594.5462918769957
 20
668.1253510210779
 30
0.0
 10
595.7767016355932
 20
670.4916900714632
 30
0.0
 10
595.7767016355932
 20
670.4916900714632
 30
0.0
  0
INSERT
  5
255
330
1F
100
AcDbEntity
  8
無題001
  6
Continuous
 62
     7
100
AcDbBlockReference
  2
BLK5
 10
538.9698134782323
 20
633.6808980262447
 30
0.0
  0
LINE
  5
256
330
1F
100
AcDbEntity
  8
無題001
  6
Continuous
 62
     7
100
AcDbLine
 10
545.619813478233
 20
632.4082802820828
 30
0.0
 11
545.619813478233
 21
622.408280282083
 31
0.0
  0
LINE
  5
257
330
1F
100
AcDbEntity
  8
無題001
  6
Continuous
 62
     7
100
AcDbLine
 10
539.4698134782329
 20
622.908280282083
 30
0.0
 11
545.331138343638
 21
622.908280282083
 31
0.0
  0
LINE
  5
258
330
1F
100
AcDbEntity
  8
無題001
  6
Continuous
 62
     7
100
AcDbLine
 10
553.869813478233
 20
630.9082802820828
 30
0.0
 11
553.3698134782319
 21
630.9082802820828
 31
0.0
  0
LINE
  5
259
330
1F
100
AcDbEntity
  8
無題001
  6
Continuous
 62
     7
100
AcDbLine
 10
545.619813478233
 20
622.408280282083
 30
0.0
 11
552.4879135267879
 21
622.408280282082
 31
0.0
  0
LINE
  5
25A
330
1F
100
AcDbEntity
  8
無題001
  6
Continuous
 62
     7
100
AcDbLine
 10
539.4698134782329
 20
631.9082802820828
 30
0.0
 11
539.4698134782329
 21
622.908280282083
 31
0.0
  0
LINE
  5
25B
330
1F
100
AcDbEntity
  8
無題001
  6
Continuous
 62
     7
100
AcDbLine
 10
552.4879135267879
 20
622.408280282082
 30
0.0
 11
552.4879135267879
 21
632.4082802820828
 31
0.0
  0
LINE
  5
25C
330
1F
100
AcDbEntity
  8
無題001
  6
Continuous
 62
     7
100
AcDbLine
 10
553.869813478233
 20
622.408280282083
 30
0.0
 11
555.369813478233
 21
622.408280282083
 31
0.0
  0
LINE
  5
25D
330
1F
100
AcDbEntity
  8
無題001
  6
Continuous
 62
     7
100
AcDbLine
 10
538.9698134782329
 20
631.4082802820828
 30
0.0
 11
538.9698134782329
 21
623.408280282083
 31
0.0
  0
LINE
  5
25E
330
1F
100
AcDbEntity
  8
無題001
  6
Continuous
 62
     7
100
AcDbLine
 10
552.4879135267879
 20
622.908280282083
 30
0.0
 11
553.369813478233
 21
622.908280282083
 31
0.0
  0
LINE
  5
25F
330
1F
100
AcDbEntity
  8
無題001
  6
Continuous
 62
     7
100
AcDbLine
 10
553.869813478233
 20
622.408280282083
 30
0.0
 11
553.869813478233
 21
632.4082802820828
 31
0.0
  0
LINE
  5
260
330
1F
100
AcDbEntity
  8
無題001
  6
Continuous
 62
     7
100
AcDbLine
 10
545.619813478233
 20
632.4082802820828
 30
0.0
 11
545.331138343638
 21
631.9082802820828
 31
0.0
  0
LINE
  5
261
330
1F
100
AcDbEntity
  8
無題001
  6
Continuous
 62
     7
100
AcDbLine
 10
553.869813478233
 20
623.868280282083
 30
0.0
 11
553.3698134782339
 21
623.868280282083
 31
0.0
  0
LINE
  5
262
330
1F
100
AcDbEntity
  8
無題001
  6
Continuous
 62
     7
100
AcDbLine
 10
553.369813478233
 20
622.908280282083
 30
0.0
 11
553.369813478233
 21
631.9082802820828
 31
0.0
  0
LINE
  5
263
330
1F
100
AcDbEntity
  8
無題001
  6
Continuous
 62
     7
100
AcDbLine
 10
545.331138343638
 20
631.9082802820828
 30
0.0
 11
545.331138343638
 21
622.908280282083
 31
0.0
  0
LINE
  5
264
330
1F
100
AcDbEntity
  8
無題001
  6
Continuous
 62
     7
100
AcDbLine
 10
545.331138343638
 20
622.908280282083
 30
0.0
 11
545.619813478233
 21
622.408280282083
 31
0.0
  0
LINE
  5
265
330
1F
100
AcDbEntity
  8
無題001
  6
Continuous
 62
     7
100
AcDbLine
 10
555.369813478233
 20
622.408280282083
 30
0.0
 11
555.369813478233
 21
632.4082802820828
 31
0.0
  0
LINE
  5
266
330
1F
100
AcDbEntity
  8
無題001
  6
CENTER
 62
     1
100
AcDbLine
 10
536.9698134782329
 20
627.4082802820819
 30
0.0
 11
557.369813478233
 21
627.4082802820819
 31
0.0
  0
LINE
  5
267
330
1F
100
AcDbEntity
  8
無題001
  6
Continuous
 62
     7
100
AcDbLine
 10
539.4698134782329
 20
623.408280282083
 30
0.0
 11
538.9698134782329
 21
623.408280282083
 31
0.0
  0
LINE
  5
268
330
1F
100
AcDbEntity
  8
無題001
  6
Continuous
 62
     7
100
AcDbLine
 10
528.9698134782252
 20
660.1916900714615
 30
0.0
 11
528.6698134782253
 21
660.4916900714614
 31
0.0
  0
LINE
  5
269
330
1F
100
AcDbEntity
  8
無題001
  6
Continuous
 62
     7
100
AcDbLine
 10
528.9698134782252
 20
620.7916900714614
 30
0.0
 11
528.6698134782253
 21
620.4916900714614
 31
0.0
  0
LINE
  5
26A
330
1F
100
AcDbEntity
  8
無題001
  6
Continuous
 62
     7
100
AcDbLine
 10
557.4698134782222
 20
629.991690071461
 30
0.0
 11
557.4698134782222
 21
648.491690071462
 31
0.0
  0
LINE
  5
26B
330
1F
100
AcDbEntity
  8
無題001
  6
Continuous
 62
     4
100
AcDbLine
 10
537.9698134782302
 20
660.3916900714609
 30
0.0
 11
537.9698134782332
 21
620.5916900714609
 31
0.0
  0
LINE
  5
26C
330
1F
100
AcDbEntity
  8
無題001
  6
Continuous
 62
     7
100
AcDbLine
 10
574.4698134782263
 20
642.991690071462
 30
0.0
 11
579.4698134782262
 21
642.9916900714609
 31
0.0
  0
LINE
  5
26D
330
1F
100
AcDbEntity
  8
無題001
  6
Continuous
 62
     7
100
AcDbLine
 10
574.4698134782263
 20
637.9916900714619
 30
0.0
 11
579.4698134782262
 21
637.991690071461
 31
0.0
  0
LINE
  5
26E
330
1F
100
AcDbEntity
  8
無題001
  6
PHANTOM
 62
     1
100
AcDbLine
 10
599.4698134782263
 20
643.4916900714595
 30
0.0
 11
599.4698134782261
 21
662.4916900714622
 31
0.0
  0
ARC
  5
26F
330
1F
100
AcDbEntity
  8
無題001
  6
PHANTOM
 62
     1
100
AcDbCircle
 10
596.4698134782263
 20
643.4916900714595
 30
0.0
 40
3.0
100
AcDbArc
 50
270.0
 51
0.0
  0
ARC
  5
270
330
1F
100
AcDbEntity
  8
無題001
  6
PHANTOM
 62
     1
100
AcDbCircle
 10
596.4698134782285
 20
662.4916900714622
 30
0.0
 40
3.0
100
AcDbArc
 50
0.0
 51
89.99999999999567
  0
LINE
  5
271
330
1F
100
AcDbEntity
  8
無題001
  6
CENTER
 62
     1
100
AcDbLine
 10
521.9698134782279
 20
640.4916900714624
 30
0.0
 11
596.4698134782275
 21
640.4916900714642
 31
0.0
  0
LINE
  5
272
330
1F
100
AcDbEntity
  8
無題001
  6
Continuous
 62
     7
100
AcDbLine
 10
579.4698134782286
 20
667.691690071464
 30
0.0
 11
593.3036134045788
 21
667.691690071464
 31
0.0
  0
LINE
  5
273
330
1F
100
AcDbEntity
  8
無題001
  6
Continuous
 62
     7
100
AcDbLine
 10
579.4698134782286
 20
663.291690071464
 30
0.0
 11
593.8410422125465
 21
663.291690071464
 31
0.0
  0
LINE
  5
274
330
1F
100
AcDbEntity
  8
無題001
  6
Continuous
 62
     4
100
AcDbLine
 10
594.3564418982328
 20
662.991689650077
 30
0.0
 11
594.3564418982328
 21
662.991689650077
 31
0.0
  0
LINE
  5
275
330
1F
100
AcDbEntity
  8
無題001
  6
Continuous
 62
     7
100
AcDbLine
 10
579.4698134782286
 20
667.691690071464
 30
0.0
 11
579.4698134782286
 21
663.291690071464
 31
0.0
  0
LINE
  5
276
330
1F
100
AcDbEntity
  8
無題001
  6
Continuous
 62
     7
100
AcDbLine
 10
579.4698134782286
 20
666.5616900714641
 30
0.0
 11
575.4698134782286
 21
666.5616900714639
 31
0.0
  0
LINE
  5
277
330
1F
100
AcDbEntity
  8
無題001
  6
Continuous
 62
     7
100
AcDbLine
 10
579.4698134782286
 20
665.681690071464
 30
0.0
 11
575.4698134782286
 21
665.681690071464
 31
0.0
  0
LINE
  5
278
330
1F
100
AcDbEntity
  8
無題001
  6
Continuous
 62
     7
100
AcDbLine
 10
579.4698134782286
 20
664.8016900714641
 30
0.0
 11
575.4698134782286
 21
664.8016900714641
 31
0.0
  0
LINE
  5
279
330
1F
100
AcDbEntity
  8
無題001
  6
Continuous
 62
     7
100
AcDbLine
 10
579.4698134782286
 20
663.921690071464
 30
0.0
 11
576.3696432505667
 21
663.9216900714641
 31
0.0
  0
ARC
  5
27A
330
1F
100
AcDbEntity
  8
無題001
  6
Continuous
 62
     7
100
AcDbCircle
 10
575.4790495902831
 20
696.30759423841
 30
0.0
 40
29.74590560085391
100
AcDbArc
 50
258.3449543710839
 51
269.982209644062
  0
ARC
  5
27B
330
1F
100
AcDbEntity
  8
無題001
  6
Continuous
 62
     7
100
AcDbCircle
 10
575.479049590283
 20
695.42759423841
 30
0.0
 40
29.74590560085391
100
AcDbArc
 50
258.344954371084
 51
269.9822096440618
  0
LINE
  5
27C
330
1F
100
AcDbEntity
  8
無題001
  6
Continuous
 62
     7
100
AcDbLine
 10
579.4698134782286
 20
665.681690071464
 30
0.0
 11
575.4698134782286
 21
665.681690071464
 31
0.0
  0
ARC
  5
27D
330
1F
100
AcDbEntity
  8
無題001
  6
Continuous
 62
     7
100
AcDbCircle
 10
575.4790495907382
 20
635.0557859045181
 30
0.0
 40
29.74590560085391
100
AcDbArc
 50
90.0177903559382
 51
101.655045628916
  0
ARC
  5
27E
330
1F
100
AcDbEntity
  8
無題001
  6
Continuous
 62
     7
100
AcDbCircle
 10
575.4790495907372
 20
635.935785904518
 30
0.0
 40
29.74590560085391
100
AcDbArc
 50
90.0177903559382
 51
101.6550456289163
  0
LINE
  5
27F
330
1F
100
AcDbEntity
  8
無題001
  6
Continuous
 62
     7
100
AcDbLine
 10
569.4698134782286
 20
667.1750011275232
 30
0.0
 11
569.4698134782286
 21
666.2950011275233
 31
0.0
  0
LINE
  5
280
330
1F
100
AcDbEntity
  8
無題001
  6
Continuous
 62
     7
100
AcDbLine
 10
569.4698134782286
 20
665.0683790153112
 30
0.0
 11
569.4698134782286
 21
664.1883790153109
 31
0.0
  0
ARC
  5
281
330
1F
100
AcDbEntity
  8
無題001
  6
Continuous
 62
     7
100
AcDbCircle
 10
577.8072144950211
 20
647.7808832043141
 30
0.0
 40
16.20469862124925
100
AcDbArc
 50
95.08958479694994
 51
114.4565230876399
  0
ARC
  5
282
330
1F
100
AcDbEntity
  8
無題001
  6
Continuous
 62
     7
100
AcDbCircle
 10
577.8072144950213
 20
648.8508832043141
 30
0.0
 40
16.20469862124925
100
AcDbArc
 50
100.1557060270973
 51
114.4565230876413
  0
LINE
  5
283
330
1F
100
AcDbEntity
  8
無題001
  6
Continuous
 62
     7
100
AcDbLine
 10
571.0984266340911
 20
663.6016263327992
 30
0.0
 11
571.0984266340911
 21
662.5316263327994
 31
0.0
  0
ARC
  5
284
330
1F
100
AcDbEntity
  8
無題001
  6
Continuous
 62
     7
100
AcDbCircle
 10
573.8504364344207
 20
696.409544948839
 30
0.0
 40
29.74590560085391
100
AcDbArc
 50
254.9344649400289
 51
261.5313581035642
  0
ARC
  5
285
330
1F
100
AcDbEntity
  8
無題001
  6
Continuous
 62
     7
100
AcDbCircle
 10
573.8504364344207
 20
695.9181603489977
 30
0.0
 40
29.74590560085391
100
AcDbArc
 50
254.9344649400289
 51
261.5313581035642
  0
ARC
  5
286
330
1F
100
AcDbEntity
  8
無題001
  6
Continuous
 62
     7
100
AcDbCircle
 10
573.8504364348746
 20
635.5006269002055
 30
0.0
 40
29.74590560085391
100
AcDbArc
 50
98.46864189731988
 51
105.0655350608767
  0
ARC
  5
287
330
1F
100
AcDbEntity
  8
無題001
  6
Continuous
 62
     7
100
AcDbCircle
 10
573.8504364348746
 20
634.9998413910783
 30
0.0
 40
29.74590560085391
100
AcDbArc
 50
98.46864189731991
 51
105.0655350608767
  0
ARC
  5
288
330
1F
100
AcDbEntity
  8
無題001
  6
Continuous
 62
     7
100
AcDbCircle
 10
576.2777422034712
 20
647.9582499175419
 30
0.0
 40
16.20469862124925
100
AcDbArc
 50
108.6398329530664
 51
122.8455784213508
  0
ARC
  5
289
330
1F
100
AcDbEntity
  8
無題001
  6
Continuous
 62
     7
100
AcDbCircle
 10
576.2777422034712
 20
647.382486143991
 30
0.0
 40
16.20469862124925
100
AcDbArc
 50
108.6398329530664
 51
122.8455784213508
  0
LINE
  5
28A
330
1F
100
AcDbEntity
  8
無題001
  6
Continuous
 62
     7
100
AcDbLine
 10
566.1187704717635
 20
667.6860312108433
 30
0.0
 11
566.1187704717635
 21
667.1946466110021
 31
0.0
  0
LINE
  5
28B
330
1F
100
AcDbEntity
  8
無題001
  6
Continuous
 62
     7
100
AcDbLine
 10
566.1187704717635
 20
664.2241406380788
 30
0.0
 11
566.1187704717635
 21
663.7233551289515
 31
0.0
  0
LINE
  5
28C
330
1F
100
AcDbEntity
  8
無題001
  6
Continuous
 62
     7
100
AcDbLine
 10
567.4886911743503
 20
661.5723910734513
 30
0.0
 11
567.4886911743503
 21
660.9966272999003
 31
0.0
  0
MTEXT
  5
28D
330
1F
100
AcDbEntity
  8
無題001
  6
Continuous
 62
     4
100
AcDbMText
 10
570.8469639810728
 20
675.9756900714631
 30
0.0
 40
3.5
 41
0.0
 71
     7
 72
     5
  1
{\fＭＳ ゴシック|b0|i0|c128|p49;\W1.0;センサ用ケーブル5ｍ}
  7
MTSTANDARD1
 73
     1
 44
0.8035714285714286
  0
LINE
  5
28E
330
1F
100
AcDbEntity
  8
無題001
  6
Continuous
 62
     4
100
AcDbLine
 10
566.1187704717635
 20
675.1916900714631
 30
0.0
 11
607.5969639810728
 21
675.1916900714631
 31
0.0
  0
LINE
  5
28F
330
1F
100
AcDbEntity
  8
無題001
  6
ByBlock
 62
     4
100
AcDbLine
 10
566.1187704717635
 20
675.1916900714631
 30
0.0
 11
569.0731937308001
 21
674.6707455384623
 31
0.0
  0
LINE
  5
290
330
1F
100
AcDbEntity
  8
無題001
  6
ByBlock
 62
     4
100
AcDbLine
 10
566.1187704717635
 20
675.1916900714631
 30
0.0
 11
569.0731937308001
 21
675.7126346044639
 31
0.0
  0
LINE
  5
291
330
1F
100
AcDbEntity
  8
無題001
  6
Continuous
 62
     4
100
AcDbLine
 10
566.1187704717635
 20
667.6860312108433
 30
0.0
 11
566.1187704717634
 21
676.1916900714631
 31
0.0
  0
MTEXT
  5
293
330
1F
100
AcDbEntity
  8
無題001
  6
Continuous
 62
     4
100
AcDbMText
 10
508.4290621336825
 20
681.6090178770351
 30
0.0
 40
5.0
 41
0.0
 71
     7
 72
     5
  1
{\fＭＳ ゴシック|b0|i0|c128|p49;\W1.0;回転速度検知を使用する場合}
  7
MTSTANDARD2
 73
     1
 44
0.75
  0
DIMENSION
  5
2A2
330
1F
100
AcDbEntity
  8
無題001
  6
ByBlock
 62
     4
100
AcDbDimension
  2
_D7
 10
518.8519854640405
 20
595.4916900714637
 30
0.0
 11
515.2679854640405
 21
575.4916900714637
 31
0.0
 70
   160
  1
φ<>{\H0.70x;\A2\S　0^ －0.025;}
 71
     5
 42
-1.0
 52
90.0
  3
DIMSTYEX_9
100
AcDbAlignedDimension
 13
518.8519854640405
 23
555.4916900714637
 33
0.0
 14
518.8519854640405
 24
595.4916900714637
 34
0.0
 50
90.0
100
AcDbRotatedDimension
1001
ACAD
1000
DSTYLE
1002
{
1070
   343
1005
86
1070
   344
1005
86
1070
    43
1040
0.0
1070
   173
1070
     1
1070
   272
1070
     3
1070
   340
1005
2A0
1070
   140
1040
3.136
1002
}
  0
DIMENSION
  5
2B1
330
1F
100
AcDbEntity
  8
無題001
  6
ByBlock
 62
     4
100
AcDbDimension
  2
_D8
 10
404.2931822481225
 20
593.991690071463
 30
0.0
 11
401.7591822481226
 21
575.4916900714632
 31
0.0
 70
   160
  1
φ<>
 71
     5
 42
-1.0
 52
90.0
  3
DIMSTYEX_10
100
AcDbAlignedDimension
 13
442.5698134782365
 23
556.9916900714633
 33
0.0
 14
442.5698134782285
 24
593.991690071463
 34
0.0
 50
90.0
100
AcDbRotatedDimension
1001
ACAD
1000
DSTYLE
1002
{
1070
   343
1005
86
1070
   344
1005
86
1070
    43
1040
7.190567521945638
1070
   173
1070
     1
1070
   272
1070
     3
1070
   340
1005
2AF
1070
   140
1040
3.136
1002
}
  0
MTEXT
  5
2B3
330
1F
100
AcDbEntity
  8
無題001
  6
Continuous
 62
     7
100
AcDbMText
 10
462.1176367471651
 20
512.5704494522346
 30
0.0
 40
5.0
 41
0.0
 71
     7
 72
     5
  1
{\fＭＳ ゴシック|b0|i0|c128|p49;\W1.0;ＡＢＴ－１０００}
  7
MTSTANDARD3
 73
     1
 44
0.75
  0
HATCH
  5
2B4
330
1F
100
AcDbEntity
  8
無題001
  6
Continuous
 62
     4
100
AcDbHatch
 10
0.0
 20
0.0
 30
0.0
210
0.0
220
0.0
230
1.0
  2
_U
 70
     0
 71
     0
 91
        2
 92
        2
 72
     0
 73
     1
 93
       13
 10
593.3036134045788
 20
667.691690071464
 10
579.4698134782286
 20
667.691690071464
 10
579.4698134782286
 20
665.491690071464
 10
593.5707918291446
 20
665.4916900714633
 10
593.482033698681
 20
665.6928260082623
 10
593.3971261161411
 20
665.894628143162
 10
593.3199136088259
 20
666.0977816359118
 10
593.2542407040363
 20
666.3029716462609
 10
593.2039519290736
 20
666.5108833339589
 10
593.1728918112383
 20
666.7222018587547
 10
593.1649048778318
 20
666.9376123803977
 10
593.1839823310817
 20
667.1621128059626
 10
593.2314778469242
 20
667.4146096302857
 97
        0
 92
        2
 72
     0
 73
     1
 93
       13
 10
593.5707918291446
 20
665.4916900714633
 10
579.4698134782286
 20
665.4916900714633
 10
579.4698134782286
 20
663.291690071464
 10
593.8410422125465
 20
663.291690071464
 10
593.911813041168
 20
663.569035189375
 10
593.9584076440281
 20
663.8218914084741
 10
593.9770601176839
 20
664.0466265985619
 10
593.9688055288975
 20
664.2619964615136
 10
593.9375715218471
 20
664.4732510358725
 10
593.8871889998612
 20
664.6810730500013
 10
593.8214888662695
 20
664.8861452322623
 10
593.7443020244001
 20
665.089150311018
 10
593.6594593775822
 20
665.2907710146308
 97
        0
 75
     0
 76
     0
 52
45.0
 41
1.0
 77
     0
 78
     1
 53
45.0
 43
0.0
 44
0.0
 45
-0.7071067811865475
 46
0.7071067811865476
 79
     0
 98
        1
 10
0.0
 20
0.0
  0
HATCH
  5
2B5
330
1F
100
AcDbEntity
  8
無題001
  6
Continuous
 62
     4
100
AcDbHatch
 10
0.0
 20
0.0
 30
0.0
210
0.0
220
0.0
230
1.0
  2
_U
 70
     0
 71
     0
 91
        2
 92
        2
 72
     0
 73
     1
 93
       13
 10
593.8426215107013
 20
642.4916900714621
 10
579.4698134782262
 20
642.4916900714621
 10
579.4698134782262
 20
640.4916900714637
 10
593.8445652450444
 20
640.4916900714641
 10
593.9097549949346
 20
640.666612909745
 10
593.9659531285344
 20
640.8431532921502
 10
594.0107441514576
 20
641.0217416402791
 10
594.0417125693175
 20
641.2028083757311
 10
594.0564428877276
 20
641.3867839201064
 10
594.0525196123015
 20
641.5740986950043
 10
594.0275789212704
 20
641.7752985983113
 10
593.9825694913087
 20
641.998044771979
 10
593.9200605941492
 20
642.2382157835128
 97
        0
 92
        2
 72
     0
 73
     1
 93
       10
 10
593.8445652450444
 20
640.4916900714641
 10
579.4698134782262
 20
640.4916900714624
 10
579.4698134782267
 20
638.4916900714619
 10
593.2497093458865
 20
638.4916900714626
 10
593.2516086475587
 20
638.7920947471488
 10
593.2983256344263
 20
639.084550729068
 10
593.3795857178707
 20
639.3708891554861
 10
593.4851143092732
 20
639.6529411646691
 10
593.6046368200155
 20
639.9325378948824
 10
593.7278786614787
 20
640.2115104843921
 97
        0
 75
     0
 76
     0
 52
45.0
 41
1.0
 77
     0
 78
     1
 53
45.0
 43
0.0
 44
0.0
 45
-0.7071067811865475
 46
0.7071067811865476
 79
     0
 98
        1
 10
0.0
 20
0.0
  0
MTEXT
  5
2B6
330
1F
100
AcDbEntity
  8
無題001
  6
Continuous
 62
     4
100
AcDbMText
 10
391.2586623106751
 20
612.833443664977
 30
0.0
 40
3.5
 41
0.0
 71
     7
 72
     5
  1
{\fＭＳ ゴシック|b0|i0|c128|p49;\W1.0;テストバー}
  7
MTSTANDARD1
 73
     1
 44
0.8035714285714286
  0
DIMENSION
  5
2C5
330
1F
100
AcDbEntity
  8
無題001
  6
ByBlock
 62
     4
100
AcDbDimension
  2
_D9
 10
447.4698134782295
 20
540.4916900714637
 30
0.0
 11
444.2198134782325
 21
543.0256900714637
 31
0.0
 70
   160
 71
     5
 42
-1.0
 52
90.0
  3
DIMSTYEX_11
100
AcDbAlignedDimension
 13
440.9698134782356
 23
558.5916900714632
 33
0.0
 14
447.4698134782295
 24
556.9916900714633
 34
0.0
100
AcDbRotatedDimension
1001
ACAD
1000
DSTYLE
1002
{
1070
   343
1005
86
1070
   344
1005
86
1070
    43
1040
4.020562103193015
1070
   173
1070
     1
1070
   272
1070
     3
1070
   340
1005
2C3
1070
   140
1040
3.136
1002
}
  0
DIMENSION
  5
2D4
330
1F
100
AcDbEntity
  8
無題001
  6
ByBlock
 62
     4
100
AcDbDimension
  2
_D10
 10
474.9698134782295
 20
540.486066434817
 30
0.0
 11
461.2198134782295
 21
543.020066434817
 31
0.0
 70
   160
 71
     5
 42
-1.0
 52
90.0
  3
DIMSTYEX_12
100
AcDbAlignedDimension
 13
447.4698134782295
 23
556.9916900714633
 33
0.0
 14
474.9698134782295
 24
555.7916900714632
 34
0.0
100
AcDbRotatedDimension
1001
ACAD
1000
DSTYLE
1002
{
1070
   343
1005
86
1070
   344
1005
86
1070
    43
1040
0.0
1070
   173
1070
     1
1070
   272
1070
     3
1070
   340
1005
2D2
1070
   140
1040
3.136
1002
}
  0
DIMENSION
  5
2E3
330
1F
100
AcDbEntity
  8
無題001
  6
ByBlock
 62
     4
100
AcDbDimension
  2
_D11
 10
493.9698134782295
 20
540.486066434817
 30
0.0
 11
484.4698134782295
 21
543.020066434817
 31
0.0
 70
   160
 71
     5
 42
-1.0
 52
90.0
  3
DIMSTYEX_13
100
AcDbAlignedDimension
 13
474.9698134782295
 23
555.7916900714632
 33
0.0
 14
493.9698134782295
 24
555.7916900714632
 34
0.0
100
AcDbRotatedDimension
1001
ACAD
1000
DSTYLE
1002
{
1070
   343
1005
86
1070
   344
1005
86
1070
    43
1040
0.0
1070
   173
1070
     1
1070
   272
1070
     3
1070
   340
1005
2E1
1070
   140
1040
3.136
1002
}
  0
DIMENSION
  5
2F2
330
1F
100
AcDbEntity
  8
無題001
  6
ByBlock
 62
     4
100
AcDbDimension
  2
_D12
 10
538.9698134782275
 20
540.486066434817
 30
0.0
 11
516.4698134782285
 21
543.020066434817
 31
0.0
 70
   160
 71
     5
 42
-1.0
 52
90.0
  3
DIMSTYEX_14
100
AcDbAlignedDimension
 13
493.9698134782295
 23
555.7916900714632
 33
0.0
 14
538.9698134782275
 24
555.7916900714632
 34
0.0
100
AcDbRotatedDimension
1001
ACAD
1000
DSTYLE
1002
{
1070
   343
1005
86
1070
   344
1005
86
1070
    43
1040
0.0
1070
   173
1070
     1
1070
   272
1070
     3
1070
   340
1005
2F0
1070
   140
1040
3.136
1002
}
  0
DIMENSION
  5
301
330
1F
100
AcDbEntity
  8
無題001
  6
ByBlock
 62
     4
100
AcDbDimension
  2
_D13
 10
561.4698134782232
 20
605.5916900714609
 30
0.0
 11
545.2198134782255
 21
608.1256900714609
 31
0.0
 70
   160
 71
     5
 42
-1.0
 52
90.0
  3
DIMSTYEX_15
100
AcDbAlignedDimension
 13
528.9698134782279
 23
615.4916900714642
 33
0.0
 14
561.4698134782232
 24
633.991690071461
 34
0.0
100
AcDbRotatedDimension
1001
ACAD
1000
DSTYLE
1002
{
1070
   343
1005
86
1070
   344
1005
86
1070
    43
1040
1.694894268018288
1070
   173
1070
     1
1070
   272
1070
     3
1070
   340
1005
2FF
1070
   140
1040
3.136
1002
}
  0
DIMENSION
  5
310
330
1F
100
AcDbEntity
  8
無題001
  6
ByBlock
 62
     4
100
AcDbDimension
  2
_D14
 10
574.4698134782262
 20
605.5916900714609
 30
0.0
 11
567.9698134782248
 21
608.1256900714609
 31
0.0
 70
   160
 71
     5
 42
-1.0
 52
90.0
  3
DIMSTYEX_16
100
AcDbAlignedDimension
 13
561.4698134782232
 23
633.991690071461
 33
0.0
 14
574.4698134782262
 24
637.0096392638919
 34
0.0
100
AcDbRotatedDimension
1001
ACAD
1000
DSTYLE
1002
{
1070
   343
1005
86
1070
   344
1005
86
1070
    43
1040
1.694894268018288
1070
   173
1070
     1
1070
   272
1070
     3
1070
   340
1005
30E
1070
   140
1040
3.136
1002
}
  0
CIRCLE
  5
311
330
1F
100
AcDbEntity
  8
2
  6
Continuous
 62
     7
100
AcDbCircle
 10
356.3137287293051
 20
565.2386417442642
 30
0.0
 40
1.5
  0
CIRCLE
  5
312
330
1F
100
AcDbEntity
  8
2
  6
Continuous
 62
     7
100
AcDbCircle
 10
356.3137287293051
 20
565.2386417442642
 30
0.0
 40
3.0
  0
CIRCLE
  5
313
330
1F
100
AcDbEntity
  8
2
  6
Continuous
 62
     4
100
AcDbCircle
 10
356.3137287293051
 20
565.2386417442642
 30
0.0
 40
3.25
  0
CIRCLE
  5
314
330
1F
100
AcDbEntity
  8
2
  6
Continuous
 62
     7
100
AcDbCircle
 10
356.3137287293051
 20
585.7447383987642
 30
0.0
 40
1.5
  0
CIRCLE
  5
315
330
1F
100
AcDbEntity
  8
2
  6
Continuous
 62
     7
100
AcDbCircle
 10
356.3137287293051
 20
585.7447383987642
 30
0.0
 40
3.0
  0
CIRCLE
  5
316
330
1F
100
AcDbEntity
  8
2
  6
Continuous
 62
     4
100
AcDbCircle
 10
356.3137287293051
 20
585.7447383987642
 30
0.0
 40
3.25
  0
CIRCLE
  5
317
330
1F
100
AcDbEntity
  8
2
  6
Continuous
 62
     7
100
AcDbCircle
 10
366.5667770565051
 20
575.4916900714642
 30
0.0
 40
20.64
  0
CIRCLE
  5
318
330
1F
100
AcDbEntity
  8
2
  6
Continuous
 62
     7
100
AcDbCircle
 10
366.5667770565051
 20
575.4916900714642
 30
0.0
 40
2.0
  0
CIRCLE
  5
319
330
1F
100
AcDbEntity
  8
2
  6
Continuous
 62
     7
100
AcDbCircle
 10
366.5667770565051
 20
575.4916900714642
 30
0.0
 40
1.5
  0
CIRCLE
  5
31A
330
1F
100
AcDbEntity
  8
2
  6
Continuous
 62
     7
100
AcDbCircle
 10
366.5667770565051
 20
575.4916900714642
 30
0.0
 40
4.0
  0
CIRCLE
  5
31B
330
1F
100
AcDbEntity
  8
2
  6
Continuous
 62
     7
100
AcDbCircle
 10
366.5667770565051
 20
575.4916900714642
 30
0.0
 40
20.0
  0
CIRCLE
  5
31C
330
1F
100
AcDbEntity
  8
2
  6
Continuous
 62
     7
100
AcDbCircle
 10
366.5667770565051
 20
575.4916900714642
 30
0.0
 40
2.55
  0
CIRCLE
  5
31D
330
1F
100
AcDbEntity
  8
2
  6
Continuous
 62
     7
100
AcDbCircle
 10
366.5667770565051
 20
575.4916900714642
 30
0.0
 40
5.4
  0
CIRCLE
  5
31E
330
1F
100
AcDbEntity
  8
2
  6
Continuous
 62
     7
100
AcDbCircle
 10
366.5667770565051
 20
575.4916900714642
 30
0.0
 40
6.5
  0
CIRCLE
  5
31F
330
1F
100
AcDbEntity
  8
2
  6
Continuous
 62
     7
100
AcDbCircle
 10
366.5667770565051
 20
575.4916900714642
 30
0.0
 40
8.0
  0
LINE
  5
320
330
1F
100
AcDbEntity
  8
2
  6
HIDDEN
 62
     4
100
AcDbLine
 10
364.5271692511051
 20
580.4916900714642
 30
0.0
 11
368.6063848619051
 21
580.4916900714642
 31
0.0
  0
LINE
  5
321
330
1F
100
AcDbEntity
  8
2
  6
HIDDEN
 62
     4
100
AcDbLine
 10
364.5271692511051
 20
570.4916900714642
 30
0.0
 11
368.6063848619051
 21
570.4916900714642
 31
0.0
  0
LINE
  5
322
330
1F
100
AcDbEntity
  8
2
  6
HIDDEN
 62
     4
100
AcDbLine
 10
361.5667770565051
 20
577.5312978769642
 30
0.0
 11
361.5667770565051
 21
573.4520822660271
 31
0.0
  0
LINE
  5
323
330
1F
100
AcDbEntity
  8
2
  6
HIDDEN
 62
     4
100
AcDbLine
 10
371.5667770565051
 20
577.5312978769642
 30
0.0
 11
371.5667770565051
 21
573.4520822660643
 31
0.0
  0
ARC
  5
324
330
1F
100
AcDbEntity
  8
2
  6
Continuous
 62
     7
100
AcDbCircle
 10
366.5667770565051
 20
575.4916900714642
 30
0.0
 40
16.9
100
AcDbArc
 50
323.0275726187999
 51
36.97242738120009
  0
ARC
  5
325
330
1F
100
AcDbEntity
  8
2
  6
Continuous
 62
     7
100
AcDbCircle
 10
366.5667770565051
 20
575.4916900714642
 30
0.0
 40
16.9
100
AcDbArc
 50
53.02757261879992
 51
126.9724273812001
  0
ARC
  5
326
330
1F
100
AcDbEntity
  8
2
  6
Continuous
 62
     7
100
AcDbCircle
 10
366.5667770565051
 20
575.4916900714642
 30
0.0
 40
16.9
100
AcDbArc
 50
233.0275726187999
 51
306.9724273811999
  0
CIRCLE
  5
327
330
1F
100
AcDbEntity
  8
2
  6
Continuous
 62
     7
100
AcDbCircle
 10
376.8198253837051
 20
565.2386417442642
 30
0.0
 40
1.5
  0
CIRCLE
  5
328
330
1F
100
AcDbEntity
  8
2
  6
Continuous
 62
     4
100
AcDbCircle
 10
376.8198253837051
 20
565.2386417442642
 30
0.0
 40
3.25
  0
CIRCLE
  5
329
330
1F
100
AcDbEntity
  8
2
  6
Continuous
 62
     7
100
AcDbCircle
 10
376.8198253837051
 20
565.2386417442642
 30
0.0
 40
3.0
  0
CIRCLE
  5
32A
330
1F
100
AcDbEntity
  8
2
  6
Continuous
 62
     4
100
AcDbCircle
 10
376.8198253837051
 20
585.7447383987642
 30
0.0
 40
3.25
  0
CIRCLE
  5
32B
330
1F
100
AcDbEntity
  8
2
  6
Continuous
 62
     7
100
AcDbCircle
 10
376.8198253837051
 20
585.7447383987642
 30
0.0
 40
3.0
  0
CIRCLE
  5
32C
330
1F
100
AcDbEntity
  8
2
  6
Continuous
 62
     7
100
AcDbCircle
 10
376.8198253837051
 20
585.7447383987642
 30
0.0
 40
1.5
  0
LINE
  5
32D
330
1F
100
AcDbEntity
  8
2
  6
CENTER
 62
     1
100
AcDbLine
 10
389.0696582485051
 20
575.4916900715642
 30
0.0
 11
344.0638958645051
 21
575.4916900715642
 31
0.0
  0
LINE
  5
32E
330
1F
100
AcDbEntity
  8
2
  6
CENTER
 62
     1
100
AcDbLine
 10
366.5667770565051
 20
597.9945712634642
 30
0.0
 11
366.5667770565051
 21
552.9888088794642
 31
0.0
  0
LINE
  5
32F
330
1F
100
AcDbEntity
  8
2
  6
Continuous
 62
     7
100
AcDbLine
 10
383.8667770565051
 20
582.0460779147643
 30
0.0
 11
383.8667770565051
 21
568.9373022282642
 31
0.0
  0
ARC
  5
330
330
1F
100
AcDbEntity
  8
2
  6
Continuous
 62
     7
100
AcDbCircle
 10
384.2667770565051
 20
574.1416900715642
 30
0.0
 40
1.65
100
AcDbArc
 50
270.0
 51
0.0
  0
LINE
  5
331
330
1F
100
AcDbEntity
  8
2
  6
Continuous
 62
     7
100
AcDbLine
 10
385.9167770565051
 20
576.8416900715642
 30
0.0
 11
385.9167770565051
 21
574.1416900715642
 31
0.0
  0
LINE
  5
332
330
1F
100
AcDbEntity
  8
2
  6
Continuous
 62
     7
100
AcDbLine
 10
383.8667770565051
 20
572.9916900715642
 30
0.0
 11
383.8667770565051
 21
577.9916900715642
 31
0.0
  0
LINE
  5
333
330
1F
100
AcDbEntity
  8
2
  6
Continuous
 62
     7
100
AcDbLine
 10
383.8667770565051
 20
577.9916900715642
 30
0.0
 11
384.2667770565051
 21
577.9916900715642
 31
0.0
  0
LINE
  5
334
330
1F
100
AcDbEntity
  8
2
  6
Continuous
 62
     7
100
AcDbLine
 10
384.2667770565051
 20
577.9916900715642
 30
0.0
 11
384.2667770565051
 21
572.9916900715642
 31
0.0
  0
ARC
  5
335
330
1F
100
AcDbEntity
  8
2
  6
Continuous
 62
     7
100
AcDbCircle
 10
384.2667770565051
 20
576.8416900715642
 30
0.0
 40
1.65
100
AcDbArc
 50
0.0
 51
90.00000000400104
  0
LINE
  5
336
330
1F
100
AcDbEntity
  8
2
  6
Continuous
 62
     7
100
AcDbLine
 10
384.2667770565051
 20
572.9916900715642
 30
0.0
 11
383.8667770565051
 21
572.9916900715642
 31
0.0
  0
LINE
  5
337
330
1F
100
AcDbEntity
  8
2
  6
Continuous
 62
     7
100
AcDbLine
 10
384.2667770565051
 20
578.4916900715642
 30
0.0
 11
384.2667770565051
 21
572.4916900715642
 31
0.0
  0
ARC
  5
338
330
1F
100
AcDbEntity
  8
2
  6
Continuous
 62
     7
100
AcDbCircle
 10
366.5667770565051
 20
575.4916900714642
 30
0.0
 40
18.5
100
AcDbArc
 50
20.75001205640022
 51
339.2499879436001
  0
ARC
  5
339
330
1F
100
AcDbEntity
  8
2
  6
Continuous
 62
     7
100
AcDbCircle
 10
366.5667770565051
 20
575.4916900714642
 30
0.0
 40
16.9
100
AcDbArc
 50
143.0275726188
 51
216.9724273812001
  0
LINE
  5
33A
330
1F
100
AcDbEntity
  8
2
  6
CENTER
 62
     1
100
AcDbLine
 10
373.1075147825051
 20
568.9509523455642
 30
0.0
 11
381.4160194614051
 21
560.6424476665642
 31
0.0
  0
LINE
  5
33B
330
1F
100
AcDbEntity
  8
2
  6
CENTER
 62
     1
100
AcDbLine
 10
381.4160194614051
 20
590.3409324764642
 30
0.0
 11
373.1075147825051
 21
582.0324277974642
 31
0.0
  0
ARC
  5
33C
330
1F
100
AcDbEntity
  8
2
  6
CENTER
 62
     1
100
AcDbCircle
 10
366.5667770565051
 20
575.4916900715642
 30
0.0
 40
14.5
100
AcDbArc
 50
203.8594502969002
 51
246.1405497028
  0
ARC
  5
33D
330
1F
100
AcDbEntity
  8
2
  6
CENTER
 62
     1
100
AcDbCircle
 10
366.5667770565051
 20
575.4916900715642
 30
0.0
 40
14.5
100
AcDbArc
 50
293.8594502983998
 51
336.1405497013
  0
ARC
  5
33E
330
1F
100
AcDbEntity
  8
2
  6
CENTER
 62
     1
100
AcDbCircle
 10
366.5667770565051
 20
575.4916900715642
 30
0.0
 40
14.5
100
AcDbArc
 50
23.85945029920005
 51
66.14054970060005
  0
ARC
  5
33F
330
1F
100
AcDbEntity
  8
2
  6
CENTER
 62
     1
100
AcDbCircle
 10
366.5667770565051
 20
575.4916900715642
 30
0.0
 40
14.5
100
AcDbArc
 50
113.8594502976999
 51
156.1405497020998
  0
LINE
  5
340
330
1F
100
AcDbEntity
  8
2
  6
CENTER
 62
     1
100
AcDbLine
 10
360.0260393305051
 20
568.9509523455642
 30
0.0
 11
351.7175346516051
 21
560.6424476665642
 31
0.0
  0
LINE
  5
341
330
1F
100
AcDbEntity
  8
2
  6
CENTER
 62
     1
100
AcDbLine
 10
351.7175346516051
 20
590.3409324764642
 30
0.0
 11
360.0260393305051
 21
582.0324277974642
 31
0.0
  0
DIMENSION
  5
350
330
1F
100
AcDbEntity
  8
無題001
  6
ByBlock
 62
     4
100
AcDbDimension
  2
_D15
 10
383.8667770565051
 20
540.4916900714634
 30
0.0
 11
375.2167770565051
 21
543.0256900714634
 31
0.0
 70
   160
 71
     5
 42
-1.0
 52
90.0
  3
DIMSTYEX_17
100
AcDbAlignedDimension
 13
366.5667770565051
 23
552.9888088794642
 33
0.0
 14
383.8667770565051
 24
568.9373022282642
 34
0.0
100
AcDbRotatedDimension
1001
ACAD
1000
DSTYLE
1002
{
1070
   343
1005
86
1070
   344
1005
86
1070
    43
1040
0.1393120204936622
1070
   173
1070
     1
1070
   272
1070
     3
1070
   340
1005
34E
1070
   140
1040
3.136
1002
}
  0
DIMENSION
  5
363
330
1F
100
AcDbEntity
  8
無題001
  6
ByBlock
 62
     4
100
AcDbDimension
  2
_D16
 10
385.9167770565051
 20
540.4916900714637
 30
0.0
 11
389.9407764621022
 21
541.2756900714637
 31
0.0
 70
   160
 71
     5
 42
-1.0
 52
90.0
  3
DIMSTYEX_18
100
AcDbAlignedDimension
 13
383.866777056497
 23
568.9373022281733
 33
0.0
 14
385.9167770565051
 24
574.1416900715642
 34
0.0
100
AcDbRotatedDimension
1001
ACAD
1000
DSTYLE
1002
{
1070
   343
1005
86
1070
   344
1005
86
1070
   271
1070
     1
1070
    43
1040
3.057642387014312
1070
   173
1070
     1
1070
   272
1070
     1
1070
   340
1005
361
1070
   140
1040
3.136
1002
}
  0
DIMENSION
  5
372
330
1F
100
AcDbEntity
  8
無題001
  6
ByBlock
 62
     4
100
AcDbDimension
  2
_D17
 10
371.5667770565051
 20
605.4916900714643
 30
0.0
 11
366.5667770565051
 21
608.0256900714643
 31
0.0
 70
   160
 71
     5
 42
-1.0
 52
90.0
  3
DIMSTYEX_19
100
AcDbAlignedDimension
 13
361.5667770565051
 23
577.5312978769012
 33
0.0
 14
371.5667770565051
 24
577.5312978769012
 34
0.0
100
AcDbRotatedDimension
1001
ACAD
1000
DSTYLE
1002
{
1070
   343
1005
86
1070
   344
1005
86
1070
    43
1040
0.0
1070
   173
1070
     1
1070
   272
1070
     3
1070
   340
1005
370
1070
   140
1040
3.136
1002
}
  0
ENDSEC
  0
SECTION
  2
OBJECTS
  0
DICTIONARY
  5
C
330
0
100
AcDbDictionary
281
     1
  3
ACAD_GROUP
350
D
  3
ACAD_LAYOUT
350
1A
  3
ACAD_MATERIAL
350
43
  3
ACAD_MLEADERSTYLE
350
6B
  3
ACAD_MLINESTYLE
350
17
  3
ACAD_PLOTSETTINGS
350
19
  3
ACAD_PLOTSTYLENAME
350
E
  3
ACAD_SCALELIST
350
47
  3
ACAD_TABLESTYLE
350
69
  3
ACAD_VISUALSTYLE
350
2A
  3
AcDbVariableDictionary
350
382
  0
DICTIONARY
  5
389
330
8
100
AcDbDictionary
280
     1
281
     1
  3
ACAD_XREC_ROUNDTRIP
360
38A
  0
DICTIONARY
  5
D
102
{ACAD_REACTORS
330
C
102
}
330
C
100
AcDbDictionary
281
     1
  0
DICTIONARY
  5
1A
102
{ACAD_REACTORS
330
C
102
}
330
C
100
AcDbDictionary
281
     1
  3
Layout1
350
1E
  3
Model
350
22
  0
DICTIONARY
  5
43
102
{ACAD_REACTORS
330
C
102
}
330
C
100
AcDbDictionary
281
     1
  3
ByBlock
350
45
  3
ByLayer
350
44
  3
Global
350
46
  0
DICTIONARY
  5
6B
102
{ACAD_REACTORS
330
C
102
}
330
C
100
AcDbDictionary
281
     1
  3
Standard
350
6C
  0
DICTIONARY
  5
17
102
{ACAD_REACTORS
330
C
102
}
330
C
100
AcDbDictionary
281
     1
  3
Standard
350
18
  0
DICTIONARY
  5
19
102
{ACAD_REACTORS
330
C
102
}
330
C
100
AcDbDictionary
281
     1
  0
ACDBDICTIONARYWDFLT
  5
E
102
{ACAD_REACTORS
330
C
102
}
330
C
100
AcDbDictionary
281
     1
  3
Normal
350
F
100
AcDbDictionaryWithDefault
340
F
  0
DICTIONARY
  5
47
102
{ACAD_REACTORS
330
C
102
}
330
C
100
AcDbDictionary
281
     1
  3
A0
350
48
  3
A1
350
49
  3
A2
350
4A
  3
A3
350
4B
  3
A4
350
4C
  3
A5
350
4D
  3
A6
350
4E
  3
A7
350
4F
  3
A8
350
50
  3
A9
350
51
  3
B0
350
52
  3
B1
350
53
  3
B2
350
54
  3
B3
350
55
  3
B4
350
56
  3
B5
350
57
  3
B6
350
58
  3
B7
350
59
  3
B8
350
5A
  3
B9
350
5B
  3
C0
350
5C
  3
C1
350
5D
  3
C2
350
5E
  3
C3
350
5F
  3
C4
350
60
  3
C5
350
61
  3
C6
350
62
  3
C7
350
63
  3
C8
350
64
  3
C9
350
65
  3
D0
350
66
  3
D1
350
67
  3
D2
350
68
  0
DICTIONARY
  5
69
102
{ACAD_REACTORS
330
C
102
}
330
C
100
AcDbDictionary
281
     1
  3
Standard
350
6A
  0
DICTIONARY
  5
2A
102
{ACAD_REACTORS
330
C
102
}
330
C
100
AcDbDictionary
281
     1
  3
2dWireframe
350
2F
  3
Basic
350
32
  3
Brighten
350
36
  3
ColorChange
350
3A
  3
Conceptual
350
34
  3
Dim
350
35
  3
EdgeColorOff
350
3D
  3
Facepattern
350
39
  3
Flat
350
2B
  3
FlatWithEdges
350
2C
  3
Gouraud
350
2D
  3
GouraudWithEdges
350
2E
  3
Hidden
350
31
  3
JitterOff
350
3B
  3
Linepattern
350
38
  3
OverhangOff
350
3C
  3
Realistic
350
33
  3
Shaded
350
42
  3
Shaded with edges
350
41
  3
Shades of Gray
350
3E
  3
Sketchy
350
3F
  3
Thicken
350
37
  3
Wireframe
350
30
  3
X-Ray
350
40
  0
DICTIONARY
  5
382
102
{ACAD_REACTORS
330
C
102
}
330
C
100
AcDbDictionary
281
     1
  3
CANNOSCALE
350
38B
  3
CMLEADERSTYLE
350
384
  3
CTABLESTYLE
350
383
  3
DIMASSOC
350
387
  3
HIDETEXT
350
388
  3
MSLTSCALE
350
38C
  0
XRECORD
  5
38A
102
{ACAD_REACTORS
330
389
102
}
330
389
100
AcDbXrecord
280
     1
102
VTR_0.000_0.000_1.000_1.000_VISUALSTYLE
340
2F
102
VTR_0.000_0.000_1.000_1.000_GRIDDISPLAY
 70
     3
102
VTR_0.000_0.000_1.000_1.000_GRIDMAJOR
 70
     5
102
VTR_0.000_0.000_1.000_1.000_DEFAULTLIGHTING
280
     1
102
VTR_0.000_0.000_1.000_1.000_DEFAULTLIGHTINGTYPE
 70
     1
102
VTR_0.000_0.000_1.000_1.000_BRIGHTNESS
141
0.0
102
VTR_0.000_0.000_1.000_1.000_CONTRAST
142
0.0
  0
LAYOUT
  5
1E
102
{ACAD_REACTORS
330
1A
102
}
330
1A
100
AcDbPlotSettings
  1

  2
none_device
  4

  6

 40
0.0
 41
0.0
 42
0.0
 43
0.0
 44
0.0
 45
0.0
 46
0.0
 47
0.0
 48
0.0
 49
0.0
140
0.0
141
0.0
142
1.0
143
1.0
 70
   688
 72
     0
 73
     0
 74
     5
  7

 75
    16
147
1.0
148
0.0
149
0.0
100
AcDbLayout
  1
Layout1
 70
     1
 71
     1
 10
0.0
 20
0.0
 11
12.0
 21
9.0
 12
0.0
 22
0.0
 32
0.0
 14
1.000000000000000E+20
 24
1.000000000000000E+20
 34
1.000000000000000E+20
 15
-1.000000000000000E+20
 25
-1.000000000000000E+20
 35
-1.000000000000000E+20
146
0.0
 13
0.0
 23
0.0
 33
0.0
 16
1.0
 26
0.0
 36
0.0
 17
0.0
 27
1.0
 37
0.0
 76
     0
330
1B
  0
LAYOUT
  5
22
102
{ACAD_REACTORS
330
1A
102
}
330
1A
100
AcDbPlotSettings
  1

  2
none_device
  4
Letter_(8.50_x_11.00_Inches)
  6

 40
6.35
 41
6.35
 42
6.35000508
 43
6.35000508
 44
215.9
 45
279.4
 46
0.0
 47
0.0
 48
0.0
 49
0.0
140
0.0
141
0.0
142
1.0
143
1.0
 70
  1712
 72
     0
 73
     0
 74
     0
  7

 75
     0
147
1.0
148
0.0
149
0.0
100
AcDbLayout
  1
Model
 70
     1
 71
     0
 10
344.0638958645051
 20
512.5704494522346
 11
677.4223303871056
 21
747.4620839047365
 12
0.0
 22
0.0
 32
0.0
 14
344.0638958645051
 24
512.5704494522346
 34
0.0
 15
677.4223303871056
 25
747.4620839047365
 35
0.0
146
0.0
 13
0.0
 23
0.0
 33
0.0
 16
1.0
 26
0.0
 36
0.0
 17
0.0
 27
1.0
 37
0.0
 76
     0
330
1F
331
29
  0
MATERIAL
  5
45
102
{ACAD_REACTORS
330
43
102
}
102
{ACAD_XDICTIONARY
360
3BF
102
}
330
43
100
AcDbMaterial
  1
ByBlock
  0
MATERIAL
  5
44
102
{ACAD_REACTORS
330
43
102
}
102
{ACAD_XDICTIONARY
360
3BD
102
}
330
43
100
AcDbMaterial
  1
ByLayer
  0
MATERIAL
  5
46
102
{ACAD_REACTORS
330
43
102
}
102
{ACAD_XDICTIONARY
360
3C1
102
}
330
43
100
AcDbMaterial
  1
Global
  0
MLEADERSTYLE
  5
6C
102
{ACAD_REACTORS
330
6B
102
}
102
{ACAD_XDICTIONARY
360
3C4
102
}
330
6B
100
AcDbMLeaderStyle
170
     2
171
     1
172
     0
 90
        2
 40
0.0
 41
0.0
173
     1
 91
-1056964608
340
14
 92
       -2
290
     1
 42
0.09
291
     1
 43
0.36
  3
Standard
341
0
 44
0.18
300

342
11
174
     1
178
     6
175
     1
176
     0
 93
-1056964608
 45
0.18
292
     0
297
     0
 46
0.18
343
0
 94
-1056964608
 47
1.0
 49
1.0
140
1.0
293
     1
141
0.0
294
     1
177
     0
142
1.0
295
     0
296
     0
143
0.125
1001
ACAD_MLEADERVER
1070
     2
  0
MLINESTYLE
  5
18
102
{ACAD_REACTORS
330
17
102
}
330
17
100
AcDbMlineStyle
  2
Standard
 70
     0
  3

 62
   256
 51
90.0
 52
90.0
 71
     2
 49
0.5
 62
   256
  6
BYLAYER
 49
-0.5
 62
   256
  6
BYLAYER
  0
ACDBPLACEHOLDER
  5
F
102
{ACAD_REACTORS
330
E
102
}
330
E
  0
SCALE
  5
48
102
{ACAD_REACTORS
330
47
102
}
330
47
100
AcDbScale
 70
     0
300
1:1
140
1.0
141
1.0
290
     1
  0
SCALE
  5
49
102
{ACAD_REACTORS
330
47
102
}
330
47
100
AcDbScale
 70
     0
300
1:2
140
1.0
141
2.0
290
     0
  0
SCALE
  5
4A
102
{ACAD_REACTORS
330
47
102
}
330
47
100
AcDbScale
 70
     0
300
1:4
140
1.0
141
4.0
290
     0
  0
SCALE
  5
4B
102
{ACAD_REACTORS
330
47
102
}
330
47
100
AcDbScale
 70
     0
300
1:5
140
1.0
141
5.0
290
     0
  0
SCALE
  5
4C
102
{ACAD_REACTORS
330
47
102
}
330
47
100
AcDbScale
 70
     0
300
1:8
140
1.0
141
8.0
290
     0
  0
SCALE
  5
4D
102
{ACAD_REACTORS
330
47
102
}
330
47
100
AcDbScale
 70
     0
300
1:10
140
1.0
141
10.0
290
     0
  0
SCALE
  5
4E
102
{ACAD_REACTORS
330
47
102
}
330
47
100
AcDbScale
 70
     0
300
1:16
140
1.0
141
16.0
290
     0
  0
SCALE
  5
4F
102
{ACAD_REACTORS
330
47
102
}
330
47
100
AcDbScale
 70
     0
300
1:20
140
1.0
141
20.0
290
     0
  0
SCALE
  5
50
102
{ACAD_REACTORS
330
47
102
}
330
47
100
AcDbScale
 70
     0
300
1:30
140
1.0
141
30.0
290
     0
  0
SCALE
  5
51
102
{ACAD_REACTORS
330
47
102
}
330
47
100
AcDbScale
 70
     0
300
1:40
140
1.0
141
40.0
290
     0
  0
SCALE
  5
52
102
{ACAD_REACTORS
330
47
102
}
330
47
100
AcDbScale
 70
     0
300
1:50
140
1.0
141
50.0
290
     0
  0
SCALE
  5
53
102
{ACAD_REACTORS
330
47
102
}
330
47
100
AcDbScale
 70
     0
300
1:100
140
1.0
141
100.0
290
     0
  0
SCALE
  5
54
102
{ACAD_REACTORS
330
47
102
}
330
47
100
AcDbScale
 70
     0
300
2:1
140
2.0
141
1.0
290
     0
  0
SCALE
  5
55
102
{ACAD_REACTORS
330
47
102
}
330
47
100
AcDbScale
 70
     0
300
4:1
140
4.0
141
1.0
290
     0
  0
SCALE
  5
56
102
{ACAD_REACTORS
330
47
102
}
330
47
100
AcDbScale
 70
     0
300
8:1
140
8.0
141
1.0
290
     0
  0
SCALE
  5
57
102
{ACAD_REACTORS
330
47
102
}
330
47
100
AcDbScale
 70
     0
300
10:1
140
10.0
141
1.0
290
     0
  0
SCALE
  5
58
102
{ACAD_REACTORS
330
47
102
}
330
47
100
AcDbScale
 70
     0
300
100:1
140
100.0
141
1.0
290
     0
  0
SCALE
  5
59
102
{ACAD_REACTORS
330
47
102
}
330
47
100
AcDbScale
 70
     0
300
1/128" = 1'-0"
140
0.0078125
141
12.0
290
     0
  0
SCALE
  5
5A
102
{ACAD_REACTORS
330
47
102
}
330
47
100
AcDbScale
 70
     0
300
1/64" = 1'-0"
140
0.015625
141
12.0
290
     0
  0
SCALE
  5
5B
102
{ACAD_REACTORS
330
47
102
}
330
47
100
AcDbScale
 70
     0
300
1/32" = 1'-0"
140
0.03125
141
12.0
290
     0
  0
SCALE
  5
5C
102
{ACAD_REACTORS
330
47
102
}
330
47
100
AcDbScale
 70
     0
300
1/16" = 1'-0"
140
0.0625
141
12.0
290
     0
  0
SCALE
  5
5D
102
{ACAD_REACTORS
330
47
102
}
330
47
100
AcDbScale
 70
     0
300
3/32" = 1'-0"
140
0.09375
141
12.0
290
     0
  0
SCALE
  5
5E
102
{ACAD_REACTORS
330
47
102
}
330
47
100
AcDbScale
 70
     0
300
1/8" = 1'-0"
140
0.125
141
12.0
290
     0
  0
SCALE
  5
5F
102
{ACAD_REACTORS
330
47
102
}
330
47
100
AcDbScale
 70
     0
300
3/16" = 1'-0"
140
0.1875
141
12.0
290
     0
  0
SCALE
  5
60
102
{ACAD_REACTORS
330
47
102
}
330
47
100
AcDbScale
 70
     0
300
1/4" = 1'-0"
140
0.25
141
12.0
290
     0
  0
SCALE
  5
61
102
{ACAD_REACTORS
330
47
102
}
330
47
100
AcDbScale
 70
     0
300
3/8" = 1'-0"
140
0.375
141
12.0
290
     0
  0
SCALE
  5
62
102
{ACAD_REACTORS
330
47
102
}
330
47
100
AcDbScale
 70
     0
300
1/2" = 1'-0"
140
0.5
141
12.0
290
     0
  0
SCALE
  5
63
102
{ACAD_REACTORS
330
47
102
}
330
47
100
AcDbScale
 70
     0
300
3/4" = 1'-0"
140
0.75
141
12.0
290
     0
  0
SCALE
  5
64
102
{ACAD_REACTORS
330
47
102
}
330
47
100
AcDbScale
 70
     0
300
1" = 1'-0"
140
1.0
141
12.0
290
     0
  0
SCALE
  5
65
102
{ACAD_REACTORS
330
47
102
}
330
47
100
AcDbScale
 70
     0
300
1-1/2" = 1'-0"
140
1.5
141
12.0
290
     0
  0
SCALE
  5
66
102
{ACAD_REACTORS
330
47
102
}
330
47
100
AcDbScale
 70
     0
300
3" = 1'-0"
140
3.0
141
12.0
290
     0
  0
SCALE
  5
67
102
{ACAD_REACTORS
330
47
102
}
330
47
100
AcDbScale
 70
     0
300
6" = 1'-0"
140
6.0
141
12.0
290
     0
  0
SCALE
  5
68
102
{ACAD_REACTORS
330
47
102
}
330
47
100
AcDbScale
 70
     0
300
1'-0" = 1'-0"
140
12.0
141
12.0
290
     0
  0
TABLESTYLE
  5
6A
102
{ACAD_REACTORS
330
69
102
}
330
69
100
AcDbTableStyle
  3
Standard
 70
     0
 71
     0
 40
0.06
 41
0.06
280
     0
281
     0
  7
Standard
140
0.18
170
     2
 62
     0
 63
   257
283
     0
274
    -2
284
     1
 64
     0
275
    -2
285
     1
 65
     0
276
    -2
286
     1
 66
     0
277
    -2
287
     1
 67
     0
278
    -2
288
     1
 68
     0
279
    -2
289
     1
 69
     0
  7
Standard
140
0.25
170
     5
 62
     0
 63
   257
283
     0
274
    -2
284
     1
 64
     0
275
    -2
285
     1
 65
     0
276
    -2
286
     1
 66
     0
277
    -2
287
     1
 67
     0
278
    -2
288
     1
 68
     0
279
    -2
289
     1
 69
     0
  7
Standard
140
0.18
170
     5
 62
     0
 63
   257
283
     0
274
    -2
284
     1
 64
     0
275
    -2
285
     1
 65
     0
276
    -2
286
     1
 66
     0
277
    -2
287
     1
 67
     0
278
    -2
288
     1
 68
     0
279
    -2
289
     1
 69
     0
  0
VISUALSTYLE
  5
2F
102
{ACAD_REACTORS
330
2A
102
}
102
{ACAD_XDICTIONARY
360
395
102
}
330
2A
100
AcDbVisualStyle
  2
2dWireframe
 70
     4
 71
     0
 72
     2
 73
     0
 90
        0
 40
0.6
 41
30.0
 62
     5
 63
     7
 74
     1
 91
        4
 64
     7
 65
   257
 75
     1
175
     1
 42
1.0
 92
        0
 66
   257
 43
1.0
 76
     1
 77
     6
 78
     2
 67
     7
 79
     5
170
     0
171
     0
290
     0
174
     0
 93
        1
 44
0.0
173
     0
291
     0
 45
0.0
1001
ACAD
1000
AcDbSavedByObjectVersion
1070
     0
  0
VISUALSTYLE
  5
32
102
{ACAD_REACTORS
330
2A
102
}
102
{ACAD_XDICTIONARY
360
39B
102
}
330
2A
100
AcDbVisualStyle
  2
Basic
 70
     7
 71
     1
 72
     0
 73
     1
 90
        0
 40
0.6
 41
30.0
 62
     5
 63
     7
 74
     0
 91
        4
 64
     7
 65
   257
 75
     1
175
     1
 42
1.0
 92
        8
 66
     7
 43
1.0
 76
     1
 77
     6
 78
     2
 67
     7
 79
     5
170
     0
171
     0
290
     0
174
     0
 93
        1
 44
0.0
173
     0
291
     1
 45
0.0
1001
ACAD
1000
AcDbSavedByObjectVersion
1070
     0
  0
VISUALSTYLE
  5
36
102
{ACAD_REACTORS
330
2A
102
}
102
{ACAD_XDICTIONARY
360
3A3
102
}
330
2A
100
AcDbVisualStyle
  2
Brighten
 70
    12
 71
     2
 72
     2
 73
     0
 90
        0
 40
0.6
 41
30.0
 62
     5
 63
     7
 74
     1
 91
        4
 64
     7
 65
   257
 75
     1
175
     1
 42
1.0
 92
        8
 66
     7
 43
1.0
 76
     1
 77
     6
 78
     2
 67
     7
 79
     5
170
     0
171
     0
290
     0
174
     0
 93
        1
 44
50.0
173
     0
291
     1
 45
0.0
1001
ACAD
1000
AcDbSavedByObjectVersion
1070
     0
  0
VISUALSTYLE
  5
3A
102
{ACAD_REACTORS
330
2A
102
}
102
{ACAD_XDICTIONARY
360
3AB
102
}
330
2A
100
AcDbVisualStyle
  2
ColorChange
 70
    16
 71
     2
 72
     2
 73
     3
 90
        0
 40
0.6
 41
30.0
 62
     5
 63
     8
 74
     1
 91
        4
 64
     7
 65
   257
 75
     1
175
     1
 42
1.0
 92
        8
 66
     8
 43
1.0
 76
     1
 77
     6
 78
     2
 67
     7
 79
     5
170
     0
171
     0
290
     0
174
     0
 93
        1
 44
0.0
173
     0
291
     1
 45
0.0
1001
ACAD
1000
AcDbSavedByObjectVersion
1070
     0
  0
VISUALSTYLE
  5
34
102
{ACAD_REACTORS
330
2A
102
}
102
{ACAD_XDICTIONARY
360
39F
102
}
330
2A
100
AcDbVisualStyle
  2
Conceptual
 70
     9
 71
     3
 72
     2
 73
     0
 90
        0
 40
0.6
 41
30.0
 62
     5
 63
     7
 74
     2
 91
        2
 64
     7
 65
   257
 75
     1
175
     1
 42
179.0
 92
        8
 66
     7
 43
1.0
 76
     1
 77
     6
 78
     2
 67
     7
 79
     3
170
     0
171
     0
290
     0
174
     0
 93
        1
 44
0.0
173
     0
291
     0
 45
0.0
1001
ACAD
1000
AcDbSavedByObjectVersion
1070
     0
  0
VISUALSTYLE
  5
35
102
{ACAD_REACTORS
330
2A
102
}
102
{ACAD_XDICTIONARY
360
3A1
102
}
330
2A
100
AcDbVisualStyle
  2
Dim
 70
    11
 71
     2
 72
     2
 73
     0
 90
        0
 40
0.6
 41
30.0
 62
     5
 63
     7
 74
     1
 91
        4
 64
     7
 65
   257
 75
     1
175
     1
 42
1.0
 92
        8
 66
     7
 43
1.0
 76
     1
 77
     6
 78
     2
 67
     7
 79
     5
170
     0
171
     0
290
     0
174
     0
 93
        1
 44
-50.0
173
     0
291
     1
 45
0.0
1001
ACAD
1000
AcDbSavedByObjectVersion
1070
     0
  0
VISUALSTYLE
  5
3D
102
{ACAD_REACTORS
330
2A
102
}
102
{ACAD_XDICTIONARY
360
3B1
102
}
330
2A
100
AcDbVisualStyle
  2
EdgeColorOff
 70
    22
 71
     2
 72
     2
 73
     0
 90
        0
 40
0.6
 41
30.0
 62
     5
 63
     7
 74
     1
 91
        4
 64
     7
 65
   257
 75
     1
175
     1
 42
1.0
 92
        8
 66
     7
 43
1.0
 76
     1
 77
     6
 78
     2
 67
     7
 79
     5
170
     0
171
     0
290
     0
174
     0
 93
        1
 44
0.0
173
     0
291
     1
 45
0.0
1001
ACAD
1000
AcDbSavedByObjectVersion
1070
     0
  0
VISUALSTYLE
  5
39
102
{ACAD_REACTORS
330
2A
102
}
102
{ACAD_XDICTIONARY
360
3A9
102
}
330
2A
100
AcDbVisualStyle
  2
Facepattern
 70
    15
 71
     2
 72
     2
 73
     0
 90
        0
 40
0.6
 41
30.0
 62
     5
 63
     7
 74
     1
 91
        4
 64
     7
 65
   257
 75
     1
175
     1
 42
1.0
 92
        8
 66
     7
 43
1.0
 76
     1
 77
     6
 78
     2
 67
     7
 79
     5
170
     0
171
     0
290
     0
174
     0
 93
        1
 44
0.0
173
     0
291
     1
 45
0.0
1001
ACAD
1000
AcDbSavedByObjectVersion
1070
     0
  0
VISUALSTYLE
  5
2B
102
{ACAD_REACTORS
330
2A
102
}
102
{ACAD_XDICTIONARY
360
38D
102
}
330
2A
100
AcDbVisualStyle
  2
Flat
 70
     0
 71
     2
 72
     1
 73
     1
 90
        2
 40
0.6
 41
30.0
 62
     5
 63
     7
 74
     0
 91
        0
 64
     7
 65
   257
 75
     1
175
     1
 42
1.0
 92
        8
 66
     7
 43
1.0
 76
     1
 77
     6
 78
     2
 67
     7
 79
     5
170
     0
171
     0
290
     0
174
     0
 93
       13
 44
0.0
173
     0
291
     1
 45
0.0
1001
ACAD
1000
AcDbSavedByObjectVersion
1070
     0
  0
VISUALSTYLE
  5
2C
102
{ACAD_REACTORS
330
2A
102
}
102
{ACAD_XDICTIONARY
360
38F
102
}
330
2A
100
AcDbVisualStyle
  2
FlatWithEdges
 70
     1
 71
     2
 72
     1
 73
     1
 90
        2
 40
0.6
 41
30.0
 62
     5
 63
     7
 74
     1
 91
        0
 64
     7
 65
   257
 75
     1
175
     1
 42
1.0
 92
        0
 66
   257
 43
1.0
 76
     1
 77
     6
 78
     2
 67
     7
 79
     5
170
     0
171
     0
290
     0
174
     0
 93
       13
 44
0.0
173
     0
291
     1
 45
0.0
1001
ACAD
1000
AcDbSavedByObjectVersion
1070
     0
  0
VISUALSTYLE
  5
2D
102
{ACAD_REACTORS
330
2A
102
}
102
{ACAD_XDICTIONARY
360
391
102
}
330
2A
100
AcDbVisualStyle
  2
Gouraud
 70
     2
 71
     2
 72
     2
 73
     1
 90
        2
 40
0.6
 41
30.0
 62
     5
 63
     7
 74
     0
 91
        0
 64
     7
 65
   257
 75
     1
175
     1
 42
1.0
 92
        0
 66
     7
 43
1.0
 76
     1
 77
     6
 78
     2
 67
     7
 79
     5
170
     0
171
     0
290
     0
174
     0
 93
       13
 44
0.0
173
     0
291
     1
 45
0.0
1001
ACAD
1000
AcDbSavedByObjectVersion
1070
     0
  0
VISUALSTYLE
  5
2E
102
{ACAD_REACTORS
330
2A
102
}
102
{ACAD_XDICTIONARY
360
393
102
}
330
2A
100
AcDbVisualStyle
  2
GouraudWithEdges
 70
     3
 71
     2
 72
     2
 73
     1
 90
        2
 40
0.6
 41
30.0
 62
     5
 63
     7
 74
     1
 91
        0
 64
     7
 65
   257
 75
     1
175
     1
 42
1.0
 92
        0
 66
   257
 43
1.0
 76
     1
 77
     6
 78
     2
 67
     7
 79
     5
170
     0
171
     0
290
     0
174
     0
 93
       13
 44
0.0
173
     0
291
     1
 45
0.0
1001
ACAD
1000
AcDbSavedByObjectVersion
1070
     0
  0
VISUALSTYLE
  5
31
102
{ACAD_REACTORS
330
2A
102
}
102
{ACAD_XDICTIONARY
360
399
102
}
330
2A
100
AcDbVisualStyle
  2
Hidden
 70
     6
 71
     1
 72
     2
 73
     2
 90
        0
 40
0.6
 41
30.0
 62
     5
 63
     7
 74
     2
 91
        2
 64
     7
 65
   257
 75
     2
175
     1
 42
40.0
 92
        0
 66
   257
 43
1.0
 76
     1
 77
     6
 78
     2
 67
     7
 79
     3
170
     0
171
     0
290
     0
174
     0
 93
        1
 44
0.0
173
     0
291
     0
 45
0.0
1001
ACAD
1000
AcDbSavedByObjectVersion
1070
     0
  0
VISUALSTYLE
  5
3B
102
{ACAD_REACTORS
330
2A
102
}
102
{ACAD_XDICTIONARY
360
3AD
102
}
330
2A
100
AcDbVisualStyle
  2
JitterOff
 70
    20
 71
     2
 72
     2
 73
     0
 90
        0
 40
0.6
 41
30.0
 62
     5
 63
     7
 74
     1
 91
        4
 64
     7
 65
   257
 75
     1
175
     1
 42
1.0
 92
       10
 66
     7
 43
1.0
 76
     1
 77
     6
 78
     2
 67
     7
 79
     5
170
     0
171
     0
290
     0
174
     0
 93
        1
 44
0.0
173
     0
291
     1
 45
0.0
1001
ACAD
1000
AcDbSavedByObjectVersion
1070
     0
  0
VISUALSTYLE
  5
38
102
{ACAD_REACTORS
330
2A
102
}
102
{ACAD_XDICTIONARY
360
3A7
102
}
330
2A
100
AcDbVisualStyle
  2
Linepattern
 70
    14
 71
     2
 72
     2
 73
     0
 90
        0
 40
0.6
 41
30.0
 62
     5
 63
     7
 74
     1
 91
        4
 64
     7
 65
   257
 75
     7
175
     7
 42
1.0
 92
        8
 66
     7
 43
1.0
 76
     1
 77
     6
 78
     2
 67
     7
 79
     5
170
     0
171
     0
290
     0
174
     0
 93
        1
 44
0.0
173
     0
291
     1
 45
0.0
1001
ACAD
1000
AcDbSavedByObjectVersion
1070
     0
  0
VISUALSTYLE
  5
3C
102
{ACAD_REACTORS
330
2A
102
}
102
{ACAD_XDICTIONARY
360
3AF
102
}
330
2A
100
AcDbVisualStyle
  2
OverhangOff
 70
    21
 71
     2
 72
     2
 73
     0
 90
        0
 40
0.6
 41
30.0
 62
     5
 63
     7
 74
     1
 91
        4
 64
     7
 65
   257
 75
     1
175
     1
 42
1.0
 92
        9
 66
     7
 43
1.0
 76
     1
 77
     6
 78
     2
 67
     7
 79
     5
170
     0
171
     0
290
     0
174
     0
 93
        1
 44
0.0
173
     0
291
     1
 45
0.0
1001
ACAD
1000
AcDbSavedByObjectVersion
1070
     0
  0
VISUALSTYLE
  5
33
102
{ACAD_REACTORS
330
2A
102
}
102
{ACAD_XDICTIONARY
360
39D
102
}
330
2A
100
AcDbVisualStyle
  2
Realistic
 70
     8
 71
     2
 72
     3
 73
     0
 90
        2
 40
0.6
 41
30.0
 62
     5
 63
     7
 74
     0
 91
        0
 64
     7
 65
   257
 75
     1
175
     1
 42
1.0
 92
        8
 66
   257
 43
1.0
 76
     1
 77
     6
 78
     2
 67
     7
 79
     3
170
     0
171
     0
290
     0
174
     0
 93
       13
 44
0.0
173
     0
291
     0
 45
0.0
1001
ACAD
1000
AcDbSavedByObjectVersion
1070
     0
  0
VISUALSTYLE
  5
42
102
{ACAD_REACTORS
330
2A
102
}
102
{ACAD_XDICTIONARY
360
3BB
102
}
330
2A
100
AcDbVisualStyle
  2
Shaded
 70
    27
 71
     2
 72
     2
 73
     1
 90
        2
 40
0.6
 41
30.0
 62
     5
 63
     7
 74
     0
 91
        4
 64
     7
 65
   257
 75
     1
175
     1
 42
1.0
 92
        8
 66
   257
 43
1.0
 76
     1
 77
     6
 78
     2
 67
     8
 79
     3
170
     0
171
     0
290
     0
174
     0
 93
        5
 44
0.0
173
     0
291
     0
 45
0.0
1001
ACAD
1000
AcDbSavedByObjectVersion
1070
     0
  0
VISUALSTYLE
  5
41
102
{ACAD_REACTORS
330
2A
102
}
102
{ACAD_XDICTIONARY
360
3B9
102
}
330
2A
100
AcDbVisualStyle
  2
Shaded with edges
 70
    26
 71
     2
 72
     2
 73
     1
 90
        2
 40
0.6
 41
30.0
 62
     5
 63
     7
 74
     1
 91
       10
 64
     7
 65
   257
 75
     2
175
     1
 42
1.0
 92
        8
 66
   257
 43
1.0
 76
     1
 77
     6
 78
     2
 67
     7
 79
     3
170
     0
171
     0
290
     0
174
     0
 93
        5
 44
0.0
173
     0
291
     0
 45
0.0
1001
ACAD
1000
AcDbSavedByObjectVersion
1070
     0
  0
VISUALSTYLE
  5
3E
102
{ACAD_REACTORS
330
2A
102
}
102
{ACAD_XDICTIONARY
360
3B3
102
}
330
2A
100
AcDbVisualStyle
  2
Shades of Gray
 70
    23
 71
     2
 72
     2
 73
     3
 90
        0
 40
0.6
 41
30.0
 62
     5
 63
     7
 74
     2
 91
        2
 64
     7
 65
     7
 75
     1
175
     1
 42
40.0
 92
        8
 66
     7
 43
1.0
 76
     1
 77
     6
 78
     2
 67
     7
 79
     3
170
     0
171
     0
290
     0
174
     0
 93
        1
 44
0.0
173
     0
291
     0
 45
0.0
1001
ACAD
1000
AcDbSavedByObjectVersion
1070
     0
  0
VISUALSTYLE
  5
3F
102
{ACAD_REACTORS
330
2A
102
}
102
{ACAD_XDICTIONARY
360
3B5
102
}
330
2A
100
AcDbVisualStyle
  2
Sketchy
 70
    24
 71
     1
 72
     2
 73
     2
 90
        0
 40
0.6
 41
30.0
 62
     5
 63
     7
 74
     2
 91
        2
 64
     7
 65
     7
 75
     1
175
     1
 42
40.0
 92
       11
 66
     7
 43
1.0
 76
     1
 77
     6
 78
     2
 67
     7
 79
     6
170
     0
171
     0
290
     0
174
     0
 93
        1
 44
0.0
173
     0
291
     0
 45
0.0
1001
ACAD
1000
AcDbSavedByObjectVersion
1070
     0
  0
VISUALSTYLE
  5
37
102
{ACAD_REACTORS
330
2A
102
}
102
{ACAD_XDICTIONARY
360
3A5
102
}
330
2A
100
AcDbVisualStyle
  2
Thicken
 70
    13
 71
     2
 72
     2
 73
     0
 90
        0
 40
0.6
 41
30.0
 62
     5
 63
     7
 74
     1
 91
        4
 64
     7
 65
   257
 75
     1
175
     1
 42
1.0
 92
       12
 66
     7
 43
1.0
 76
     1
 77
     6
 78
     2
 67
     7
 79
     5
170
     0
171
     0
290
     0
174
     0
 93
        1
 44
0.0
173
     0
291
     1
 45
0.0
1001
ACAD
1000
AcDbSavedByObjectVersion
1070
     0
  0
VISUALSTYLE
  5
30
102
{ACAD_REACTORS
330
2A
102
}
102
{ACAD_XDICTIONARY
360
397
102
}
330
2A
100
AcDbVisualStyle
  2
Wireframe
 70
     5
 71
     0
 72
     2
 73
     0
 90
        0
 40
0.6
 41
30.0
 62
     5
 63
     7
 74
     1
 91
        4
 64
     7
 65
   257
 75
     1
175
     1
 42
1.0
 92
        0
 66
   257
 43
1.0
 76
     1
 77
     6
 78
     2
 67
     7
 79
     3
170
     0
171
     0
290
     0
174
     0
 93
        1
 44
0.0
173
     0
291
     0
 45
0.0
1001
ACAD
1000
AcDbSavedByObjectVersion
1070
     0
  0
VISUALSTYLE
  5
40
102
{ACAD_REACTORS
330
2A
102
}
102
{ACAD_XDICTIONARY
360
3B7
102
}
330
2A
100
AcDbVisualStyle
  2
X-Ray
 70
    25
 71
     2
 72
     2
 73
     1
 90
        1
 40
0.5
 41
30.0
 62
     5
 63
     7
 74
     1
 91
        0
 64
     7
 65
   257
 75
     1
175
     1
 42
1.0
 92
        8
 66
     7
 43
1.0
 76
     1
 77
     6
 78
     2
 67
     7
 79
     3
170
     0
171
     0
290
     0
174
     0
 93
       13
 44
0.0
173
     0
291
     0
 45
0.0
1001
ACAD
1000
AcDbSavedByObjectVersion
1070
     0
  0
DICTIONARYVAR
  5
38B
102
{ACAD_REACTORS
330
382
102
}
330
382
100
DictionaryVariables
280
     0
  1
1:1
  0
DICTIONARYVAR
  5
384
102
{ACAD_REACTORS
330
382
102
}
330
382
100
DictionaryVariables
280
     0
  1
Standard
  0
DICTIONARYVAR
  5
383
102
{ACAD_REACTORS
330
382
102
}
330
382
100
DictionaryVariables
280
     0
  1
Standard
  0
DICTIONARYVAR
  5
387
102
{ACAD_REACTORS
330
382
102
}
330
382
100
DictionaryVariables
280
     0
  1
2
  0
DICTIONARYVAR
  5
388
102
{ACAD_REACTORS
330
382
102
}
330
382
100
DictionaryVariables
280
     0
  1
1
  0
DICTIONARYVAR
  5
38C
102
{ACAD_REACTORS
330
382
102
}
330
382
100
DictionaryVariables
280
     0
  1
1
  0
DICTIONARY
  5
3BF
330
45
100
AcDbDictionary
280
     1
281
     1
  3
ACAD_XREC_ROUNDTRIP
360
3C0
  0
DICTIONARY
  5
3BD
330
44
100
AcDbDictionary
280
     1
281
     1
  3
ACAD_XREC_ROUNDTRIP
360
3BE
  0
DICTIONARY
  5
3C1
330
46
100
AcDbDictionary
280
     1
281
     1
  3
ACAD_XREC_ROUNDTRIP
360
3C2
  0
DICTIONARY
  5
3C4
330
6C
100
AcDbDictionary
280
     1
281
     1
  3
ACAD_XREC_ROUNDTRIP
360
3C5
  0
DICTIONARY
  5
395
330
2F
100
AcDbDictionary
280
     1
281
     1
  3
ACAD_XREC_ROUNDTRIP
360
396
  0
DICTIONARY
  5
39B
330
32
100
AcDbDictionary
280
     1
281
     1
  3
ACAD_XREC_ROUNDTRIP
360
39C
  0
DICTIONARY
  5
3A3
330
36
100
AcDbDictionary
280
     1
281
     1
  3
ACAD_XREC_ROUNDTRIP
360
3A4
  0
DICTIONARY
  5
3AB
330
3A
100
AcDbDictionary
280
     1
281
     1
  3
ACAD_XREC_ROUNDTRIP
360
3AC
  0
DICTIONARY
  5
39F
330
34
100
AcDbDictionary
280
     1
281
     1
  3
ACAD_XREC_ROUNDTRIP
360
3A0
  0
DICTIONARY
  5
3A1
330
35
100
AcDbDictionary
280
     1
281
     1
  3
ACAD_XREC_ROUNDTRIP
360
3A2
  0
DICTIONARY
  5
3B1
330
3D
100
AcDbDictionary
280
     1
281
     1
  3
ACAD_XREC_ROUNDTRIP
360
3B2
  0
DICTIONARY
  5
3A9
330
39
100
AcDbDictionary
280
     1
281
     1
  3
ACAD_XREC_ROUNDTRIP
360
3AA
  0
DICTIONARY
  5
38D
330
2B
100
AcDbDictionary
280
     1
281
     1
  3
ACAD_XREC_ROUNDTRIP
360
38E
  0
DICTIONARY
  5
38F
330
2C
100
AcDbDictionary
280
     1
281
     1
  3
ACAD_XREC_ROUNDTRIP
360
390
  0
DICTIONARY
  5
391
330
2D
100
AcDbDictionary
280
     1
281
     1
  3
ACAD_XREC_ROUNDTRIP
360
392
  0
DICTIONARY
  5
393
330
2E
100
AcDbDictionary
280
     1
281
     1
  3
ACAD_XREC_ROUNDTRIP
360
394
  0
DICTIONARY
  5
399
330
31
100
AcDbDictionary
280
     1
281
     1
  3
ACAD_XREC_ROUNDTRIP
360
39A
  0
DICTIONARY
  5
3AD
330
3B
100
AcDbDictionary
280
     1
281
     1
  3
ACAD_XREC_ROUNDTRIP
360
3AE
  0
DICTIONARY
  5
3A7
330
38
100
AcDbDictionary
280
     1
281
     1
  3
ACAD_XREC_ROUNDTRIP
360
3A8
  0
DICTIONARY
  5
3AF
330
3C
100
AcDbDictionary
280
     1
281
     1
  3
ACAD_XREC_ROUNDTRIP
360
3B0
  0
DICTIONARY
  5
39D
330
33
100
AcDbDictionary
280
     1
281
     1
  3
ACAD_XREC_ROUNDTRIP
360
39E
  0
DICTIONARY
  5
3BB
330
42
100
AcDbDictionary
280
     1
281
     1
  3
ACAD_XREC_ROUNDTRIP
360
3BC
  0
DICTIONARY
  5
3B9
330
41
100
AcDbDictionary
280
     1
281
     1
  3
ACAD_XREC_ROUNDTRIP
360
3BA
  0
DICTIONARY
  5
3B3
330
3E
100
AcDbDictionary
280
     1
281
     1
  3
ACAD_XREC_ROUNDTRIP
360
3B4
  0
DICTIONARY
  5
3B5
330
3F
100
AcDbDictionary
280
     1
281
     1
  3
ACAD_XREC_ROUNDTRIP
360
3B6
  0
DICTIONARY
  5
3A5
330
37
100
AcDbDictionary
280
     1
281
     1
  3
ACAD_XREC_ROUNDTRIP
360
3A6
  0
DICTIONARY
  5
397
330
30
100
AcDbDictionary
280
     1
281
     1
  3
ACAD_XREC_ROUNDTRIP
360
398
  0
DICTIONARY
  5
3B7
330
40
100
AcDbDictionary
280
     1
281
     1
  3
ACAD_XREC_ROUNDTRIP
360
3B8
  0
XRECORD
  5
3C0
102
{ACAD_REACTORS
330
3BF
102
}
330
3BF
100
AcDbXrecord
280
     1
102
MATERIAL
148
0.0
149
0.0
149
0.0
 93
        0
 94
      127
282
     0
 72
     1
 77
     1
171
     1
175
     1
179
     1
273
     0
  0
XRECORD
  5
3BE
102
{ACAD_REACTORS
330
3BD
102
}
330
3BD
100
AcDbXrecord
280
     1
102
MATERIAL
148
0.0
149
0.0
149
0.0
 93
        0
 94
      127
282
     0
 72
     1
 77
     1
171
     1
175
     1
179
     1
273
     0
  0
XRECORD
  5
3C2
102
{ACAD_REACTORS
330
3C1
102
}
330
3C1
100
AcDbXrecord
280
     1
102
MATERIAL
148
0.0
149
0.0
149
0.0
 93
        0
 94
      127
282
     0
 72
     1
 77
     1
171
     1
175
     1
179
     1
273
     0
  0
XRECORD
  5
3C5
102
{ACAD_REACTORS
330
3C4
102
}
330
3C4
100
AcDbXrecord
280
     1
102
ACAD_ROUNDTRIP_2010_MLEADER_STYLE
  0
XRECORD
  5
396
102
{ACAD_REACTORS
330
395
102
}
330
395
100
AcDbXrecord
280
     1
102
RTVSPropertyOp0
 70
     1
102
RTVSPropertyOp1
 70
     1
102
RTVSPropertyOp2
 70
     1
102
RTVSPropertyOp3
 70
     1
102
RTVSPropertyOp4
 70
     1
102
RTVSPropertyOp5
 70
     1
102
RTVSPropertyOp6
 70
     1
102
RTVSPropertyOp7
 70
     1
102
RTVSPropertyOp8
 70
     1
102
RTVSPropertyOp9
 70
     1
102
RTVSPropertyOp10
 70
     1
102
RTVSPropertyOp11
 70
     1
102
RTVSPropertyOp12
 70
     1
102
RTVSPropertyOp13
 70
     1
102
RTVSPropertyOp14
 70
     1
102
RTVSPropertyOp15
 70
     1
102
RTVSPropertyOp16
 70
     1
102
RTVSPropertyOp17
 70
     1
102
RTVSPropertyOp18
 70
     1
102
RTVSPropertyOp19
 70
     1
102
RTVSPropertyOp20
 70
     1
102
RTVSPropertyOp21
 70
     1
102
RTVSPropertyOp22
 70
     1
102
RTVSPropertyOp23
 70
     1
102
RTVSPropertyOp24
 70
     1
102
RTVSPropertyOp25
 70
     1
102
RTVSPropertyOp26
 70
     1
102
RTVSPropertyOp27
 70
     1
102
RTVSPropertyOp28
 70
     1
102
RTVSPropertyOp29
 70
     1
102
RTVSPropertyOp30
 70
     1
102
RTVSPropertyOp31
 70
     1
102
RTVSPropertyOp32
 70
     1
102
RTVSPropertyOp33
 70
     1
102
RTVSPropertyOp34
 70
     1
102
RTVSPropertyOp35
 70
     1
102
RTVSPropertyOp36
 70
     1
102
RTVSPropertyOp37
 70
     1
102
RTVSPropertyOp38
 70
     1
102
RTVSPropertyOp39
 70
     1
102
RTVSPropertyOp40
 70
     1
102
RTVSPropertyOp41
 70
     1
102
RTVSPropertyOp42
 70
     1
102
RTVSPropertyOp43
 70
     1
102
RTVSPropertyOp44
 70
     1
102
RTVSPropertyOp45
 70
     1
102
RTVSPropertyOp46
 70
     1
102
RTVSPropertyOp47
 70
     1
102
RTVSPropertyOp48
 70
     1
102
RTVSPropertyOp49
 70
     1
102
RTVSPropertyOp50
 70
     1
102
RTVSPropertyOp51
 70
     0
102
RTVSPropertyOp52
 70
     0
102
RTVSPropertyOp53
 70
     1
102
RTVSPropertyOp54
 70
     1
102
RTVSPropertyOp55
 70
     1
102
RTVSPropertyOp56
 70
     1
102
RTVSPropertyOp57
 70
     1
102
RTVSPost2010Prop28
280
     1
102
RTVSPost2010PropOp28
 70
     1
102
RTVSPost2010Prop29
280
     1
102
RTVSPost2010PropOp29
 70
     1
102
RTVSPost2010Prop30
280
     0
102
RTVSPost2010PropOp30
 70
     1
102
RTVSPost2010Prop31
280
     0
102
RTVSPost2010PropOp31
 70
     1
102
RTVSPost2010Prop32
280
     0
102
RTVSPost2010PropOp32
 70
     1
102
RTVSPost2010Prop33
280
     0
102
RTVSPost2010PropOp33
 70
     1
102
RTVSPost2010Prop34
280
     0
102
RTVSPost2010PropOp34
 70
     1
102
RTVSPost2010Prop35
280
     0
102
RTVSPost2010PropOp35
 70
     1
102
RTVSPost2010Prop36
280
     0
102
RTVSPost2010PropOp36
 70
     1
102
RTVSPost2010Prop37
 90
       50
102
RTVSPost2010PropOp37
 70
     1
102
RTVSPost2010Prop38
140
0.0
102
RTVSPost2010PropOp38
 70
     1
102
RTVSPost2010Prop39
140
1.0
102
RTVSPost2010PropOp39
 70
     1
102
RTVSPost2010Prop40
 90
        0
102
RTVSPost2010PropOp40
 70
     1
102
RTVSPost2010Prop41ColorIndex
 90
       18
102
RTVSPost2010Prop41ColorRGB
 90
        0
102
RTVSPost2010PropOp41
 70
     1
102
RTVSPost2010Prop42
 90
       50
102
RTVSPost2010PropOp42
 70
     1
102
RTVSPost2010Prop43
 90
        3
102
RTVSPost2010PropOp43
 70
     1
102
RTVSPost2010Prop44ColorIndex
 90
        5
102
RTVSPost2010Prop44ColorRGB
 90
      255
102
RTVSPost2010PropOp44
 70
     1
102
RTVSPost2010Prop45
280
     0
102
RTVSPost2010PropOp45
 70
     1
102
RTVSPost2010Prop46
 90
       50
102
RTVSPost2010PropOp46
 70
     1
102
RTVSPost2010Prop47
 90
       50
102
RTVSPost2010PropOp47
 70
     1
102
RTVSPost2010Prop48
 90
       50
102
RTVSPost2010PropOp48
 70
     1
102
RTVSPost2010Prop49
280
     0
102
RTVSPost2010PropOp49
 70
     1
102
RTVSPost2010Prop50
 90
       50
102
RTVSPost2010PropOp50
 70
     1
102
RTVSPost2010Prop51ColorIndex
 90
      256
102
RTVSPost2010Prop51ColorRGB
 90
-16777216
102
RTVSPost2010PropOp51
 70
     0
102
RTVSPost2010Prop52
140
1.0
102
RTVSPost2010PropOp52
 70
     0
102
RTVSPost2010Prop53
 90
        2
102
RTVSPost2010PropOp53
 70
     1
102
RTVSPost2010Prop54
  1
strokes_ogs.tif
102
RTVSPost2010PropOp54
 70
     1
102
RTVSPost2010Prop55
280
     0
102
RTVSPost2010PropOp55
 70
     1
102
RTVSPost2010Prop56
140
1.0
102
RTVSPost2010PropOp56
 70
     1
102
RTVSPost2010Prop57
140
1.0
102
RTVSPost2010PropOp57
 70
     1
  0
XRECORD
  5
39C
102
{ACAD_REACTORS
330
39B
102
}
330
39B
100
AcDbXrecord
280
     1
102
RTVSPropertyOp0
 70
     1
102
RTVSPropertyOp1
 70
     1
102
RTVSPropertyOp2
 70
     1
102
RTVSPropertyOp3
 70
     1
102
RTVSPropertyOp4
 70
     1
102
RTVSPropertyOp5
 70
     1
102
RTVSPropertyOp6
 70
     1
102
RTVSPropertyOp7
 70
     1
102
RTVSPropertyOp8
 70
     1
102
RTVSPropertyOp9
 70
     1
102
RTVSPropertyOp10
 70
     1
102
RTVSPropertyOp11
 70
     1
102
RTVSPropertyOp12
 70
     1
102
RTVSPropertyOp13
 70
     1
102
RTVSPropertyOp14
 70
     1
102
RTVSPropertyOp15
 70
     1
102
RTVSPropertyOp16
 70
     1
102
RTVSPropertyOp17
 70
     1
102
RTVSPropertyOp18
 70
     1
102
RTVSPropertyOp19
 70
     1
102
RTVSPropertyOp20
 70
     1
102
RTVSPropertyOp21
 70
     1
102
RTVSPropertyOp22
 70
     1
102
RTVSPropertyOp23
 70
     1
102
RTVSPropertyOp24
 70
     1
102
RTVSPropertyOp25
 70
     1
102
RTVSPropertyOp26
 70
     1
102
RTVSPropertyOp27
 70
     1
102
RTVSPropertyOp28
 70
     1
102
RTVSPropertyOp29
 70
     1
102
RTVSPropertyOp30
 70
     1
102
RTVSPropertyOp31
 70
     1
102
RTVSPropertyOp32
 70
     1
102
RTVSPropertyOp33
 70
     1
102
RTVSPropertyOp34
 70
     1
102
RTVSPropertyOp35
 70
     1
102
RTVSPropertyOp36
 70
     1
102
RTVSPropertyOp37
 70
     1
102
RTVSPropertyOp38
 70
     1
102
RTVSPropertyOp39
 70
     1
102
RTVSPropertyOp40
 70
     1
102
RTVSPropertyOp41
 70
     1
102
RTVSPropertyOp42
 70
     1
102
RTVSPropertyOp43
 70
     1
102
RTVSPropertyOp44
 70
     1
102
RTVSPropertyOp45
 70
     1
102
RTVSPropertyOp46
 70
     1
102
RTVSPropertyOp47
 70
     1
102
RTVSPropertyOp48
 70
     1
102
RTVSPropertyOp49
 70
     1
102
RTVSPropertyOp50
 70
     1
102
RTVSPropertyOp51
 70
     0
102
RTVSPropertyOp52
 70
     0
102
RTVSPropertyOp53
 70
     1
102
RTVSPropertyOp54
 70
     1
102
RTVSPropertyOp55
 70
     1
102
RTVSPropertyOp56
 70
     1
102
RTVSPropertyOp57
 70
     1
102
RTVSPost2010Prop28
280
     0
102
RTVSPost2010PropOp28
 70
     1
102
RTVSPost2010Prop29
280
     1
102
RTVSPost2010PropOp29
 70
     1
102
RTVSPost2010Prop30
280
     1
102
RTVSPost2010PropOp30
 70
     1
102
RTVSPost2010Prop31
280
     0
102
RTVSPost2010PropOp31
 70
     1
102
RTVSPost2010Prop32
280
     0
102
RTVSPost2010PropOp32
 70
     1
102
RTVSPost2010Prop33
280
     0
102
RTVSPost2010PropOp33
 70
     1
102
RTVSPost2010Prop34
280
     0
102
RTVSPost2010PropOp34
 70
     1
102
RTVSPost2010Prop35
280
     0
102
RTVSPost2010PropOp35
 70
     1
102
RTVSPost2010Prop36
280
     0
102
RTVSPost2010PropOp36
 70
     1
102
RTVSPost2010Prop37
 90
       50
102
RTVSPost2010PropOp37
 70
     1
102
RTVSPost2010Prop38
140
0.0
102
RTVSPost2010PropOp38
 70
     1
102
RTVSPost2010Prop39
140
1.0
102
RTVSPost2010PropOp39
 70
     1
102
RTVSPost2010Prop40
 90
        0
102
RTVSPost2010PropOp40
 70
     1
102
RTVSPost2010Prop41ColorIndex
 90
       18
102
RTVSPost2010Prop41ColorRGB
 90
        0
102
RTVSPost2010PropOp41
 70
     1
102
RTVSPost2010Prop42
 90
       50
102
RTVSPost2010PropOp42
 70
     1
102
RTVSPost2010Prop43
 90
        3
102
RTVSPost2010PropOp43
 70
     1
102
RTVSPost2010Prop44ColorIndex
 90
        5
102
RTVSPost2010Prop44ColorRGB
 90
      255
102
RTVSPost2010PropOp44
 70
     1
102
RTVSPost2010Prop45
280
     0
102
RTVSPost2010PropOp45
 70
     1
102
RTVSPost2010Prop46
 90
       50
102
RTVSPost2010PropOp46
 70
     1
102
RTVSPost2010Prop47
 90
       50
102
RTVSPost2010PropOp47
 70
     1
102
RTVSPost2010Prop48
 90
       50
102
RTVSPost2010PropOp48
 70
     1
102
RTVSPost2010Prop49
280
     0
102
RTVSPost2010PropOp49
 70
     1
102
RTVSPost2010Prop50
 90
       50
102
RTVSPost2010PropOp50
 70
     1
102
RTVSPost2010Prop51ColorIndex
 90
      256
102
RTVSPost2010Prop51ColorRGB
 90
-16777216
102
RTVSPost2010PropOp51
 70
     0
102
RTVSPost2010Prop52
140
1.0
102
RTVSPost2010PropOp52
 70
     0
102
RTVSPost2010Prop53
 90
        2
102
RTVSPost2010PropOp53
 70
     1
102
RTVSPost2010Prop54
  1
strokes_ogs.tif
102
RTVSPost2010PropOp54
 70
     1
102
RTVSPost2010Prop55
280
     0
102
RTVSPost2010PropOp55
 70
     1
102
RTVSPost2010Prop56
140
1.0
102
RTVSPost2010PropOp56
 70
     1
102
RTVSPost2010Prop57
140
1.0
102
RTVSPost2010PropOp57
 70
     1
  0
XRECORD
  5
3A4
102
{ACAD_REACTORS
330
3A3
102
}
330
3A3
100
AcDbXrecord
280
     1
102
RTVSPropertyOp0
 70
     1
102
RTVSPropertyOp1
 70
     1
102
RTVSPropertyOp2
 70
     1
102
RTVSPropertyOp3
 70
     1
102
RTVSPropertyOp4
 70
     1
102
RTVSPropertyOp5
 70
     1
102
RTVSPropertyOp6
 70
     1
102
RTVSPropertyOp7
 70
     1
102
RTVSPropertyOp8
 70
     1
102
RTVSPropertyOp9
 70
     1
102
RTVSPropertyOp10
 70
     1
102
RTVSPropertyOp11
 70
     1
102
RTVSPropertyOp12
 70
     1
102
RTVSPropertyOp13
 70
     1
102
RTVSPropertyOp14
 70
     1
102
RTVSPropertyOp15
 70
     1
102
RTVSPropertyOp16
 70
     1
102
RTVSPropertyOp17
 70
     1
102
RTVSPropertyOp18
 70
     1
102
RTVSPropertyOp19
 70
     1
102
RTVSPropertyOp20
 70
     1
102
RTVSPropertyOp21
 70
     1
102
RTVSPropertyOp22
 70
     1
102
RTVSPropertyOp23
 70
     1
102
RTVSPropertyOp24
 70
     1
102
RTVSPropertyOp25
 70
     1
102
RTVSPropertyOp26
 70
     1
102
RTVSPropertyOp27
 70
     1
102
RTVSPropertyOp28
 70
     1
102
RTVSPropertyOp29
 70
     1
102
RTVSPropertyOp30
 70
     1
102
RTVSPropertyOp31
 70
     1
102
RTVSPropertyOp32
 70
     1
102
RTVSPropertyOp33
 70
     1
102
RTVSPropertyOp34
 70
     1
102
RTVSPropertyOp35
 70
     1
102
RTVSPropertyOp36
 70
     1
102
RTVSPropertyOp37
 70
     1
102
RTVSPropertyOp38
 70
     1
102
RTVSPropertyOp39
 70
     1
102
RTVSPropertyOp40
 70
     1
102
RTVSPropertyOp41
 70
     1
102
RTVSPropertyOp42
 70
     1
102
RTVSPropertyOp43
 70
     1
102
RTVSPropertyOp44
 70
     1
102
RTVSPropertyOp45
 70
     1
102
RTVSPropertyOp46
 70
     1
102
RTVSPropertyOp47
 70
     1
102
RTVSPropertyOp48
 70
     1
102
RTVSPropertyOp49
 70
     1
102
RTVSPropertyOp50
 70
     1
102
RTVSPropertyOp51
 70
     0
102
RTVSPropertyOp52
 70
     0
102
RTVSPropertyOp53
 70
     1
102
RTVSPropertyOp54
 70
     1
102
RTVSPropertyOp55
 70
     1
102
RTVSPropertyOp56
 70
     1
102
RTVSPropertyOp57
 70
     1
102
RTVSPost2010Prop28
280
     0
102
RTVSPost2010PropOp28
 70
     1
102
RTVSPost2010Prop29
280
     1
102
RTVSPost2010PropOp29
 70
     1
102
RTVSPost2010Prop30
280
     1
102
RTVSPost2010PropOp30
 70
     1
102
RTVSPost2010Prop31
280
     0
102
RTVSPost2010PropOp31
 70
     1
102
RTVSPost2010Prop32
280
     0
102
RTVSPost2010PropOp32
 70
     1
102
RTVSPost2010Prop33
280
     0
102
RTVSPost2010PropOp33
 70
     1
102
RTVSPost2010Prop34
280
     0
102
RTVSPost2010PropOp34
 70
     1
102
RTVSPost2010Prop35
280
     0
102
RTVSPost2010PropOp35
 70
     1
102
RTVSPost2010Prop36
280
     0
102
RTVSPost2010PropOp36
 70
     1
102
RTVSPost2010Prop37
 90
       50
102
RTVSPost2010PropOp37
 70
     1
102
RTVSPost2010Prop38
140
0.0
102
RTVSPost2010PropOp38
 70
     1
102
RTVSPost2010Prop39
140
1.0
102
RTVSPost2010PropOp39
 70
     1
102
RTVSPost2010Prop40
 90
        0
102
RTVSPost2010PropOp40
 70
     1
102
RTVSPost2010Prop41ColorIndex
 90
       18
102
RTVSPost2010Prop41ColorRGB
 90
        0
102
RTVSPost2010PropOp41
 70
     1
102
RTVSPost2010Prop42
 90
       50
102
RTVSPost2010PropOp42
 70
     1
102
RTVSPost2010Prop43
 90
        3
102
RTVSPost2010PropOp43
 70
     1
102
RTVSPost2010Prop44ColorIndex
 90
        5
102
RTVSPost2010Prop44ColorRGB
 90
      255
102
RTVSPost2010PropOp44
 70
     1
102
RTVSPost2010Prop45
280
     0
102
RTVSPost2010PropOp45
 70
     1
102
RTVSPost2010Prop46
 90
       50
102
RTVSPost2010PropOp46
 70
     1
102
RTVSPost2010Prop47
 90
       50
102
RTVSPost2010PropOp47
 70
     1
102
RTVSPost2010Prop48
 90
       50
102
RTVSPost2010PropOp48
 70
     1
102
RTVSPost2010Prop49
280
     0
102
RTVSPost2010PropOp49
 70
     1
102
RTVSPost2010Prop50
 90
       50
102
RTVSPost2010PropOp50
 70
     1
102
RTVSPost2010Prop51ColorIndex
 90
      256
102
RTVSPost2010Prop51ColorRGB
 90
-16777216
102
RTVSPost2010PropOp51
 70
     0
102
RTVSPost2010Prop52
140
1.0
102
RTVSPost2010PropOp52
 70
     0
102
RTVSPost2010Prop53
 90
        2
102
RTVSPost2010PropOp53
 70
     1
102
RTVSPost2010Prop54
  1
strokes_ogs.tif
102
RTVSPost2010PropOp54
 70
     1
102
RTVSPost2010Prop55
280
     0
102
RTVSPost2010PropOp55
 70
     1
102
RTVSPost2010Prop56
140
1.0
102
RTVSPost2010PropOp56
 70
     1
102
RTVSPost2010Prop57
140
1.0
102
RTVSPost2010PropOp57
 70
     1
  0
XRECORD
  5
3AC
102
{ACAD_REACTORS
330
3AB
102
}
330
3AB
100
AcDbXrecord
280
     1
102
RTVSPropertyOp0
 70
     1
102
RTVSPropertyOp1
 70
     1
102
RTVSPropertyOp2
 70
     1
102
RTVSPropertyOp3
 70
     1
102
RTVSPropertyOp4
 70
     1
102
RTVSPropertyOp5
 70
     1
102
RTVSPropertyOp6
 70
     1
102
RTVSPropertyOp7
 70
     1
102
RTVSPropertyOp8
 70
     1
102
RTVSPropertyOp9
 70
     1
102
RTVSPropertyOp10
 70
     1
102
RTVSPropertyOp11
 70
     1
102
RTVSPropertyOp12
 70
     1
102
RTVSPropertyOp13
 70
     1
102
RTVSPropertyOp14
 70
     1
102
RTVSPropertyOp15
 70
     1
102
RTVSPropertyOp16
 70
     1
102
RTVSPropertyOp17
 70
     1
102
RTVSPropertyOp18
 70
     1
102
RTVSPropertyOp19
 70
     1
102
RTVSPropertyOp20
 70
     1
102
RTVSPropertyOp21
 70
     1
102
RTVSPropertyOp22
 70
     1
102
RTVSPropertyOp23
 70
     1
102
RTVSPropertyOp24
 70
     1
102
RTVSPropertyOp25
 70
     1
102
RTVSPropertyOp26
 70
     1
102
RTVSPropertyOp27
 70
     1
102
RTVSPropertyOp28
 70
     1
102
RTVSPropertyOp29
 70
     1
102
RTVSPropertyOp30
 70
     1
102
RTVSPropertyOp31
 70
     1
102
RTVSPropertyOp32
 70
     1
102
RTVSPropertyOp33
 70
     1
102
RTVSPropertyOp34
 70
     1
102
RTVSPropertyOp35
 70
     1
102
RTVSPropertyOp36
 70
     1
102
RTVSPropertyOp37
 70
     1
102
RTVSPropertyOp38
 70
     1
102
RTVSPropertyOp39
 70
     1
102
RTVSPropertyOp40
 70
     1
102
RTVSPropertyOp41
 70
     1
102
RTVSPropertyOp42
 70
     1
102
RTVSPropertyOp43
 70
     1
102
RTVSPropertyOp44
 70
     1
102
RTVSPropertyOp45
 70
     1
102
RTVSPropertyOp46
 70
     1
102
RTVSPropertyOp47
 70
     1
102
RTVSPropertyOp48
 70
     1
102
RTVSPropertyOp49
 70
     1
102
RTVSPropertyOp50
 70
     1
102
RTVSPropertyOp51
 70
     0
102
RTVSPropertyOp52
 70
     0
102
RTVSPropertyOp53
 70
     1
102
RTVSPropertyOp54
 70
     1
102
RTVSPropertyOp55
 70
     1
102
RTVSPropertyOp56
 70
     1
102
RTVSPropertyOp57
 70
     1
102
RTVSPost2010Prop28
280
     0
102
RTVSPost2010PropOp28
 70
     1
102
RTVSPost2010Prop29
280
     1
102
RTVSPost2010PropOp29
 70
     1
102
RTVSPost2010Prop30
280
     1
102
RTVSPost2010PropOp30
 70
     1
102
RTVSPost2010Prop31
280
     0
102
RTVSPost2010PropOp31
 70
     1
102
RTVSPost2010Prop32
280
     0
102
RTVSPost2010PropOp32
 70
     1
102
RTVSPost2010Prop33
280
     0
102
RTVSPost2010PropOp33
 70
     1
102
RTVSPost2010Prop34
280
     0
102
RTVSPost2010PropOp34
 70
     1
102
RTVSPost2010Prop35
280
     0
102
RTVSPost2010PropOp35
 70
     1
102
RTVSPost2010Prop36
280
     0
102
RTVSPost2010PropOp36
 70
     1
102
RTVSPost2010Prop37
 90
       50
102
RTVSPost2010PropOp37
 70
     1
102
RTVSPost2010Prop38
140
0.0
102
RTVSPost2010PropOp38
 70
     1
102
RTVSPost2010Prop39
140
1.0
102
RTVSPost2010PropOp39
 70
     1
102
RTVSPost2010Prop40
 90
        0
102
RTVSPost2010PropOp40
 70
     1
102
RTVSPost2010Prop41ColorIndex
 90
       18
102
RTVSPost2010Prop41ColorRGB
 90
        0
102
RTVSPost2010PropOp41
 70
     1
102
RTVSPost2010Prop42
 90
       50
102
RTVSPost2010PropOp42
 70
     1
102
RTVSPost2010Prop43
 90
        3
102
RTVSPost2010PropOp43
 70
     1
102
RTVSPost2010Prop44ColorIndex
 90
        5
102
RTVSPost2010Prop44ColorRGB
 90
      255
102
RTVSPost2010PropOp44
 70
     1
102
RTVSPost2010Prop45
280
     0
102
RTVSPost2010PropOp45
 70
     1
102
RTVSPost2010Prop46
 90
       50
102
RTVSPost2010PropOp46
 70
     1
102
RTVSPost2010Prop47
 90
       50
102
RTVSPost2010PropOp47
 70
     1
102
RTVSPost2010Prop48
 90
       50
102
RTVSPost2010PropOp48
 70
     1
102
RTVSPost2010Prop49
280
     0
102
RTVSPost2010PropOp49
 70
     1
102
RTVSPost2010Prop50
 90
       50
102
RTVSPost2010PropOp50
 70
     1
102
RTVSPost2010Prop51ColorIndex
 90
      256
102
RTVSPost2010Prop51ColorRGB
 90
-16777216
102
RTVSPost2010PropOp51
 70
     0
102
RTVSPost2010Prop52
140
1.0
102
RTVSPost2010PropOp52
 70
     0
102
RTVSPost2010Prop53
 90
        2
102
RTVSPost2010PropOp53
 70
     1
102
RTVSPost2010Prop54
  1
strokes_ogs.tif
102
RTVSPost2010PropOp54
 70
     1
102
RTVSPost2010Prop55
280
     0
102
RTVSPost2010PropOp55
 70
     1
102
RTVSPost2010Prop56
140
1.0
102
RTVSPost2010PropOp56
 70
     1
102
RTVSPost2010Prop57
140
1.0
102
RTVSPost2010PropOp57
 70
     1
  0
XRECORD
  5
3A0
102
{ACAD_REACTORS
330
39F
102
}
330
39F
100
AcDbXrecord
280
     1
102
RTVSPropertyOp0
 70
     1
102
RTVSPropertyOp1
 70
     1
102
RTVSPropertyOp2
 70
     1
102
RTVSPropertyOp3
 70
     1
102
RTVSPropertyOp4
 70
     1
102
RTVSPropertyOp5
 70
     1
102
RTVSPropertyOp6
 70
     1
102
RTVSPropertyOp7
 70
     1
102
RTVSPropertyOp8
 70
     1
102
RTVSPropertyOp9
 70
     1
102
RTVSPropertyOp10
 70
     1
102
RTVSPropertyOp11
 70
     1
102
RTVSPropertyOp12
 70
     1
102
RTVSPropertyOp13
 70
     1
102
RTVSPropertyOp14
 70
     1
102
RTVSPropertyOp15
 70
     1
102
RTVSPropertyOp16
 70
     1
102
RTVSPropertyOp17
 70
     1
102
RTVSPropertyOp18
 70
     1
102
RTVSPropertyOp19
 70
     1
102
RTVSPropertyOp20
 70
     1
102
RTVSPropertyOp21
 70
     1
102
RTVSPropertyOp22
 70
     1
102
RTVSPropertyOp23
 70
     1
102
RTVSPropertyOp24
 70
     1
102
RTVSPropertyOp25
 70
     1
102
RTVSPropertyOp26
 70
     1
102
RTVSPropertyOp27
 70
     1
102
RTVSPropertyOp28
 70
     1
102
RTVSPropertyOp29
 70
     1
102
RTVSPropertyOp30
 70
     1
102
RTVSPropertyOp31
 70
     1
102
RTVSPropertyOp32
 70
     1
102
RTVSPropertyOp33
 70
     1
102
RTVSPropertyOp34
 70
     1
102
RTVSPropertyOp35
 70
     1
102
RTVSPropertyOp36
 70
     1
102
RTVSPropertyOp37
 70
     1
102
RTVSPropertyOp38
 70
     1
102
RTVSPropertyOp39
 70
     1
102
RTVSPropertyOp40
 70
     1
102
RTVSPropertyOp41
 70
     1
102
RTVSPropertyOp42
 70
     1
102
RTVSPropertyOp43
 70
     1
102
RTVSPropertyOp44
 70
     1
102
RTVSPropertyOp45
 70
     1
102
RTVSPropertyOp46
 70
     1
102
RTVSPropertyOp47
 70
     1
102
RTVSPropertyOp48
 70
     1
102
RTVSPropertyOp49
 70
     1
102
RTVSPropertyOp50
 70
     1
102
RTVSPropertyOp51
 70
     0
102
RTVSPropertyOp52
 70
     0
102
RTVSPropertyOp53
 70
     1
102
RTVSPropertyOp54
 70
     1
102
RTVSPropertyOp55
 70
     1
102
RTVSPropertyOp56
 70
     1
102
RTVSPropertyOp57
 70
     1
102
RTVSPost2010Prop28
280
     0
102
RTVSPost2010PropOp28
 70
     1
102
RTVSPost2010Prop29
280
     1
102
RTVSPost2010PropOp29
 70
     1
102
RTVSPost2010Prop30
280
     1
102
RTVSPost2010PropOp30
 70
     1
102
RTVSPost2010Prop31
280
     0
102
RTVSPost2010PropOp31
 70
     1
102
RTVSPost2010Prop32
280
     0
102
RTVSPost2010PropOp32
 70
     1
102
RTVSPost2010Prop33
280
     0
102
RTVSPost2010PropOp33
 70
     1
102
RTVSPost2010Prop34
280
     0
102
RTVSPost2010PropOp34
 70
     1
102
RTVSPost2010Prop35
280
     0
102
RTVSPost2010PropOp35
 70
     1
102
RTVSPost2010Prop36
280
     0
102
RTVSPost2010PropOp36
 70
     1
102
RTVSPost2010Prop37
 90
       50
102
RTVSPost2010PropOp37
 70
     1
102
RTVSPost2010Prop38
140
0.0
102
RTVSPost2010PropOp38
 70
     1
102
RTVSPost2010Prop39
140
1.0
102
RTVSPost2010PropOp39
 70
     1
102
RTVSPost2010Prop40
 90
        0
102
RTVSPost2010PropOp40
 70
     1
102
RTVSPost2010Prop41ColorIndex
 90
       18
102
RTVSPost2010Prop41ColorRGB
 90
        0
102
RTVSPost2010PropOp41
 70
     1
102
RTVSPost2010Prop42
 90
       50
102
RTVSPost2010PropOp42
 70
     1
102
RTVSPost2010Prop43
 90
        3
102
RTVSPost2010PropOp43
 70
     1
102
RTVSPost2010Prop44ColorIndex
 90
        5
102
RTVSPost2010Prop44ColorRGB
 90
      255
102
RTVSPost2010PropOp44
 70
     1
102
RTVSPost2010Prop45
280
     0
102
RTVSPost2010PropOp45
 70
     1
102
RTVSPost2010Prop46
 90
       50
102
RTVSPost2010PropOp46
 70
     1
102
RTVSPost2010Prop47
 90
       50
102
RTVSPost2010PropOp47
 70
     1
102
RTVSPost2010Prop48
 90
       50
102
RTVSPost2010PropOp48
 70
     1
102
RTVSPost2010Prop49
280
     0
102
RTVSPost2010PropOp49
 70
     1
102
RTVSPost2010Prop50
 90
       50
102
RTVSPost2010PropOp50
 70
     1
102
RTVSPost2010Prop51ColorIndex
 90
      256
102
RTVSPost2010Prop51ColorRGB
 90
-16777216
102
RTVSPost2010PropOp51
 70
     0
102
RTVSPost2010Prop52
140
1.0
102
RTVSPost2010PropOp52
 70
     0
102
RTVSPost2010Prop53
 90
        2
102
RTVSPost2010PropOp53
 70
     1
102
RTVSPost2010Prop54
  1
strokes_ogs.tif
102
RTVSPost2010PropOp54
 70
     1
102
RTVSPost2010Prop55
280
     0
102
RTVSPost2010PropOp55
 70
     1
102
RTVSPost2010Prop56
140
1.0
102
RTVSPost2010PropOp56
 70
     1
102
RTVSPost2010Prop57
140
1.0
102
RTVSPost2010PropOp57
 70
     1
  0
XRECORD
  5
3A2
102
{ACAD_REACTORS
330
3A1
102
}
330
3A1
100
AcDbXrecord
280
     1
102
RTVSPropertyOp0
 70
     1
102
RTVSPropertyOp1
 70
     1
102
RTVSPropertyOp2
 70
     1
102
RTVSPropertyOp3
 70
     1
102
RTVSPropertyOp4
 70
     1
102
RTVSPropertyOp5
 70
     1
102
RTVSPropertyOp6
 70
     1
102
RTVSPropertyOp7
 70
     1
102
RTVSPropertyOp8
 70
     1
102
RTVSPropertyOp9
 70
     1
102
RTVSPropertyOp10
 70
     1
102
RTVSPropertyOp11
 70
     1
102
RTVSPropertyOp12
 70
     1
102
RTVSPropertyOp13
 70
     1
102
RTVSPropertyOp14
 70
     1
102
RTVSPropertyOp15
 70
     1
102
RTVSPropertyOp16
 70
     1
102
RTVSPropertyOp17
 70
     1
102
RTVSPropertyOp18
 70
     1
102
RTVSPropertyOp19
 70
     1
102
RTVSPropertyOp20
 70
     1
102
RTVSPropertyOp21
 70
     1
102
RTVSPropertyOp22
 70
     1
102
RTVSPropertyOp23
 70
     1
102
RTVSPropertyOp24
 70
     1
102
RTVSPropertyOp25
 70
     1
102
RTVSPropertyOp26
 70
     1
102
RTVSPropertyOp27
 70
     1
102
RTVSPropertyOp28
 70
     1
102
RTVSPropertyOp29
 70
     1
102
RTVSPropertyOp30
 70
     1
102
RTVSPropertyOp31
 70
     1
102
RTVSPropertyOp32
 70
     1
102
RTVSPropertyOp33
 70
     1
102
RTVSPropertyOp34
 70
     1
102
RTVSPropertyOp35
 70
     1
102
RTVSPropertyOp36
 70
     1
102
RTVSPropertyOp37
 70
     1
102
RTVSPropertyOp38
 70
     1
102
RTVSPropertyOp39
 70
     1
102
RTVSPropertyOp40
 70
     1
102
RTVSPropertyOp41
 70
     1
102
RTVSPropertyOp42
 70
     1
102
RTVSPropertyOp43
 70
     1
102
RTVSPropertyOp44
 70
     1
102
RTVSPropertyOp45
 70
     1
102
RTVSPropertyOp46
 70
     1
102
RTVSPropertyOp47
 70
     1
102
RTVSPropertyOp48
 70
     1
102
RTVSPropertyOp49
 70
     1
102
RTVSPropertyOp50
 70
     1
102
RTVSPropertyOp51
 70
     0
102
RTVSPropertyOp52
 70
     0
102
RTVSPropertyOp53
 70
     1
102
RTVSPropertyOp54
 70
     1
102
RTVSPropertyOp55
 70
     1
102
RTVSPropertyOp56
 70
     1
102
RTVSPropertyOp57
 70
     1
102
RTVSPost2010Prop28
280
     0
102
RTVSPost2010PropOp28
 70
     1
102
RTVSPost2010Prop29
280
     1
102
RTVSPost2010PropOp29
 70
     1
102
RTVSPost2010Prop30
280
     1
102
RTVSPost2010PropOp30
 70
     1
102
RTVSPost2010Prop31
280
     0
102
RTVSPost2010PropOp31
 70
     1
102
RTVSPost2010Prop32
280
     0
102
RTVSPost2010PropOp32
 70
     1
102
RTVSPost2010Prop33
280
     0
102
RTVSPost2010PropOp33
 70
     1
102
RTVSPost2010Prop34
280
     0
102
RTVSPost2010PropOp34
 70
     1
102
RTVSPost2010Prop35
280
     0
102
RTVSPost2010PropOp35
 70
     1
102
RTVSPost2010Prop36
280
     0
102
RTVSPost2010PropOp36
 70
     1
102
RTVSPost2010Prop37
 90
       50
102
RTVSPost2010PropOp37
 70
     1
102
RTVSPost2010Prop38
140
0.0
102
RTVSPost2010PropOp38
 70
     1
102
RTVSPost2010Prop39
140
1.0
102
RTVSPost2010PropOp39
 70
     1
102
RTVSPost2010Prop40
 90
        0
102
RTVSPost2010PropOp40
 70
     1
102
RTVSPost2010Prop41ColorIndex
 90
       18
102
RTVSPost2010Prop41ColorRGB
 90
        0
102
RTVSPost2010PropOp41
 70
     1
102
RTVSPost2010Prop42
 90
       50
102
RTVSPost2010PropOp42
 70
     1
102
RTVSPost2010Prop43
 90
        3
102
RTVSPost2010PropOp43
 70
     1
102
RTVSPost2010Prop44ColorIndex
 90
        5
102
RTVSPost2010Prop44ColorRGB
 90
      255
102
RTVSPost2010PropOp44
 70
     1
102
RTVSPost2010Prop45
280
     0
102
RTVSPost2010PropOp45
 70
     1
102
RTVSPost2010Prop46
 90
       50
102
RTVSPost2010PropOp46
 70
     1
102
RTVSPost2010Prop47
 90
       50
102
RTVSPost2010PropOp47
 70
     1
102
RTVSPost2010Prop48
 90
       50
102
RTVSPost2010PropOp48
 70
     1
102
RTVSPost2010Prop49
280
     0
102
RTVSPost2010PropOp49
 70
     1
102
RTVSPost2010Prop50
 90
       50
102
RTVSPost2010PropOp50
 70
     1
102
RTVSPost2010Prop51ColorIndex
 90
      256
102
RTVSPost2010Prop51ColorRGB
 90
-16777216
102
RTVSPost2010PropOp51
 70
     0
102
RTVSPost2010Prop52
140
1.0
102
RTVSPost2010PropOp52
 70
     0
102
RTVSPost2010Prop53
 90
        2
102
RTVSPost2010PropOp53
 70
     1
102
RTVSPost2010Prop54
  1
strokes_ogs.tif
102
RTVSPost2010PropOp54
 70
     1
102
RTVSPost2010Prop55
280
     0
102
RTVSPost2010PropOp55
 70
     1
102
RTVSPost2010Prop56
140
1.0
102
RTVSPost2010PropOp56
 70
     1
102
RTVSPost2010Prop57
140
1.0
102
RTVSPost2010PropOp57
 70
     1
  0
XRECORD
  5
3B2
102
{ACAD_REACTORS
330
3B1
102
}
330
3B1
100
AcDbXrecord
280
     1
102
RTVSPropertyOp0
 70
     0
102
RTVSPropertyOp1
 70
     0
102
RTVSPropertyOp2
 70
     0
102
RTVSPropertyOp3
 70
     0
102
RTVSPropertyOp4
 70
     0
102
RTVSPropertyOp5
 70
     0
102
RTVSPropertyOp6
 70
     0
102
RTVSPropertyOp7
 70
     0
102
RTVSPropertyOp8
 70
     0
102
RTVSPropertyOp9
 70
     0
102
RTVSPropertyOp10
 70
     0
102
RTVSPropertyOp11
 70
     0
102
RTVSPropertyOp12
 70
     0
102
RTVSPropertyOp13
 70
     0
102
RTVSPropertyOp14
 70
     2
102
RTVSPropertyOp15
 70
     0
102
RTVSPropertyOp16
 70
     0
102
RTVSPropertyOp17
 70
     0
102
RTVSPropertyOp18
 70
     0
102
RTVSPropertyOp19
 70
     0
102
RTVSPropertyOp20
 70
     0
102
RTVSPropertyOp21
 70
     0
102
RTVSPropertyOp22
 70
     0
102
RTVSPropertyOp23
 70
     0
102
RTVSPropertyOp24
 70
     0
102
RTVSPropertyOp25
 70
     0
102
RTVSPropertyOp26
 70
     0
102
RTVSPropertyOp27
 70
     0
102
RTVSPropertyOp28
 70
     0
102
RTVSPropertyOp29
 70
     0
102
RTVSPropertyOp30
 70
     0
102
RTVSPropertyOp31
 70
     0
102
RTVSPropertyOp32
 70
     0
102
RTVSPropertyOp33
 70
     0
102
RTVSPropertyOp34
 70
     0
102
RTVSPropertyOp35
 70
     0
102
RTVSPropertyOp36
 70
     0
102
RTVSPropertyOp37
 70
     0
102
RTVSPropertyOp38
 70
     0
102
RTVSPropertyOp39
 70
     0
102
RTVSPropertyOp40
 70
     0
102
RTVSPropertyOp41
 70
     0
102
RTVSPropertyOp42
 70
     0
102
RTVSPropertyOp43
 70
     0
102
RTVSPropertyOp44
 70
     0
102
RTVSPropertyOp45
 70
     0
102
RTVSPropertyOp46
 70
     0
102
RTVSPropertyOp47
 70
     0
102
RTVSPropertyOp48
 70
     0
102
RTVSPropertyOp49
 70
     0
102
RTVSPropertyOp50
 70
     0
102
RTVSPropertyOp51
 70
     0
102
RTVSPropertyOp52
 70
     0
102
RTVSPropertyOp53
 70
     0
102
RTVSPropertyOp54
 70
     0
102
RTVSPropertyOp55
 70
     0
102
RTVSPropertyOp56
 70
     0
102
RTVSPropertyOp57
 70
     0
102
RTVSPost2010Prop28
280
     0
102
RTVSPost2010PropOp28
 70
     0
102
RTVSPost2010Prop29
280
     1
102
RTVSPost2010PropOp29
 70
     0
102
RTVSPost2010Prop30
280
     1
102
RTVSPost2010PropOp30
 70
     0
102
RTVSPost2010Prop31
280
     0
102
RTVSPost2010PropOp31
 70
     0
102
RTVSPost2010Prop32
280
     0
102
RTVSPost2010PropOp32
 70
     0
102
RTVSPost2010Prop33
280
     0
102
RTVSPost2010PropOp33
 70
     0
102
RTVSPost2010Prop34
280
     0
102
RTVSPost2010PropOp34
 70
     0
102
RTVSPost2010Prop35
280
     0
102
RTVSPost2010PropOp35
 70
     0
102
RTVSPost2010Prop36
280
     0
102
RTVSPost2010PropOp36
 70
     0
102
RTVSPost2010Prop37
 90
       50
102
RTVSPost2010PropOp37
 70
     0
102
RTVSPost2010Prop38
140
0.0
102
RTVSPost2010PropOp38
 70
     0
102
RTVSPost2010Prop39
140
1.0
102
RTVSPost2010PropOp39
 70
     0
102
RTVSPost2010Prop40
 90
        0
102
RTVSPost2010PropOp40
 70
     0
102
RTVSPost2010Prop41ColorIndex
 90
       18
102
RTVSPost2010Prop41ColorRGB
 90
        0
102
RTVSPost2010PropOp41
 70
     0
102
RTVSPost2010Prop42
 90
       50
102
RTVSPost2010PropOp42
 70
     0
102
RTVSPost2010Prop43
 90
        3
102
RTVSPost2010PropOp43
 70
     0
102
RTVSPost2010Prop44ColorIndex
 90
        5
102
RTVSPost2010Prop44ColorRGB
 90
      255
102
RTVSPost2010PropOp44
 70
     0
102
RTVSPost2010Prop45
280
     0
102
RTVSPost2010PropOp45
 70
     0
102
RTVSPost2010Prop46
 90
       50
102
RTVSPost2010PropOp46
 70
     0
102
RTVSPost2010Prop47
 90
       50
102
RTVSPost2010PropOp47
 70
     0
102
RTVSPost2010Prop48
 90
       50
102
RTVSPost2010PropOp48
 70
     0
102
RTVSPost2010Prop49
280
     0
102
RTVSPost2010PropOp49
 70
     0
102
RTVSPost2010Prop50
 90
       50
102
RTVSPost2010PropOp50
 70
     0
102
RTVSPost2010Prop51ColorIndex
 90
      256
102
RTVSPost2010Prop51ColorRGB
 90
-16777216
102
RTVSPost2010PropOp51
 70
     0
102
RTVSPost2010Prop52
140
1.0
102
RTVSPost2010PropOp52
 70
     0
102
RTVSPost2010Prop53
 90
        2
102
RTVSPost2010PropOp53
 70
     0
102
RTVSPost2010Prop54
  1
strokes_ogs.tif
102
RTVSPost2010PropOp54
 70
     0
102
RTVSPost2010Prop55
280
     0
102
RTVSPost2010PropOp55
 70
     0
102
RTVSPost2010Prop56
140
1.0
102
RTVSPost2010PropOp56
 70
     0
102
RTVSPost2010Prop57
140
1.0
102
RTVSPost2010PropOp57
 70
     0
  0
XRECORD
  5
3AA
102
{ACAD_REACTORS
330
3A9
102
}
330
3A9
100
AcDbXrecord
280
     1
102
RTVSPropertyOp0
 70
     1
102
RTVSPropertyOp1
 70
     1
102
RTVSPropertyOp2
 70
     1
102
RTVSPropertyOp3
 70
     1
102
RTVSPropertyOp4
 70
     1
102
RTVSPropertyOp5
 70
     1
102
RTVSPropertyOp6
 70
     1
102
RTVSPropertyOp7
 70
     1
102
RTVSPropertyOp8
 70
     1
102
RTVSPropertyOp9
 70
     1
102
RTVSPropertyOp10
 70
     1
102
RTVSPropertyOp11
 70
     1
102
RTVSPropertyOp12
 70
     1
102
RTVSPropertyOp13
 70
     1
102
RTVSPropertyOp14
 70
     1
102
RTVSPropertyOp15
 70
     1
102
RTVSPropertyOp16
 70
     1
102
RTVSPropertyOp17
 70
     1
102
RTVSPropertyOp18
 70
     1
102
RTVSPropertyOp19
 70
     1
102
RTVSPropertyOp20
 70
     1
102
RTVSPropertyOp21
 70
     1
102
RTVSPropertyOp22
 70
     1
102
RTVSPropertyOp23
 70
     1
102
RTVSPropertyOp24
 70
     1
102
RTVSPropertyOp25
 70
     1
102
RTVSPropertyOp26
 70
     1
102
RTVSPropertyOp27
 70
     1
102
RTVSPropertyOp28
 70
     1
102
RTVSPropertyOp29
 70
     1
102
RTVSPropertyOp30
 70
     1
102
RTVSPropertyOp31
 70
     1
102
RTVSPropertyOp32
 70
     1
102
RTVSPropertyOp33
 70
     1
102
RTVSPropertyOp34
 70
     1
102
RTVSPropertyOp35
 70
     1
102
RTVSPropertyOp36
 70
     1
102
RTVSPropertyOp37
 70
     1
102
RTVSPropertyOp38
 70
     1
102
RTVSPropertyOp39
 70
     1
102
RTVSPropertyOp40
 70
     1
102
RTVSPropertyOp41
 70
     1
102
RTVSPropertyOp42
 70
     1
102
RTVSPropertyOp43
 70
     1
102
RTVSPropertyOp44
 70
     1
102
RTVSPropertyOp45
 70
     1
102
RTVSPropertyOp46
 70
     1
102
RTVSPropertyOp47
 70
     1
102
RTVSPropertyOp48
 70
     1
102
RTVSPropertyOp49
 70
     1
102
RTVSPropertyOp50
 70
     1
102
RTVSPropertyOp51
 70
     0
102
RTVSPropertyOp52
 70
     0
102
RTVSPropertyOp53
 70
     1
102
RTVSPropertyOp54
 70
     1
102
RTVSPropertyOp55
 70
     1
102
RTVSPropertyOp56
 70
     1
102
RTVSPropertyOp57
 70
     1
102
RTVSPost2010Prop28
280
     0
102
RTVSPost2010PropOp28
 70
     1
102
RTVSPost2010Prop29
280
     1
102
RTVSPost2010PropOp29
 70
     1
102
RTVSPost2010Prop30
280
     1
102
RTVSPost2010PropOp30
 70
     1
102
RTVSPost2010Prop31
280
     0
102
RTVSPost2010PropOp31
 70
     1
102
RTVSPost2010Prop32
280
     0
102
RTVSPost2010PropOp32
 70
     1
102
RTVSPost2010Prop33
280
     0
102
RTVSPost2010PropOp33
 70
     1
102
RTVSPost2010Prop34
280
     0
102
RTVSPost2010PropOp34
 70
     1
102
RTVSPost2010Prop35
280
     0
102
RTVSPost2010PropOp35
 70
     1
102
RTVSPost2010Prop36
280
     0
102
RTVSPost2010PropOp36
 70
     1
102
RTVSPost2010Prop37
 90
       50
102
RTVSPost2010PropOp37
 70
     1
102
RTVSPost2010Prop38
140
0.0
102
RTVSPost2010PropOp38
 70
     1
102
RTVSPost2010Prop39
140
1.0
102
RTVSPost2010PropOp39
 70
     1
102
RTVSPost2010Prop40
 90
        0
102
RTVSPost2010PropOp40
 70
     1
102
RTVSPost2010Prop41ColorIndex
 90
       18
102
RTVSPost2010Prop41ColorRGB
 90
        0
102
RTVSPost2010PropOp41
 70
     1
102
RTVSPost2010Prop42
 90
       50
102
RTVSPost2010PropOp42
 70
     1
102
RTVSPost2010Prop43
 90
        3
102
RTVSPost2010PropOp43
 70
     1
102
RTVSPost2010Prop44ColorIndex
 90
        5
102
RTVSPost2010Prop44ColorRGB
 90
      255
102
RTVSPost2010PropOp44
 70
     1
102
RTVSPost2010Prop45
280
     0
102
RTVSPost2010PropOp45
 70
     1
102
RTVSPost2010Prop46
 90
       50
102
RTVSPost2010PropOp46
 70
     1
102
RTVSPost2010Prop47
 90
       50
102
RTVSPost2010PropOp47
 70
     1
102
RTVSPost2010Prop48
 90
       50
102
RTVSPost2010PropOp48
 70
     1
102
RTVSPost2010Prop49
280
     0
102
RTVSPost2010PropOp49
 70
     1
102
RTVSPost2010Prop50
 90
       50
102
RTVSPost2010PropOp50
 70
     1
102
RTVSPost2010Prop51ColorIndex
 90
      256
102
RTVSPost2010Prop51ColorRGB
 90
-16777216
102
RTVSPost2010PropOp51
 70
     0
102
RTVSPost2010Prop52
140
1.0
102
RTVSPost2010PropOp52
 70
     0
102
RTVSPost2010Prop53
 90
        2
102
RTVSPost2010PropOp53
 70
     1
102
RTVSPost2010Prop54
  1
strokes_ogs.tif
102
RTVSPost2010PropOp54
 70
     1
102
RTVSPost2010Prop55
280
     0
102
RTVSPost2010PropOp55
 70
     1
102
RTVSPost2010Prop56
140
1.0
102
RTVSPost2010PropOp56
 70
     1
102
RTVSPost2010Prop57
140
1.0
102
RTVSPost2010PropOp57
 70
     1
  0
XRECORD
  5
38E
102
{ACAD_REACTORS
330
38D
102
}
330
38D
100
AcDbXrecord
280
     1
102
RTVSPropertyOp0
 70
     1
102
RTVSPropertyOp1
 70
     1
102
RTVSPropertyOp2
 70
     1
102
RTVSPropertyOp3
 70
     1
102
RTVSPropertyOp4
 70
     1
102
RTVSPropertyOp5
 70
     1
102
RTVSPropertyOp6
 70
     1
102
RTVSPropertyOp7
 70
     1
102
RTVSPropertyOp8
 70
     1
102
RTVSPropertyOp9
 70
     1
102
RTVSPropertyOp10
 70
     1
102
RTVSPropertyOp11
 70
     1
102
RTVSPropertyOp12
 70
     1
102
RTVSPropertyOp13
 70
     1
102
RTVSPropertyOp14
 70
     1
102
RTVSPropertyOp15
 70
     1
102
RTVSPropertyOp16
 70
     1
102
RTVSPropertyOp17
 70
     1
102
RTVSPropertyOp18
 70
     1
102
RTVSPropertyOp19
 70
     1
102
RTVSPropertyOp20
 70
     1
102
RTVSPropertyOp21
 70
     1
102
RTVSPropertyOp22
 70
     1
102
RTVSPropertyOp23
 70
     1
102
RTVSPropertyOp24
 70
     1
102
RTVSPropertyOp25
 70
     1
102
RTVSPropertyOp26
 70
     1
102
RTVSPropertyOp27
 70
     1
102
RTVSPropertyOp28
 70
     1
102
RTVSPropertyOp29
 70
     1
102
RTVSPropertyOp30
 70
     1
102
RTVSPropertyOp31
 70
     1
102
RTVSPropertyOp32
 70
     1
102
RTVSPropertyOp33
 70
     1
102
RTVSPropertyOp34
 70
     1
102
RTVSPropertyOp35
 70
     1
102
RTVSPropertyOp36
 70
     1
102
RTVSPropertyOp37
 70
     1
102
RTVSPropertyOp38
 70
     1
102
RTVSPropertyOp39
 70
     1
102
RTVSPropertyOp40
 70
     1
102
RTVSPropertyOp41
 70
     1
102
RTVSPropertyOp42
 70
     1
102
RTVSPropertyOp43
 70
     1
102
RTVSPropertyOp44
 70
     1
102
RTVSPropertyOp45
 70
     1
102
RTVSPropertyOp46
 70
     1
102
RTVSPropertyOp47
 70
     1
102
RTVSPropertyOp48
 70
     1
102
RTVSPropertyOp49
 70
     1
102
RTVSPropertyOp50
 70
     1
102
RTVSPropertyOp51
 70
     0
102
RTVSPropertyOp52
 70
     0
102
RTVSPropertyOp53
 70
     1
102
RTVSPropertyOp54
 70
     1
102
RTVSPropertyOp55
 70
     1
102
RTVSPropertyOp56
 70
     1
102
RTVSPropertyOp57
 70
     1
102
RTVSPost2010Prop28
280
     0
102
RTVSPost2010PropOp28
 70
     1
102
RTVSPost2010Prop29
280
     1
102
RTVSPost2010PropOp29
 70
     1
102
RTVSPost2010Prop30
280
     1
102
RTVSPost2010PropOp30
 70
     1
102
RTVSPost2010Prop31
280
     0
102
RTVSPost2010PropOp31
 70
     1
102
RTVSPost2010Prop32
280
     0
102
RTVSPost2010PropOp32
 70
     1
102
RTVSPost2010Prop33
280
     0
102
RTVSPost2010PropOp33
 70
     1
102
RTVSPost2010Prop34
280
     0
102
RTVSPost2010PropOp34
 70
     1
102
RTVSPost2010Prop35
280
     0
102
RTVSPost2010PropOp35
 70
     1
102
RTVSPost2010Prop36
280
     0
102
RTVSPost2010PropOp36
 70
     1
102
RTVSPost2010Prop37
 90
       50
102
RTVSPost2010PropOp37
 70
     1
102
RTVSPost2010Prop38
140
0.0
102
RTVSPost2010PropOp38
 70
     1
102
RTVSPost2010Prop39
140
1.0
102
RTVSPost2010PropOp39
 70
     1
102
RTVSPost2010Prop40
 90
        0
102
RTVSPost2010PropOp40
 70
     1
102
RTVSPost2010Prop41ColorIndex
 90
       18
102
RTVSPost2010Prop41ColorRGB
 90
        0
102
RTVSPost2010PropOp41
 70
     1
102
RTVSPost2010Prop42
 90
       50
102
RTVSPost2010PropOp42
 70
     1
102
RTVSPost2010Prop43
 90
        3
102
RTVSPost2010PropOp43
 70
     1
102
RTVSPost2010Prop44ColorIndex
 90
        5
102
RTVSPost2010Prop44ColorRGB
 90
      255
102
RTVSPost2010PropOp44
 70
     1
102
RTVSPost2010Prop45
280
     0
102
RTVSPost2010PropOp45
 70
     1
102
RTVSPost2010Prop46
 90
       50
102
RTVSPost2010PropOp46
 70
     1
102
RTVSPost2010Prop47
 90
       50
102
RTVSPost2010PropOp47
 70
     1
102
RTVSPost2010Prop48
 90
       50
102
RTVSPost2010PropOp48
 70
     1
102
RTVSPost2010Prop49
280
     0
102
RTVSPost2010PropOp49
 70
     1
102
RTVSPost2010Prop50
 90
       50
102
RTVSPost2010PropOp50
 70
     1
102
RTVSPost2010Prop51ColorIndex
 90
      256
102
RTVSPost2010Prop51ColorRGB
 90
-16777216
102
RTVSPost2010PropOp51
 70
     0
102
RTVSPost2010Prop52
140
1.0
102
RTVSPost2010PropOp52
 70
     0
102
RTVSPost2010Prop53
 90
        2
102
RTVSPost2010PropOp53
 70
     1
102
RTVSPost2010Prop54
  1
strokes_ogs.tif
102
RTVSPost2010PropOp54
 70
     1
102
RTVSPost2010Prop55
280
     0
102
RTVSPost2010PropOp55
 70
     1
102
RTVSPost2010Prop56
140
1.0
102
RTVSPost2010PropOp56
 70
     1
102
RTVSPost2010Prop57
140
1.0
102
RTVSPost2010PropOp57
 70
     1
  0
XRECORD
  5
390
102
{ACAD_REACTORS
330
38F
102
}
330
38F
100
AcDbXrecord
280
     1
102
RTVSPropertyOp0
 70
     1
102
RTVSPropertyOp1
 70
     1
102
RTVSPropertyOp2
 70
     1
102
RTVSPropertyOp3
 70
     1
102
RTVSPropertyOp4
 70
     1
102
RTVSPropertyOp5
 70
     1
102
RTVSPropertyOp6
 70
     1
102
RTVSPropertyOp7
 70
     1
102
RTVSPropertyOp8
 70
     1
102
RTVSPropertyOp9
 70
     1
102
RTVSPropertyOp10
 70
     1
102
RTVSPropertyOp11
 70
     1
102
RTVSPropertyOp12
 70
     1
102
RTVSPropertyOp13
 70
     1
102
RTVSPropertyOp14
 70
     1
102
RTVSPropertyOp15
 70
     1
102
RTVSPropertyOp16
 70
     1
102
RTVSPropertyOp17
 70
     1
102
RTVSPropertyOp18
 70
     1
102
RTVSPropertyOp19
 70
     1
102
RTVSPropertyOp20
 70
     1
102
RTVSPropertyOp21
 70
     1
102
RTVSPropertyOp22
 70
     1
102
RTVSPropertyOp23
 70
     1
102
RTVSPropertyOp24
 70
     1
102
RTVSPropertyOp25
 70
     1
102
RTVSPropertyOp26
 70
     1
102
RTVSPropertyOp27
 70
     1
102
RTVSPropertyOp28
 70
     1
102
RTVSPropertyOp29
 70
     1
102
RTVSPropertyOp30
 70
     1
102
RTVSPropertyOp31
 70
     1
102
RTVSPropertyOp32
 70
     1
102
RTVSPropertyOp33
 70
     1
102
RTVSPropertyOp34
 70
     1
102
RTVSPropertyOp35
 70
     1
102
RTVSPropertyOp36
 70
     1
102
RTVSPropertyOp37
 70
     1
102
RTVSPropertyOp38
 70
     1
102
RTVSPropertyOp39
 70
     1
102
RTVSPropertyOp40
 70
     1
102
RTVSPropertyOp41
 70
     1
102
RTVSPropertyOp42
 70
     1
102
RTVSPropertyOp43
 70
     1
102
RTVSPropertyOp44
 70
     1
102
RTVSPropertyOp45
 70
     1
102
RTVSPropertyOp46
 70
     1
102
RTVSPropertyOp47
 70
     1
102
RTVSPropertyOp48
 70
     1
102
RTVSPropertyOp49
 70
     1
102
RTVSPropertyOp50
 70
     1
102
RTVSPropertyOp51
 70
     0
102
RTVSPropertyOp52
 70
     0
102
RTVSPropertyOp53
 70
     1
102
RTVSPropertyOp54
 70
     1
102
RTVSPropertyOp55
 70
     1
102
RTVSPropertyOp56
 70
     1
102
RTVSPropertyOp57
 70
     1
102
RTVSPost2010Prop28
280
     0
102
RTVSPost2010PropOp28
 70
     1
102
RTVSPost2010Prop29
280
     1
102
RTVSPost2010PropOp29
 70
     1
102
RTVSPost2010Prop30
280
     1
102
RTVSPost2010PropOp30
 70
     1
102
RTVSPost2010Prop31
280
     0
102
RTVSPost2010PropOp31
 70
     1
102
RTVSPost2010Prop32
280
     0
102
RTVSPost2010PropOp32
 70
     1
102
RTVSPost2010Prop33
280
     0
102
RTVSPost2010PropOp33
 70
     1
102
RTVSPost2010Prop34
280
     0
102
RTVSPost2010PropOp34
 70
     1
102
RTVSPost2010Prop35
280
     0
102
RTVSPost2010PropOp35
 70
     1
102
RTVSPost2010Prop36
280
     0
102
RTVSPost2010PropOp36
 70
     1
102
RTVSPost2010Prop37
 90
       50
102
RTVSPost2010PropOp37
 70
     1
102
RTVSPost2010Prop38
140
0.0
102
RTVSPost2010PropOp38
 70
     1
102
RTVSPost2010Prop39
140
1.0
102
RTVSPost2010PropOp39
 70
     1
102
RTVSPost2010Prop40
 90
        0
102
RTVSPost2010PropOp40
 70
     1
102
RTVSPost2010Prop41ColorIndex
 90
       18
102
RTVSPost2010Prop41ColorRGB
 90
        0
102
RTVSPost2010PropOp41
 70
     1
102
RTVSPost2010Prop42
 90
       50
102
RTVSPost2010PropOp42
 70
     1
102
RTVSPost2010Prop43
 90
        3
102
RTVSPost2010PropOp43
 70
     1
102
RTVSPost2010Prop44ColorIndex
 90
        5
102
RTVSPost2010Prop44ColorRGB
 90
      255
102
RTVSPost2010PropOp44
 70
     1
102
RTVSPost2010Prop45
280
     0
102
RTVSPost2010PropOp45
 70
     1
102
RTVSPost2010Prop46
 90
       50
102
RTVSPost2010PropOp46
 70
     1
102
RTVSPost2010Prop47
 90
       50
102
RTVSPost2010PropOp47
 70
     1
102
RTVSPost2010Prop48
 90
       50
102
RTVSPost2010PropOp48
 70
     1
102
RTVSPost2010Prop49
280
     0
102
RTVSPost2010PropOp49
 70
     1
102
RTVSPost2010Prop50
 90
       50
102
RTVSPost2010PropOp50
 70
     1
102
RTVSPost2010Prop51ColorIndex
 90
      256
102
RTVSPost2010Prop51ColorRGB
 90
-16777216
102
RTVSPost2010PropOp51
 70
     0
102
RTVSPost2010Prop52
140
1.0
102
RTVSPost2010PropOp52
 70
     0
102
RTVSPost2010Prop53
 90
        2
102
RTVSPost2010PropOp53
 70
     1
102
RTVSPost2010Prop54
  1
strokes_ogs.tif
102
RTVSPost2010PropOp54
 70
     1
102
RTVSPost2010Prop55
280
     0
102
RTVSPost2010PropOp55
 70
     1
102
RTVSPost2010Prop56
140
1.0
102
RTVSPost2010PropOp56
 70
     1
102
RTVSPost2010Prop57
140
1.0
102
RTVSPost2010PropOp57
 70
     1
  0
XRECORD
  5
392
102
{ACAD_REACTORS
330
391
102
}
330
391
100
AcDbXrecord
280
     1
102
RTVSPropertyOp0
 70
     1
102
RTVSPropertyOp1
 70
     1
102
RTVSPropertyOp2
 70
     1
102
RTVSPropertyOp3
 70
     1
102
RTVSPropertyOp4
 70
     1
102
RTVSPropertyOp5
 70
     1
102
RTVSPropertyOp6
 70
     1
102
RTVSPropertyOp7
 70
     1
102
RTVSPropertyOp8
 70
     1
102
RTVSPropertyOp9
 70
     1
102
RTVSPropertyOp10
 70
     1
102
RTVSPropertyOp11
 70
     1
102
RTVSPropertyOp12
 70
     1
102
RTVSPropertyOp13
 70
     1
102
RTVSPropertyOp14
 70
     1
102
RTVSPropertyOp15
 70
     1
102
RTVSPropertyOp16
 70
     1
102
RTVSPropertyOp17
 70
     1
102
RTVSPropertyOp18
 70
     1
102
RTVSPropertyOp19
 70
     1
102
RTVSPropertyOp20
 70
     1
102
RTVSPropertyOp21
 70
     1
102
RTVSPropertyOp22
 70
     1
102
RTVSPropertyOp23
 70
     1
102
RTVSPropertyOp24
 70
     1
102
RTVSPropertyOp25
 70
     1
102
RTVSPropertyOp26
 70
     1
102
RTVSPropertyOp27
 70
     1
102
RTVSPropertyOp28
 70
     1
102
RTVSPropertyOp29
 70
     1
102
RTVSPropertyOp30
 70
     1
102
RTVSPropertyOp31
 70
     1
102
RTVSPropertyOp32
 70
     1
102
RTVSPropertyOp33
 70
     1
102
RTVSPropertyOp34
 70
     1
102
RTVSPropertyOp35
 70
     1
102
RTVSPropertyOp36
 70
     1
102
RTVSPropertyOp37
 70
     1
102
RTVSPropertyOp38
 70
     1
102
RTVSPropertyOp39
 70
     1
102
RTVSPropertyOp40
 70
     1
102
RTVSPropertyOp41
 70
     1
102
RTVSPropertyOp42
 70
     1
102
RTVSPropertyOp43
 70
     1
102
RTVSPropertyOp44
 70
     1
102
RTVSPropertyOp45
 70
     1
102
RTVSPropertyOp46
 70
     1
102
RTVSPropertyOp47
 70
     1
102
RTVSPropertyOp48
 70
     1
102
RTVSPropertyOp49
 70
     1
102
RTVSPropertyOp50
 70
     1
102
RTVSPropertyOp51
 70
     0
102
RTVSPropertyOp52
 70
     0
102
RTVSPropertyOp53
 70
     1
102
RTVSPropertyOp54
 70
     1
102
RTVSPropertyOp55
 70
     1
102
RTVSPropertyOp56
 70
     1
102
RTVSPropertyOp57
 70
     1
102
RTVSPost2010Prop28
280
     0
102
RTVSPost2010PropOp28
 70
     1
102
RTVSPost2010Prop29
280
     1
102
RTVSPost2010PropOp29
 70
     1
102
RTVSPost2010Prop30
280
     1
102
RTVSPost2010PropOp30
 70
     1
102
RTVSPost2010Prop31
280
     0
102
RTVSPost2010PropOp31
 70
     1
102
RTVSPost2010Prop32
280
     0
102
RTVSPost2010PropOp32
 70
     1
102
RTVSPost2010Prop33
280
     0
102
RTVSPost2010PropOp33
 70
     1
102
RTVSPost2010Prop34
280
     0
102
RTVSPost2010PropOp34
 70
     1
102
RTVSPost2010Prop35
280
     0
102
RTVSPost2010PropOp35
 70
     1
102
RTVSPost2010Prop36
280
     0
102
RTVSPost2010PropOp36
 70
     1
102
RTVSPost2010Prop37
 90
       50
102
RTVSPost2010PropOp37
 70
     1
102
RTVSPost2010Prop38
140
0.0
102
RTVSPost2010PropOp38
 70
     1
102
RTVSPost2010Prop39
140
1.0
102
RTVSPost2010PropOp39
 70
     1
102
RTVSPost2010Prop40
 90
        0
102
RTVSPost2010PropOp40
 70
     1
102
RTVSPost2010Prop41ColorIndex
 90
       18
102
RTVSPost2010Prop41ColorRGB
 90
        0
102
RTVSPost2010PropOp41
 70
     1
102
RTVSPost2010Prop42
 90
       50
102
RTVSPost2010PropOp42
 70
     1
102
RTVSPost2010Prop43
 90
        3
102
RTVSPost2010PropOp43
 70
     1
102
RTVSPost2010Prop44ColorIndex
 90
        5
102
RTVSPost2010Prop44ColorRGB
 90
      255
102
RTVSPost2010PropOp44
 70
     1
102
RTVSPost2010Prop45
280
     0
102
RTVSPost2010PropOp45
 70
     1
102
RTVSPost2010Prop46
 90
       50
102
RTVSPost2010PropOp46
 70
     1
102
RTVSPost2010Prop47
 90
       50
102
RTVSPost2010PropOp47
 70
     1
102
RTVSPost2010Prop48
 90
       50
102
RTVSPost2010PropOp48
 70
     1
102
RTVSPost2010Prop49
280
     0
102
RTVSPost2010PropOp49
 70
     1
102
RTVSPost2010Prop50
 90
       50
102
RTVSPost2010PropOp50
 70
     1
102
RTVSPost2010Prop51ColorIndex
 90
      256
102
RTVSPost2010Prop51ColorRGB
 90
-16777216
102
RTVSPost2010PropOp51
 70
     0
102
RTVSPost2010Prop52
140
1.0
102
RTVSPost2010PropOp52
 70
     0
102
RTVSPost2010Prop53
 90
        2
102
RTVSPost2010PropOp53
 70
     1
102
RTVSPost2010Prop54
  1
strokes_ogs.tif
102
RTVSPost2010PropOp54
 70
     1
102
RTVSPost2010Prop55
280
     0
102
RTVSPost2010PropOp55
 70
     1
102
RTVSPost2010Prop56
140
1.0
102
RTVSPost2010PropOp56
 70
     1
102
RTVSPost2010Prop57
140
1.0
102
RTVSPost2010PropOp57
 70
     1
  0
XRECORD
  5
394
102
{ACAD_REACTORS
330
393
102
}
330
393
100
AcDbXrecord
280
     1
102
RTVSPropertyOp0
 70
     1
102
RTVSPropertyOp1
 70
     1
102
RTVSPropertyOp2
 70
     1
102
RTVSPropertyOp3
 70
     1
102
RTVSPropertyOp4
 70
     1
102
RTVSPropertyOp5
 70
     1
102
RTVSPropertyOp6
 70
     1
102
RTVSPropertyOp7
 70
     1
102
RTVSPropertyOp8
 70
     1
102
RTVSPropertyOp9
 70
     1
102
RTVSPropertyOp10
 70
     1
102
RTVSPropertyOp11
 70
     1
102
RTVSPropertyOp12
 70
     1
102
RTVSPropertyOp13
 70
     1
102
RTVSPropertyOp14
 70
     1
102
RTVSPropertyOp15
 70
     1
102
RTVSPropertyOp16
 70
     1
102
RTVSPropertyOp17
 70
     1
102
RTVSPropertyOp18
 70
     1
102
RTVSPropertyOp19
 70
     1
102
RTVSPropertyOp20
 70
     1
102
RTVSPropertyOp21
 70
     1
102
RTVSPropertyOp22
 70
     1
102
RTVSPropertyOp23
 70
     1
102
RTVSPropertyOp24
 70
     1
102
RTVSPropertyOp25
 70
     1
102
RTVSPropertyOp26
 70
     1
102
RTVSPropertyOp27
 70
     1
102
RTVSPropertyOp28
 70
     1
102
RTVSPropertyOp29
 70
     1
102
RTVSPropertyOp30
 70
     1
102
RTVSPropertyOp31
 70
     1
102
RTVSPropertyOp32
 70
     1
102
RTVSPropertyOp33
 70
     1
102
RTVSPropertyOp34
 70
     1
102
RTVSPropertyOp35
 70
     1
102
RTVSPropertyOp36
 70
     1
102
RTVSPropertyOp37
 70
     1
102
RTVSPropertyOp38
 70
     1
102
RTVSPropertyOp39
 70
     1
102
RTVSPropertyOp40
 70
     1
102
RTVSPropertyOp41
 70
     1
102
RTVSPropertyOp42
 70
     1
102
RTVSPropertyOp43
 70
     1
102
RTVSPropertyOp44
 70
     1
102
RTVSPropertyOp45
 70
     1
102
RTVSPropertyOp46
 70
     1
102
RTVSPropertyOp47
 70
     1
102
RTVSPropertyOp48
 70
     1
102
RTVSPropertyOp49
 70
     1
102
RTVSPropertyOp50
 70
     1
102
RTVSPropertyOp51
 70
     0
102
RTVSPropertyOp52
 70
     0
102
RTVSPropertyOp53
 70
     1
102
RTVSPropertyOp54
 70
     1
102
RTVSPropertyOp55
 70
     1
102
RTVSPropertyOp56
 70
     1
102
RTVSPropertyOp57
 70
     1
102
RTVSPost2010Prop28
280
     0
102
RTVSPost2010PropOp28
 70
     1
102
RTVSPost2010Prop29
280
     1
102
RTVSPost2010PropOp29
 70
     1
102
RTVSPost2010Prop30
280
     1
102
RTVSPost2010PropOp30
 70
     1
102
RTVSPost2010Prop31
280
     0
102
RTVSPost2010PropOp31
 70
     1
102
RTVSPost2010Prop32
280
     0
102
RTVSPost2010PropOp32
 70
     1
102
RTVSPost2010Prop33
280
     0
102
RTVSPost2010PropOp33
 70
     1
102
RTVSPost2010Prop34
280
     0
102
RTVSPost2010PropOp34
 70
     1
102
RTVSPost2010Prop35
280
     0
102
RTVSPost2010PropOp35
 70
     1
102
RTVSPost2010Prop36
280
     0
102
RTVSPost2010PropOp36
 70
     1
102
RTVSPost2010Prop37
 90
       50
102
RTVSPost2010PropOp37
 70
     1
102
RTVSPost2010Prop38
140
0.0
102
RTVSPost2010PropOp38
 70
     1
102
RTVSPost2010Prop39
140
1.0
102
RTVSPost2010PropOp39
 70
     1
102
RTVSPost2010Prop40
 90
        0
102
RTVSPost2010PropOp40
 70
     1
102
RTVSPost2010Prop41ColorIndex
 90
       18
102
RTVSPost2010Prop41ColorRGB
 90
        0
102
RTVSPost2010PropOp41
 70
     1
102
RTVSPost2010Prop42
 90
       50
102
RTVSPost2010PropOp42
 70
     1
102
RTVSPost2010Prop43
 90
        3
102
RTVSPost2010PropOp43
 70
     1
102
RTVSPost2010Prop44ColorIndex
 90
        5
102
RTVSPost2010Prop44ColorRGB
 90
      255
102
RTVSPost2010PropOp44
 70
     1
102
RTVSPost2010Prop45
280
     0
102
RTVSPost2010PropOp45
 70
     1
102
RTVSPost2010Prop46
 90
       50
102
RTVSPost2010PropOp46
 70
     1
102
RTVSPost2010Prop47
 90
       50
102
RTVSPost2010PropOp47
 70
     1
102
RTVSPost2010Prop48
 90
       50
102
RTVSPost2010PropOp48
 70
     1
102
RTVSPost2010Prop49
280
     0
102
RTVSPost2010PropOp49
 70
     1
102
RTVSPost2010Prop50
 90
       50
102
RTVSPost2010PropOp50
 70
     1
102
RTVSPost2010Prop51ColorIndex
 90
      256
102
RTVSPost2010Prop51ColorRGB
 90
-16777216
102
RTVSPost2010PropOp51
 70
     0
102
RTVSPost2010Prop52
140
1.0
102
RTVSPost2010PropOp52
 70
     0
102
RTVSPost2010Prop53
 90
        2
102
RTVSPost2010PropOp53
 70
     1
102
RTVSPost2010Prop54
  1
strokes_ogs.tif
102
RTVSPost2010PropOp54
 70
     1
102
RTVSPost2010Prop55
280
     0
102
RTVSPost2010PropOp55
 70
     1
102
RTVSPost2010Prop56
140
1.0
102
RTVSPost2010PropOp56
 70
     1
102
RTVSPost2010Prop57
140
1.0
102
RTVSPost2010PropOp57
 70
     1
  0
XRECORD
  5
39A
102
{ACAD_REACTORS
330
399
102
}
330
399
100
AcDbXrecord
280
     1
102
RTVSPropertyOp0
 70
     1
102
RTVSPropertyOp1
 70
     1
102
RTVSPropertyOp2
 70
     1
102
RTVSPropertyOp3
 70
     1
102
RTVSPropertyOp4
 70
     1
102
RTVSPropertyOp5
 70
     1
102
RTVSPropertyOp6
 70
     1
102
RTVSPropertyOp7
 70
     1
102
RTVSPropertyOp8
 70
     1
102
RTVSPropertyOp9
 70
     1
102
RTVSPropertyOp10
 70
     1
102
RTVSPropertyOp11
 70
     1
102
RTVSPropertyOp12
 70
     1
102
RTVSPropertyOp13
 70
     1
102
RTVSPropertyOp14
 70
     1
102
RTVSPropertyOp15
 70
     1
102
RTVSPropertyOp16
 70
     1
102
RTVSPropertyOp17
 70
     1
102
RTVSPropertyOp18
 70
     1
102
RTVSPropertyOp19
 70
     1
102
RTVSPropertyOp20
 70
     1
102
RTVSPropertyOp21
 70
     1
102
RTVSPropertyOp22
 70
     1
102
RTVSPropertyOp23
 70
     1
102
RTVSPropertyOp24
 70
     1
102
RTVSPropertyOp25
 70
     1
102
RTVSPropertyOp26
 70
     1
102
RTVSPropertyOp27
 70
     1
102
RTVSPropertyOp28
 70
     1
102
RTVSPropertyOp29
 70
     1
102
RTVSPropertyOp30
 70
     1
102
RTVSPropertyOp31
 70
     1
102
RTVSPropertyOp32
 70
     1
102
RTVSPropertyOp33
 70
     1
102
RTVSPropertyOp34
 70
     1
102
RTVSPropertyOp35
 70
     1
102
RTVSPropertyOp36
 70
     1
102
RTVSPropertyOp37
 70
     1
102
RTVSPropertyOp38
 70
     1
102
RTVSPropertyOp39
 70
     1
102
RTVSPropertyOp40
 70
     1
102
RTVSPropertyOp41
 70
     1
102
RTVSPropertyOp42
 70
     1
102
RTVSPropertyOp43
 70
     1
102
RTVSPropertyOp44
 70
     1
102
RTVSPropertyOp45
 70
     1
102
RTVSPropertyOp46
 70
     1
102
RTVSPropertyOp47
 70
     1
102
RTVSPropertyOp48
 70
     1
102
RTVSPropertyOp49
 70
     1
102
RTVSPropertyOp50
 70
     1
102
RTVSPropertyOp51
 70
     0
102
RTVSPropertyOp52
 70
     0
102
RTVSPropertyOp53
 70
     1
102
RTVSPropertyOp54
 70
     1
102
RTVSPropertyOp55
 70
     1
102
RTVSPropertyOp56
 70
     1
102
RTVSPropertyOp57
 70
     1
102
RTVSPost2010Prop28
280
     0
102
RTVSPost2010PropOp28
 70
     1
102
RTVSPost2010Prop29
280
     1
102
RTVSPost2010PropOp29
 70
     1
102
RTVSPost2010Prop30
280
     1
102
RTVSPost2010PropOp30
 70
     1
102
RTVSPost2010Prop31
280
     0
102
RTVSPost2010PropOp31
 70
     1
102
RTVSPost2010Prop32
280
     0
102
RTVSPost2010PropOp32
 70
     1
102
RTVSPost2010Prop33
280
     0
102
RTVSPost2010PropOp33
 70
     1
102
RTVSPost2010Prop34
280
     0
102
RTVSPost2010PropOp34
 70
     1
102
RTVSPost2010Prop35
280
     0
102
RTVSPost2010PropOp35
 70
     1
102
RTVSPost2010Prop36
280
     0
102
RTVSPost2010PropOp36
 70
     1
102
RTVSPost2010Prop37
 90
       50
102
RTVSPost2010PropOp37
 70
     1
102
RTVSPost2010Prop38
140
0.0
102
RTVSPost2010PropOp38
 70
     1
102
RTVSPost2010Prop39
140
1.0
102
RTVSPost2010PropOp39
 70
     1
102
RTVSPost2010Prop40
 90
        0
102
RTVSPost2010PropOp40
 70
     1
102
RTVSPost2010Prop41ColorIndex
 90
       18
102
RTVSPost2010Prop41ColorRGB
 90
        0
102
RTVSPost2010PropOp41
 70
     1
102
RTVSPost2010Prop42
 90
       50
102
RTVSPost2010PropOp42
 70
     1
102
RTVSPost2010Prop43
 90
        3
102
RTVSPost2010PropOp43
 70
     1
102
RTVSPost2010Prop44ColorIndex
 90
        5
102
RTVSPost2010Prop44ColorRGB
 90
      255
102
RTVSPost2010PropOp44
 70
     1
102
RTVSPost2010Prop45
280
     0
102
RTVSPost2010PropOp45
 70
     1
102
RTVSPost2010Prop46
 90
       50
102
RTVSPost2010PropOp46
 70
     1
102
RTVSPost2010Prop47
 90
       50
102
RTVSPost2010PropOp47
 70
     1
102
RTVSPost2010Prop48
 90
       50
102
RTVSPost2010PropOp48
 70
     1
102
RTVSPost2010Prop49
280
     0
102
RTVSPost2010PropOp49
 70
     1
102
RTVSPost2010Prop50
 90
       50
102
RTVSPost2010PropOp50
 70
     1
102
RTVSPost2010Prop51ColorIndex
 90
      256
102
RTVSPost2010Prop51ColorRGB
 90
-16777216
102
RTVSPost2010PropOp51
 70
     0
102
RTVSPost2010Prop52
140
1.0
102
RTVSPost2010PropOp52
 70
     0
102
RTVSPost2010Prop53
 90
        2
102
RTVSPost2010PropOp53
 70
     1
102
RTVSPost2010Prop54
  1
strokes_ogs.tif
102
RTVSPost2010PropOp54
 70
     1
102
RTVSPost2010Prop55
280
     0
102
RTVSPost2010PropOp55
 70
     1
102
RTVSPost2010Prop56
140
1.0
102
RTVSPost2010PropOp56
 70
     1
102
RTVSPost2010Prop57
140
1.0
102
RTVSPost2010PropOp57
 70
     1
  0
XRECORD
  5
3AE
102
{ACAD_REACTORS
330
3AD
102
}
330
3AD
100
AcDbXrecord
280
     1
102
RTVSPropertyOp0
 70
     0
102
RTVSPropertyOp1
 70
     0
102
RTVSPropertyOp2
 70
     0
102
RTVSPropertyOp3
 70
     0
102
RTVSPropertyOp4
 70
     0
102
RTVSPropertyOp5
 70
     0
102
RTVSPropertyOp6
 70
     0
102
RTVSPropertyOp7
 70
     0
102
RTVSPropertyOp8
 70
     0
102
RTVSPropertyOp9
 70
     0
102
RTVSPropertyOp10
 70
     0
102
RTVSPropertyOp11
 70
     0
102
RTVSPropertyOp12
 70
     0
102
RTVSPropertyOp13
 70
     0
102
RTVSPropertyOp14
 70
     2
102
RTVSPropertyOp15
 70
     0
102
RTVSPropertyOp16
 70
     0
102
RTVSPropertyOp17
 70
     0
102
RTVSPropertyOp18
 70
     0
102
RTVSPropertyOp19
 70
     0
102
RTVSPropertyOp20
 70
     0
102
RTVSPropertyOp21
 70
     0
102
RTVSPropertyOp22
 70
     0
102
RTVSPropertyOp23
 70
     0
102
RTVSPropertyOp24
 70
     0
102
RTVSPropertyOp25
 70
     0
102
RTVSPropertyOp26
 70
     0
102
RTVSPropertyOp27
 70
     0
102
RTVSPropertyOp28
 70
     0
102
RTVSPropertyOp29
 70
     0
102
RTVSPropertyOp30
 70
     0
102
RTVSPropertyOp31
 70
     0
102
RTVSPropertyOp32
 70
     0
102
RTVSPropertyOp33
 70
     0
102
RTVSPropertyOp34
 70
     0
102
RTVSPropertyOp35
 70
     0
102
RTVSPropertyOp36
 70
     0
102
RTVSPropertyOp37
 70
     0
102
RTVSPropertyOp38
 70
     0
102
RTVSPropertyOp39
 70
     0
102
RTVSPropertyOp40
 70
     0
102
RTVSPropertyOp41
 70
     0
102
RTVSPropertyOp42
 70
     0
102
RTVSPropertyOp43
 70
     0
102
RTVSPropertyOp44
 70
     0
102
RTVSPropertyOp45
 70
     0
102
RTVSPropertyOp46
 70
     0
102
RTVSPropertyOp47
 70
     0
102
RTVSPropertyOp48
 70
     0
102
RTVSPropertyOp49
 70
     0
102
RTVSPropertyOp50
 70
     0
102
RTVSPropertyOp51
 70
     0
102
RTVSPropertyOp52
 70
     0
102
RTVSPropertyOp53
 70
     0
102
RTVSPropertyOp54
 70
     0
102
RTVSPropertyOp55
 70
     0
102
RTVSPropertyOp56
 70
     0
102
RTVSPropertyOp57
 70
     0
102
RTVSPost2010Prop28
280
     0
102
RTVSPost2010PropOp28
 70
     0
102
RTVSPost2010Prop29
280
     1
102
RTVSPost2010PropOp29
 70
     0
102
RTVSPost2010Prop30
280
     1
102
RTVSPost2010PropOp30
 70
     0
102
RTVSPost2010Prop31
280
     0
102
RTVSPost2010PropOp31
 70
     0
102
RTVSPost2010Prop32
280
     0
102
RTVSPost2010PropOp32
 70
     0
102
RTVSPost2010Prop33
280
     0
102
RTVSPost2010PropOp33
 70
     0
102
RTVSPost2010Prop34
280
     0
102
RTVSPost2010PropOp34
 70
     0
102
RTVSPost2010Prop35
280
     0
102
RTVSPost2010PropOp35
 70
     0
102
RTVSPost2010Prop36
280
     0
102
RTVSPost2010PropOp36
 70
     0
102
RTVSPost2010Prop37
 90
       50
102
RTVSPost2010PropOp37
 70
     0
102
RTVSPost2010Prop38
140
0.0
102
RTVSPost2010PropOp38
 70
     0
102
RTVSPost2010Prop39
140
1.0
102
RTVSPost2010PropOp39
 70
     0
102
RTVSPost2010Prop40
 90
        0
102
RTVSPost2010PropOp40
 70
     0
102
RTVSPost2010Prop41ColorIndex
 90
       18
102
RTVSPost2010Prop41ColorRGB
 90
        0
102
RTVSPost2010PropOp41
 70
     0
102
RTVSPost2010Prop42
 90
       50
102
RTVSPost2010PropOp42
 70
     0
102
RTVSPost2010Prop43
 90
        3
102
RTVSPost2010PropOp43
 70
     0
102
RTVSPost2010Prop44ColorIndex
 90
        5
102
RTVSPost2010Prop44ColorRGB
 90
      255
102
RTVSPost2010PropOp44
 70
     0
102
RTVSPost2010Prop45
280
     0
102
RTVSPost2010PropOp45
 70
     0
102
RTVSPost2010Prop46
 90
       50
102
RTVSPost2010PropOp46
 70
     0
102
RTVSPost2010Prop47
 90
       50
102
RTVSPost2010PropOp47
 70
     0
102
RTVSPost2010Prop48
 90
       50
102
RTVSPost2010PropOp48
 70
     0
102
RTVSPost2010Prop49
280
     0
102
RTVSPost2010PropOp49
 70
     0
102
RTVSPost2010Prop50
 90
       50
102
RTVSPost2010PropOp50
 70
     0
102
RTVSPost2010Prop51ColorIndex
 90
      256
102
RTVSPost2010Prop51ColorRGB
 90
-16777216
102
RTVSPost2010PropOp51
 70
     0
102
RTVSPost2010Prop52
140
1.0
102
RTVSPost2010PropOp52
 70
     0
102
RTVSPost2010Prop53
 90
        2
102
RTVSPost2010PropOp53
 70
     0
102
RTVSPost2010Prop54
  1
strokes_ogs.tif
102
RTVSPost2010PropOp54
 70
     0
102
RTVSPost2010Prop55
280
     0
102
RTVSPost2010PropOp55
 70
     0
102
RTVSPost2010Prop56
140
1.0
102
RTVSPost2010PropOp56
 70
     0
102
RTVSPost2010Prop57
140
1.0
102
RTVSPost2010PropOp57
 70
     0
  0
XRECORD
  5
3A8
102
{ACAD_REACTORS
330
3A7
102
}
330
3A7
100
AcDbXrecord
280
     1
102
RTVSPropertyOp0
 70
     1
102
RTVSPropertyOp1
 70
     1
102
RTVSPropertyOp2
 70
     1
102
RTVSPropertyOp3
 70
     1
102
RTVSPropertyOp4
 70
     1
102
RTVSPropertyOp5
 70
     1
102
RTVSPropertyOp6
 70
     1
102
RTVSPropertyOp7
 70
     1
102
RTVSPropertyOp8
 70
     1
102
RTVSPropertyOp9
 70
     1
102
RTVSPropertyOp10
 70
     1
102
RTVSPropertyOp11
 70
     1
102
RTVSPropertyOp12
 70
     1
102
RTVSPropertyOp13
 70
     1
102
RTVSPropertyOp14
 70
     1
102
RTVSPropertyOp15
 70
     1
102
RTVSPropertyOp16
 70
     1
102
RTVSPropertyOp17
 70
     1
102
RTVSPropertyOp18
 70
     1
102
RTVSPropertyOp19
 70
     1
102
RTVSPropertyOp20
 70
     1
102
RTVSPropertyOp21
 70
     1
102
RTVSPropertyOp22
 70
     1
102
RTVSPropertyOp23
 70
     1
102
RTVSPropertyOp24
 70
     1
102
RTVSPropertyOp25
 70
     1
102
RTVSPropertyOp26
 70
     1
102
RTVSPropertyOp27
 70
     1
102
RTVSPropertyOp28
 70
     1
102
RTVSPropertyOp29
 70
     1
102
RTVSPropertyOp30
 70
     1
102
RTVSPropertyOp31
 70
     1
102
RTVSPropertyOp32
 70
     1
102
RTVSPropertyOp33
 70
     1
102
RTVSPropertyOp34
 70
     1
102
RTVSPropertyOp35
 70
     1
102
RTVSPropertyOp36
 70
     1
102
RTVSPropertyOp37
 70
     1
102
RTVSPropertyOp38
 70
     1
102
RTVSPropertyOp39
 70
     1
102
RTVSPropertyOp40
 70
     1
102
RTVSPropertyOp41
 70
     1
102
RTVSPropertyOp42
 70
     1
102
RTVSPropertyOp43
 70
     1
102
RTVSPropertyOp44
 70
     1
102
RTVSPropertyOp45
 70
     1
102
RTVSPropertyOp46
 70
     1
102
RTVSPropertyOp47
 70
     1
102
RTVSPropertyOp48
 70
     1
102
RTVSPropertyOp49
 70
     1
102
RTVSPropertyOp50
 70
     1
102
RTVSPropertyOp51
 70
     0
102
RTVSPropertyOp52
 70
     0
102
RTVSPropertyOp53
 70
     1
102
RTVSPropertyOp54
 70
     1
102
RTVSPropertyOp55
 70
     1
102
RTVSPropertyOp56
 70
     1
102
RTVSPropertyOp57
 70
     1
102
RTVSPost2010Prop28
280
     0
102
RTVSPost2010PropOp28
 70
     1
102
RTVSPost2010Prop29
280
     1
102
RTVSPost2010PropOp29
 70
     1
102
RTVSPost2010Prop30
280
     1
102
RTVSPost2010PropOp30
 70
     1
102
RTVSPost2010Prop31
280
     0
102
RTVSPost2010PropOp31
 70
     1
102
RTVSPost2010Prop32
280
     0
102
RTVSPost2010PropOp32
 70
     1
102
RTVSPost2010Prop33
280
     0
102
RTVSPost2010PropOp33
 70
     1
102
RTVSPost2010Prop34
280
     0
102
RTVSPost2010PropOp34
 70
     1
102
RTVSPost2010Prop35
280
     0
102
RTVSPost2010PropOp35
 70
     1
102
RTVSPost2010Prop36
280
     0
102
RTVSPost2010PropOp36
 70
     1
102
RTVSPost2010Prop37
 90
       50
102
RTVSPost2010PropOp37
 70
     1
102
RTVSPost2010Prop38
140
0.0
102
RTVSPost2010PropOp38
 70
     1
102
RTVSPost2010Prop39
140
1.0
102
RTVSPost2010PropOp39
 70
     1
102
RTVSPost2010Prop40
 90
        0
102
RTVSPost2010PropOp40
 70
     1
102
RTVSPost2010Prop41ColorIndex
 90
       18
102
RTVSPost2010Prop41ColorRGB
 90
        0
102
RTVSPost2010PropOp41
 70
     1
102
RTVSPost2010Prop42
 90
       50
102
RTVSPost2010PropOp42
 70
     1
102
RTVSPost2010Prop43
 90
        3
102
RTVSPost2010PropOp43
 70
     1
102
RTVSPost2010Prop44ColorIndex
 90
        5
102
RTVSPost2010Prop44ColorRGB
 90
      255
102
RTVSPost2010PropOp44
 70
     1
102
RTVSPost2010Prop45
280
     0
102
RTVSPost2010PropOp45
 70
     1
102
RTVSPost2010Prop46
 90
       50
102
RTVSPost2010PropOp46
 70
     1
102
RTVSPost2010Prop47
 90
       50
102
RTVSPost2010PropOp47
 70
     1
102
RTVSPost2010Prop48
 90
       50
102
RTVSPost2010PropOp48
 70
     1
102
RTVSPost2010Prop49
280
     0
102
RTVSPost2010PropOp49
 70
     1
102
RTVSPost2010Prop50
 90
       50
102
RTVSPost2010PropOp50
 70
     1
102
RTVSPost2010Prop51ColorIndex
 90
      256
102
RTVSPost2010Prop51ColorRGB
 90
-16777216
102
RTVSPost2010PropOp51
 70
     0
102
RTVSPost2010Prop52
140
1.0
102
RTVSPost2010PropOp52
 70
     0
102
RTVSPost2010Prop53
 90
        2
102
RTVSPost2010PropOp53
 70
     1
102
RTVSPost2010Prop54
  1
strokes_ogs.tif
102
RTVSPost2010PropOp54
 70
     1
102
RTVSPost2010Prop55
280
     0
102
RTVSPost2010PropOp55
 70
     1
102
RTVSPost2010Prop56
140
1.0
102
RTVSPost2010PropOp56
 70
     1
102
RTVSPost2010Prop57
140
1.0
102
RTVSPost2010PropOp57
 70
     1
  0
XRECORD
  5
3B0
102
{ACAD_REACTORS
330
3AF
102
}
330
3AF
100
AcDbXrecord
280
     1
102
RTVSPropertyOp0
 70
     0
102
RTVSPropertyOp1
 70
     0
102
RTVSPropertyOp2
 70
     0
102
RTVSPropertyOp3
 70
     0
102
RTVSPropertyOp4
 70
     0
102
RTVSPropertyOp5
 70
     0
102
RTVSPropertyOp6
 70
     0
102
RTVSPropertyOp7
 70
     0
102
RTVSPropertyOp8
 70
     0
102
RTVSPropertyOp9
 70
     0
102
RTVSPropertyOp10
 70
     0
102
RTVSPropertyOp11
 70
     0
102
RTVSPropertyOp12
 70
     0
102
RTVSPropertyOp13
 70
     0
102
RTVSPropertyOp14
 70
     2
102
RTVSPropertyOp15
 70
     0
102
RTVSPropertyOp16
 70
     0
102
RTVSPropertyOp17
 70
     0
102
RTVSPropertyOp18
 70
     0
102
RTVSPropertyOp19
 70
     0
102
RTVSPropertyOp20
 70
     0
102
RTVSPropertyOp21
 70
     0
102
RTVSPropertyOp22
 70
     0
102
RTVSPropertyOp23
 70
     0
102
RTVSPropertyOp24
 70
     0
102
RTVSPropertyOp25
 70
     0
102
RTVSPropertyOp26
 70
     0
102
RTVSPropertyOp27
 70
     0
102
RTVSPropertyOp28
 70
     0
102
RTVSPropertyOp29
 70
     0
102
RTVSPropertyOp30
 70
     0
102
RTVSPropertyOp31
 70
     0
102
RTVSPropertyOp32
 70
     0
102
RTVSPropertyOp33
 70
     0
102
RTVSPropertyOp34
 70
     0
102
RTVSPropertyOp35
 70
     0
102
RTVSPropertyOp36
 70
     0
102
RTVSPropertyOp37
 70
     0
102
RTVSPropertyOp38
 70
     0
102
RTVSPropertyOp39
 70
     0
102
RTVSPropertyOp40
 70
     0
102
RTVSPropertyOp41
 70
     0
102
RTVSPropertyOp42
 70
     0
102
RTVSPropertyOp43
 70
     0
102
RTVSPropertyOp44
 70
     0
102
RTVSPropertyOp45
 70
     0
102
RTVSPropertyOp46
 70
     0
102
RTVSPropertyOp47
 70
     0
102
RTVSPropertyOp48
 70
     0
102
RTVSPropertyOp49
 70
     0
102
RTVSPropertyOp50
 70
     0
102
RTVSPropertyOp51
 70
     0
102
RTVSPropertyOp52
 70
     0
102
RTVSPropertyOp53
 70
     0
102
RTVSPropertyOp54
 70
     0
102
RTVSPropertyOp55
 70
     0
102
RTVSPropertyOp56
 70
     0
102
RTVSPropertyOp57
 70
     0
102
RTVSPost2010Prop28
280
     0
102
RTVSPost2010PropOp28
 70
     0
102
RTVSPost2010Prop29
280
     1
102
RTVSPost2010PropOp29
 70
     0
102
RTVSPost2010Prop30
280
     1
102
RTVSPost2010PropOp30
 70
     0
102
RTVSPost2010Prop31
280
     0
102
RTVSPost2010PropOp31
 70
     0
102
RTVSPost2010Prop32
280
     0
102
RTVSPost2010PropOp32
 70
     0
102
RTVSPost2010Prop33
280
     0
102
RTVSPost2010PropOp33
 70
     0
102
RTVSPost2010Prop34
280
     0
102
RTVSPost2010PropOp34
 70
     0
102
RTVSPost2010Prop35
280
     0
102
RTVSPost2010PropOp35
 70
     0
102
RTVSPost2010Prop36
280
     0
102
RTVSPost2010PropOp36
 70
     0
102
RTVSPost2010Prop37
 90
       50
102
RTVSPost2010PropOp37
 70
     0
102
RTVSPost2010Prop38
140
0.0
102
RTVSPost2010PropOp38
 70
     0
102
RTVSPost2010Prop39
140
1.0
102
RTVSPost2010PropOp39
 70
     0
102
RTVSPost2010Prop40
 90
        0
102
RTVSPost2010PropOp40
 70
     0
102
RTVSPost2010Prop41ColorIndex
 90
       18
102
RTVSPost2010Prop41ColorRGB
 90
        0
102
RTVSPost2010PropOp41
 70
     0
102
RTVSPost2010Prop42
 90
       50
102
RTVSPost2010PropOp42
 70
     0
102
RTVSPost2010Prop43
 90
        3
102
RTVSPost2010PropOp43
 70
     0
102
RTVSPost2010Prop44ColorIndex
 90
        5
102
RTVSPost2010Prop44ColorRGB
 90
      255
102
RTVSPost2010PropOp44
 70
     0
102
RTVSPost2010Prop45
280
     0
102
RTVSPost2010PropOp45
 70
     0
102
RTVSPost2010Prop46
 90
       50
102
RTVSPost2010PropOp46
 70
     0
102
RTVSPost2010Prop47
 90
       50
102
RTVSPost2010PropOp47
 70
     0
102
RTVSPost2010Prop48
 90
       50
102
RTVSPost2010PropOp48
 70
     0
102
RTVSPost2010Prop49
280
     0
102
RTVSPost2010PropOp49
 70
     0
102
RTVSPost2010Prop50
 90
       50
102
RTVSPost2010PropOp50
 70
     0
102
RTVSPost2010Prop51ColorIndex
 90
      256
102
RTVSPost2010Prop51ColorRGB
 90
-16777216
102
RTVSPost2010PropOp51
 70
     0
102
RTVSPost2010Prop52
140
1.0
102
RTVSPost2010PropOp52
 70
     0
102
RTVSPost2010Prop53
 90
        2
102
RTVSPost2010PropOp53
 70
     0
102
RTVSPost2010Prop54
  1
strokes_ogs.tif
102
RTVSPost2010PropOp54
 70
     0
102
RTVSPost2010Prop55
280
     0
102
RTVSPost2010PropOp55
 70
     0
102
RTVSPost2010Prop56
140
1.0
102
RTVSPost2010PropOp56
 70
     0
102
RTVSPost2010Prop57
140
1.0
102
RTVSPost2010PropOp57
 70
     0
  0
XRECORD
  5
39E
102
{ACAD_REACTORS
330
39D
102
}
330
39D
100
AcDbXrecord
280
     1
102
RTVSPropertyOp0
 70
     1
102
RTVSPropertyOp1
 70
     1
102
RTVSPropertyOp2
 70
     1
102
RTVSPropertyOp3
 70
     1
102
RTVSPropertyOp4
 70
     1
102
RTVSPropertyOp5
 70
     1
102
RTVSPropertyOp6
 70
     1
102
RTVSPropertyOp7
 70
     1
102
RTVSPropertyOp8
 70
     1
102
RTVSPropertyOp9
 70
     1
102
RTVSPropertyOp10
 70
     1
102
RTVSPropertyOp11
 70
     1
102
RTVSPropertyOp12
 70
     1
102
RTVSPropertyOp13
 70
     1
102
RTVSPropertyOp14
 70
     1
102
RTVSPropertyOp15
 70
     1
102
RTVSPropertyOp16
 70
     1
102
RTVSPropertyOp17
 70
     1
102
RTVSPropertyOp18
 70
     1
102
RTVSPropertyOp19
 70
     1
102
RTVSPropertyOp20
 70
     1
102
RTVSPropertyOp21
 70
     1
102
RTVSPropertyOp22
 70
     1
102
RTVSPropertyOp23
 70
     1
102
RTVSPropertyOp24
 70
     1
102
RTVSPropertyOp25
 70
     1
102
RTVSPropertyOp26
 70
     1
102
RTVSPropertyOp27
 70
     1
102
RTVSPropertyOp28
 70
     1
102
RTVSPropertyOp29
 70
     1
102
RTVSPropertyOp30
 70
     1
102
RTVSPropertyOp31
 70
     1
102
RTVSPropertyOp32
 70
     1
102
RTVSPropertyOp33
 70
     1
102
RTVSPropertyOp34
 70
     1
102
RTVSPropertyOp35
 70
     1
102
RTVSPropertyOp36
 70
     1
102
RTVSPropertyOp37
 70
     1
102
RTVSPropertyOp38
 70
     1
102
RTVSPropertyOp39
 70
     1
102
RTVSPropertyOp40
 70
     1
102
RTVSPropertyOp41
 70
     1
102
RTVSPropertyOp42
 70
     1
102
RTVSPropertyOp43
 70
     1
102
RTVSPropertyOp44
 70
     1
102
RTVSPropertyOp45
 70
     1
102
RTVSPropertyOp46
 70
     1
102
RTVSPropertyOp47
 70
     1
102
RTVSPropertyOp48
 70
     1
102
RTVSPropertyOp49
 70
     1
102
RTVSPropertyOp50
 70
     1
102
RTVSPropertyOp51
 70
     0
102
RTVSPropertyOp52
 70
     0
102
RTVSPropertyOp53
 70
     1
102
RTVSPropertyOp54
 70
     1
102
RTVSPropertyOp55
 70
     1
102
RTVSPropertyOp56
 70
     1
102
RTVSPropertyOp57
 70
     1
102
RTVSPost2010Prop28
280
     0
102
RTVSPost2010PropOp28
 70
     1
102
RTVSPost2010Prop29
280
     1
102
RTVSPost2010PropOp29
 70
     1
102
RTVSPost2010Prop30
280
     1
102
RTVSPost2010PropOp30
 70
     1
102
RTVSPost2010Prop31
280
     0
102
RTVSPost2010PropOp31
 70
     1
102
RTVSPost2010Prop32
280
     0
102
RTVSPost2010PropOp32
 70
     1
102
RTVSPost2010Prop33
280
     0
102
RTVSPost2010PropOp33
 70
     1
102
RTVSPost2010Prop34
280
     0
102
RTVSPost2010PropOp34
 70
     1
102
RTVSPost2010Prop35
280
     0
102
RTVSPost2010PropOp35
 70
     1
102
RTVSPost2010Prop36
280
     0
102
RTVSPost2010PropOp36
 70
     1
102
RTVSPost2010Prop37
 90
       50
102
RTVSPost2010PropOp37
 70
     1
102
RTVSPost2010Prop38
140
0.0
102
RTVSPost2010PropOp38
 70
     1
102
RTVSPost2010Prop39
140
1.0
102
RTVSPost2010PropOp39
 70
     1
102
RTVSPost2010Prop40
 90
        0
102
RTVSPost2010PropOp40
 70
     1
102
RTVSPost2010Prop41ColorIndex
 90
       18
102
RTVSPost2010Prop41ColorRGB
 90
        0
102
RTVSPost2010PropOp41
 70
     1
102
RTVSPost2010Prop42
 90
       50
102
RTVSPost2010PropOp42
 70
     1
102
RTVSPost2010Prop43
 90
        3
102
RTVSPost2010PropOp43
 70
     1
102
RTVSPost2010Prop44ColorIndex
 90
        5
102
RTVSPost2010Prop44ColorRGB
 90
      255
102
RTVSPost2010PropOp44
 70
     1
102
RTVSPost2010Prop45
280
     0
102
RTVSPost2010PropOp45
 70
     1
102
RTVSPost2010Prop46
 90
       50
102
RTVSPost2010PropOp46
 70
     1
102
RTVSPost2010Prop47
 90
       50
102
RTVSPost2010PropOp47
 70
     1
102
RTVSPost2010Prop48
 90
       50
102
RTVSPost2010PropOp48
 70
     1
102
RTVSPost2010Prop49
280
     0
102
RTVSPost2010PropOp49
 70
     1
102
RTVSPost2010Prop50
 90
       50
102
RTVSPost2010PropOp50
 70
     1
102
RTVSPost2010Prop51ColorIndex
 90
      256
102
RTVSPost2010Prop51ColorRGB
 90
-16777216
102
RTVSPost2010PropOp51
 70
     0
102
RTVSPost2010Prop52
140
1.0
102
RTVSPost2010PropOp52
 70
     0
102
RTVSPost2010Prop53
 90
        2
102
RTVSPost2010PropOp53
 70
     1
102
RTVSPost2010Prop54
  1
strokes_ogs.tif
102
RTVSPost2010PropOp54
 70
     1
102
RTVSPost2010Prop55
280
     0
102
RTVSPost2010PropOp55
 70
     1
102
RTVSPost2010Prop56
140
1.0
102
RTVSPost2010PropOp56
 70
     1
102
RTVSPost2010Prop57
140
1.0
102
RTVSPost2010PropOp57
 70
     1
  0
XRECORD
  5
3BC
102
{ACAD_REACTORS
330
3BB
102
}
330
3BB
100
AcDbXrecord
280
     1
102
RTVSPropertyOp0
 70
     1
102
RTVSPropertyOp1
 70
     1
102
RTVSPropertyOp2
 70
     1
102
RTVSPropertyOp3
 70
     1
102
RTVSPropertyOp4
 70
     1
102
RTVSPropertyOp5
 70
     1
102
RTVSPropertyOp6
 70
     1
102
RTVSPropertyOp7
 70
     1
102
RTVSPropertyOp8
 70
     1
102
RTVSPropertyOp9
 70
     1
102
RTVSPropertyOp10
 70
     1
102
RTVSPropertyOp11
 70
     1
102
RTVSPropertyOp12
 70
     1
102
RTVSPropertyOp13
 70
     1
102
RTVSPropertyOp14
 70
     1
102
RTVSPropertyOp15
 70
     1
102
RTVSPropertyOp16
 70
     1
102
RTVSPropertyOp17
 70
     1
102
RTVSPropertyOp18
 70
     1
102
RTVSPropertyOp19
 70
     1
102
RTVSPropertyOp20
 70
     1
102
RTVSPropertyOp21
 70
     1
102
RTVSPropertyOp22
 70
     1
102
RTVSPropertyOp23
 70
     1
102
RTVSPropertyOp24
 70
     1
102
RTVSPropertyOp25
 70
     1
102
RTVSPropertyOp26
 70
     1
102
RTVSPropertyOp27
 70
     1
102
RTVSPropertyOp28
 70
     1
102
RTVSPropertyOp29
 70
     1
102
RTVSPropertyOp30
 70
     1
102
RTVSPropertyOp31
 70
     1
102
RTVSPropertyOp32
 70
     1
102
RTVSPropertyOp33
 70
     1
102
RTVSPropertyOp34
 70
     1
102
RTVSPropertyOp35
 70
     1
102
RTVSPropertyOp36
 70
     1
102
RTVSPropertyOp37
 70
     1
102
RTVSPropertyOp38
 70
     1
102
RTVSPropertyOp39
 70
     1
102
RTVSPropertyOp40
 70
     1
102
RTVSPropertyOp41
 70
     1
102
RTVSPropertyOp42
 70
     1
102
RTVSPropertyOp43
 70
     1
102
RTVSPropertyOp44
 70
     1
102
RTVSPropertyOp45
 70
     1
102
RTVSPropertyOp46
 70
     1
102
RTVSPropertyOp47
 70
     1
102
RTVSPropertyOp48
 70
     1
102
RTVSPropertyOp49
 70
     1
102
RTVSPropertyOp50
 70
     1
102
RTVSPropertyOp51
 70
     0
102
RTVSPropertyOp52
 70
     0
102
RTVSPropertyOp53
 70
     1
102
RTVSPropertyOp54
 70
     1
102
RTVSPropertyOp55
 70
     1
102
RTVSPropertyOp56
 70
     1
102
RTVSPropertyOp57
 70
     1
102
RTVSPost2010Prop28
280
     0
102
RTVSPost2010PropOp28
 70
     1
102
RTVSPost2010Prop29
280
     1
102
RTVSPost2010PropOp29
 70
     1
102
RTVSPost2010Prop30
280
     1
102
RTVSPost2010PropOp30
 70
     1
102
RTVSPost2010Prop31
280
     0
102
RTVSPost2010PropOp31
 70
     1
102
RTVSPost2010Prop32
280
     0
102
RTVSPost2010PropOp32
 70
     1
102
RTVSPost2010Prop33
280
     0
102
RTVSPost2010PropOp33
 70
     1
102
RTVSPost2010Prop34
280
     0
102
RTVSPost2010PropOp34
 70
     1
102
RTVSPost2010Prop35
280
     0
102
RTVSPost2010PropOp35
 70
     1
102
RTVSPost2010Prop36
280
     0
102
RTVSPost2010PropOp36
 70
     1
102
RTVSPost2010Prop37
 90
       50
102
RTVSPost2010PropOp37
 70
     1
102
RTVSPost2010Prop38
140
0.0
102
RTVSPost2010PropOp38
 70
     1
102
RTVSPost2010Prop39
140
1.0
102
RTVSPost2010PropOp39
 70
     1
102
RTVSPost2010Prop40
 90
        0
102
RTVSPost2010PropOp40
 70
     1
102
RTVSPost2010Prop41ColorIndex
 90
       18
102
RTVSPost2010Prop41ColorRGB
 90
        0
102
RTVSPost2010PropOp41
 70
     1
102
RTVSPost2010Prop42
 90
       50
102
RTVSPost2010PropOp42
 70
     1
102
RTVSPost2010Prop43
 90
        3
102
RTVSPost2010PropOp43
 70
     1
102
RTVSPost2010Prop44ColorIndex
 90
        5
102
RTVSPost2010Prop44ColorRGB
 90
      255
102
RTVSPost2010PropOp44
 70
     1
102
RTVSPost2010Prop45
280
     0
102
RTVSPost2010PropOp45
 70
     1
102
RTVSPost2010Prop46
 90
       50
102
RTVSPost2010PropOp46
 70
     1
102
RTVSPost2010Prop47
 90
       50
102
RTVSPost2010PropOp47
 70
     1
102
RTVSPost2010Prop48
 90
       50
102
RTVSPost2010PropOp48
 70
     1
102
RTVSPost2010Prop49
280
     0
102
RTVSPost2010PropOp49
 70
     1
102
RTVSPost2010Prop50
 90
       50
102
RTVSPost2010PropOp50
 70
     1
102
RTVSPost2010Prop51ColorIndex
 90
      256
102
RTVSPost2010Prop51ColorRGB
 90
-16777216
102
RTVSPost2010PropOp51
 70
     0
102
RTVSPost2010Prop52
140
1.0
102
RTVSPost2010PropOp52
 70
     0
102
RTVSPost2010Prop53
 90
        2
102
RTVSPost2010PropOp53
 70
     1
102
RTVSPost2010Prop54
  1
strokes_ogs.tif
102
RTVSPost2010PropOp54
 70
     1
102
RTVSPost2010Prop55
280
     0
102
RTVSPost2010PropOp55
 70
     1
102
RTVSPost2010Prop56
140
1.0
102
RTVSPost2010PropOp56
 70
     1
102
RTVSPost2010Prop57
140
1.0
102
RTVSPost2010PropOp57
 70
     1
  0
XRECORD
  5
3BA
102
{ACAD_REACTORS
330
3B9
102
}
330
3B9
100
AcDbXrecord
280
     1
102
RTVSPropertyOp0
 70
     1
102
RTVSPropertyOp1
 70
     1
102
RTVSPropertyOp2
 70
     1
102
RTVSPropertyOp3
 70
     1
102
RTVSPropertyOp4
 70
     1
102
RTVSPropertyOp5
 70
     1
102
RTVSPropertyOp6
 70
     1
102
RTVSPropertyOp7
 70
     1
102
RTVSPropertyOp8
 70
     1
102
RTVSPropertyOp9
 70
     1
102
RTVSPropertyOp10
 70
     1
102
RTVSPropertyOp11
 70
     1
102
RTVSPropertyOp12
 70
     1
102
RTVSPropertyOp13
 70
     1
102
RTVSPropertyOp14
 70
     1
102
RTVSPropertyOp15
 70
     1
102
RTVSPropertyOp16
 70
     1
102
RTVSPropertyOp17
 70
     1
102
RTVSPropertyOp18
 70
     1
102
RTVSPropertyOp19
 70
     1
102
RTVSPropertyOp20
 70
     1
102
RTVSPropertyOp21
 70
     1
102
RTVSPropertyOp22
 70
     1
102
RTVSPropertyOp23
 70
     1
102
RTVSPropertyOp24
 70
     1
102
RTVSPropertyOp25
 70
     1
102
RTVSPropertyOp26
 70
     1
102
RTVSPropertyOp27
 70
     1
102
RTVSPropertyOp28
 70
     1
102
RTVSPropertyOp29
 70
     1
102
RTVSPropertyOp30
 70
     1
102
RTVSPropertyOp31
 70
     1
102
RTVSPropertyOp32
 70
     1
102
RTVSPropertyOp33
 70
     1
102
RTVSPropertyOp34
 70
     1
102
RTVSPropertyOp35
 70
     1
102
RTVSPropertyOp36
 70
     1
102
RTVSPropertyOp37
 70
     1
102
RTVSPropertyOp38
 70
     1
102
RTVSPropertyOp39
 70
     1
102
RTVSPropertyOp40
 70
     1
102
RTVSPropertyOp41
 70
     1
102
RTVSPropertyOp42
 70
     1
102
RTVSPropertyOp43
 70
     1
102
RTVSPropertyOp44
 70
     1
102
RTVSPropertyOp45
 70
     1
102
RTVSPropertyOp46
 70
     1
102
RTVSPropertyOp47
 70
     1
102
RTVSPropertyOp48
 70
     1
102
RTVSPropertyOp49
 70
     1
102
RTVSPropertyOp50
 70
     1
102
RTVSPropertyOp51
 70
     0
102
RTVSPropertyOp52
 70
     0
102
RTVSPropertyOp53
 70
     1
102
RTVSPropertyOp54
 70
     1
102
RTVSPropertyOp55
 70
     1
102
RTVSPropertyOp56
 70
     1
102
RTVSPropertyOp57
 70
     1
102
RTVSPost2010Prop28
280
     0
102
RTVSPost2010PropOp28
 70
     1
102
RTVSPost2010Prop29
280
     1
102
RTVSPost2010PropOp29
 70
     1
102
RTVSPost2010Prop30
280
     1
102
RTVSPost2010PropOp30
 70
     1
102
RTVSPost2010Prop31
280
     0
102
RTVSPost2010PropOp31
 70
     1
102
RTVSPost2010Prop32
280
     0
102
RTVSPost2010PropOp32
 70
     1
102
RTVSPost2010Prop33
280
     0
102
RTVSPost2010PropOp33
 70
     1
102
RTVSPost2010Prop34
280
     0
102
RTVSPost2010PropOp34
 70
     1
102
RTVSPost2010Prop35
280
     0
102
RTVSPost2010PropOp35
 70
     1
102
RTVSPost2010Prop36
280
     0
102
RTVSPost2010PropOp36
 70
     1
102
RTVSPost2010Prop37
 90
       50
102
RTVSPost2010PropOp37
 70
     1
102
RTVSPost2010Prop38
140
0.0
102
RTVSPost2010PropOp38
 70
     1
102
RTVSPost2010Prop39
140
1.0
102
RTVSPost2010PropOp39
 70
     1
102
RTVSPost2010Prop40
 90
        0
102
RTVSPost2010PropOp40
 70
     1
102
RTVSPost2010Prop41ColorIndex
 90
       18
102
RTVSPost2010Prop41ColorRGB
 90
        0
102
RTVSPost2010PropOp41
 70
     1
102
RTVSPost2010Prop42
 90
       50
102
RTVSPost2010PropOp42
 70
     1
102
RTVSPost2010Prop43
 90
        3
102
RTVSPost2010PropOp43
 70
     1
102
RTVSPost2010Prop44ColorIndex
 90
        5
102
RTVSPost2010Prop44ColorRGB
 90
      255
102
RTVSPost2010PropOp44
 70
     1
102
RTVSPost2010Prop45
280
     0
102
RTVSPost2010PropOp45
 70
     1
102
RTVSPost2010Prop46
 90
       50
102
RTVSPost2010PropOp46
 70
     1
102
RTVSPost2010Prop47
 90
       50
102
RTVSPost2010PropOp47
 70
     1
102
RTVSPost2010Prop48
 90
       50
102
RTVSPost2010PropOp48
 70
     1
102
RTVSPost2010Prop49
280
     0
102
RTVSPost2010PropOp49
 70
     1
102
RTVSPost2010Prop50
 90
       50
102
RTVSPost2010PropOp50
 70
     1
102
RTVSPost2010Prop51ColorIndex
 90
      256
102
RTVSPost2010Prop51ColorRGB
 90
-16777216
102
RTVSPost2010PropOp51
 70
     0
102
RTVSPost2010Prop52
140
1.0
102
RTVSPost2010PropOp52
 70
     0
102
RTVSPost2010Prop53
 90
        2
102
RTVSPost2010PropOp53
 70
     1
102
RTVSPost2010Prop54
  1
strokes_ogs.tif
102
RTVSPost2010PropOp54
 70
     1
102
RTVSPost2010Prop55
280
     0
102
RTVSPost2010PropOp55
 70
     1
102
RTVSPost2010Prop56
140
1.0
102
RTVSPost2010PropOp56
 70
     1
102
RTVSPost2010Prop57
140
1.0
102
RTVSPost2010PropOp57
 70
     1
  0
XRECORD
  5
3B4
102
{ACAD_REACTORS
330
3B3
102
}
330
3B3
100
AcDbXrecord
280
     1
102
RTVSPropertyOp0
 70
     1
102
RTVSPropertyOp1
 70
     1
102
RTVSPropertyOp2
 70
     1
102
RTVSPropertyOp3
 70
     1
102
RTVSPropertyOp4
 70
     1
102
RTVSPropertyOp5
 70
     1
102
RTVSPropertyOp6
 70
     1
102
RTVSPropertyOp7
 70
     1
102
RTVSPropertyOp8
 70
     1
102
RTVSPropertyOp9
 70
     1
102
RTVSPropertyOp10
 70
     1
102
RTVSPropertyOp11
 70
     1
102
RTVSPropertyOp12
 70
     1
102
RTVSPropertyOp13
 70
     1
102
RTVSPropertyOp14
 70
     1
102
RTVSPropertyOp15
 70
     1
102
RTVSPropertyOp16
 70
     1
102
RTVSPropertyOp17
 70
     1
102
RTVSPropertyOp18
 70
     1
102
RTVSPropertyOp19
 70
     1
102
RTVSPropertyOp20
 70
     1
102
RTVSPropertyOp21
 70
     1
102
RTVSPropertyOp22
 70
     1
102
RTVSPropertyOp23
 70
     1
102
RTVSPropertyOp24
 70
     1
102
RTVSPropertyOp25
 70
     1
102
RTVSPropertyOp26
 70
     1
102
RTVSPropertyOp27
 70
     1
102
RTVSPropertyOp28
 70
     1
102
RTVSPropertyOp29
 70
     1
102
RTVSPropertyOp30
 70
     1
102
RTVSPropertyOp31
 70
     1
102
RTVSPropertyOp32
 70
     1
102
RTVSPropertyOp33
 70
     1
102
RTVSPropertyOp34
 70
     1
102
RTVSPropertyOp35
 70
     1
102
RTVSPropertyOp36
 70
     1
102
RTVSPropertyOp37
 70
     1
102
RTVSPropertyOp38
 70
     1
102
RTVSPropertyOp39
 70
     1
102
RTVSPropertyOp40
 70
     1
102
RTVSPropertyOp41
 70
     1
102
RTVSPropertyOp42
 70
     1
102
RTVSPropertyOp43
 70
     1
102
RTVSPropertyOp44
 70
     1
102
RTVSPropertyOp45
 70
     1
102
RTVSPropertyOp46
 70
     1
102
RTVSPropertyOp47
 70
     1
102
RTVSPropertyOp48
 70
     1
102
RTVSPropertyOp49
 70
     1
102
RTVSPropertyOp50
 70
     1
102
RTVSPropertyOp51
 70
     0
102
RTVSPropertyOp52
 70
     0
102
RTVSPropertyOp53
 70
     1
102
RTVSPropertyOp54
 70
     1
102
RTVSPropertyOp55
 70
     1
102
RTVSPropertyOp56
 70
     1
102
RTVSPropertyOp57
 70
     1
102
RTVSPost2010Prop28
280
     0
102
RTVSPost2010PropOp28
 70
     1
102
RTVSPost2010Prop29
280
     1
102
RTVSPost2010PropOp29
 70
     1
102
RTVSPost2010Prop30
280
     1
102
RTVSPost2010PropOp30
 70
     1
102
RTVSPost2010Prop31
280
     0
102
RTVSPost2010PropOp31
 70
     1
102
RTVSPost2010Prop32
280
     0
102
RTVSPost2010PropOp32
 70
     1
102
RTVSPost2010Prop33
280
     0
102
RTVSPost2010PropOp33
 70
     1
102
RTVSPost2010Prop34
280
     0
102
RTVSPost2010PropOp34
 70
     1
102
RTVSPost2010Prop35
280
     0
102
RTVSPost2010PropOp35
 70
     1
102
RTVSPost2010Prop36
280
     0
102
RTVSPost2010PropOp36
 70
     1
102
RTVSPost2010Prop37
 90
       50
102
RTVSPost2010PropOp37
 70
     1
102
RTVSPost2010Prop38
140
0.0
102
RTVSPost2010PropOp38
 70
     1
102
RTVSPost2010Prop39
140
1.0
102
RTVSPost2010PropOp39
 70
     1
102
RTVSPost2010Prop40
 90
        0
102
RTVSPost2010PropOp40
 70
     1
102
RTVSPost2010Prop41ColorIndex
 90
       18
102
RTVSPost2010Prop41ColorRGB
 90
        0
102
RTVSPost2010PropOp41
 70
     1
102
RTVSPost2010Prop42
 90
       50
102
RTVSPost2010PropOp42
 70
     1
102
RTVSPost2010Prop43
 90
        3
102
RTVSPost2010PropOp43
 70
     1
102
RTVSPost2010Prop44ColorIndex
 90
        5
102
RTVSPost2010Prop44ColorRGB
 90
      255
102
RTVSPost2010PropOp44
 70
     1
102
RTVSPost2010Prop45
280
     0
102
RTVSPost2010PropOp45
 70
     1
102
RTVSPost2010Prop46
 90
       50
102
RTVSPost2010PropOp46
 70
     1
102
RTVSPost2010Prop47
 90
       50
102
RTVSPost2010PropOp47
 70
     1
102
RTVSPost2010Prop48
 90
       50
102
RTVSPost2010PropOp48
 70
     1
102
RTVSPost2010Prop49
280
     0
102
RTVSPost2010PropOp49
 70
     1
102
RTVSPost2010Prop50
 90
       50
102
RTVSPost2010PropOp50
 70
     1
102
RTVSPost2010Prop51ColorIndex
 90
      256
102
RTVSPost2010Prop51ColorRGB
 90
-16777216
102
RTVSPost2010PropOp51
 70
     0
102
RTVSPost2010Prop52
140
1.0
102
RTVSPost2010PropOp52
 70
     0
102
RTVSPost2010Prop53
 90
        2
102
RTVSPost2010PropOp53
 70
     1
102
RTVSPost2010Prop54
  1
strokes_ogs.tif
102
RTVSPost2010PropOp54
 70
     1
102
RTVSPost2010Prop55
280
     0
102
RTVSPost2010PropOp55
 70
     1
102
RTVSPost2010Prop56
140
1.0
102
RTVSPost2010PropOp56
 70
     1
102
RTVSPost2010Prop57
140
1.0
102
RTVSPost2010PropOp57
 70
     1
  0
XRECORD
  5
3B6
102
{ACAD_REACTORS
330
3B5
102
}
330
3B5
100
AcDbXrecord
280
     1
102
RTVSPropertyOp0
 70
     1
102
RTVSPropertyOp1
 70
     1
102
RTVSPropertyOp2
 70
     1
102
RTVSPropertyOp3
 70
     1
102
RTVSPropertyOp4
 70
     1
102
RTVSPropertyOp5
 70
     1
102
RTVSPropertyOp6
 70
     1
102
RTVSPropertyOp7
 70
     1
102
RTVSPropertyOp8
 70
     1
102
RTVSPropertyOp9
 70
     1
102
RTVSPropertyOp10
 70
     1
102
RTVSPropertyOp11
 70
     1
102
RTVSPropertyOp12
 70
     1
102
RTVSPropertyOp13
 70
     1
102
RTVSPropertyOp14
 70
     1
102
RTVSPropertyOp15
 70
     1
102
RTVSPropertyOp16
 70
     1
102
RTVSPropertyOp17
 70
     1
102
RTVSPropertyOp18
 70
     1
102
RTVSPropertyOp19
 70
     1
102
RTVSPropertyOp20
 70
     1
102
RTVSPropertyOp21
 70
     1
102
RTVSPropertyOp22
 70
     1
102
RTVSPropertyOp23
 70
     1
102
RTVSPropertyOp24
 70
     1
102
RTVSPropertyOp25
 70
     1
102
RTVSPropertyOp26
 70
     1
102
RTVSPropertyOp27
 70
     1
102
RTVSPropertyOp28
 70
     1
102
RTVSPropertyOp29
 70
     1
102
RTVSPropertyOp30
 70
     1
102
RTVSPropertyOp31
 70
     1
102
RTVSPropertyOp32
 70
     1
102
RTVSPropertyOp33
 70
     1
102
RTVSPropertyOp34
 70
     1
102
RTVSPropertyOp35
 70
     1
102
RTVSPropertyOp36
 70
     1
102
RTVSPropertyOp37
 70
     1
102
RTVSPropertyOp38
 70
     1
102
RTVSPropertyOp39
 70
     1
102
RTVSPropertyOp40
 70
     1
102
RTVSPropertyOp41
 70
     1
102
RTVSPropertyOp42
 70
     1
102
RTVSPropertyOp43
 70
     1
102
RTVSPropertyOp44
 70
     1
102
RTVSPropertyOp45
 70
     1
102
RTVSPropertyOp46
 70
     1
102
RTVSPropertyOp47
 70
     1
102
RTVSPropertyOp48
 70
     1
102
RTVSPropertyOp49
 70
     1
102
RTVSPropertyOp50
 70
     1
102
RTVSPropertyOp51
 70
     0
102
RTVSPropertyOp52
 70
     0
102
RTVSPropertyOp53
 70
     1
102
RTVSPropertyOp54
 70
     1
102
RTVSPropertyOp55
 70
     1
102
RTVSPropertyOp56
 70
     1
102
RTVSPropertyOp57
 70
     1
102
RTVSPost2010Prop28
280
     0
102
RTVSPost2010PropOp28
 70
     1
102
RTVSPost2010Prop29
280
     1
102
RTVSPost2010PropOp29
 70
     1
102
RTVSPost2010Prop30
280
     1
102
RTVSPost2010PropOp30
 70
     1
102
RTVSPost2010Prop31
280
     0
102
RTVSPost2010PropOp31
 70
     1
102
RTVSPost2010Prop32
280
     0
102
RTVSPost2010PropOp32
 70
     1
102
RTVSPost2010Prop33
280
     0
102
RTVSPost2010PropOp33
 70
     1
102
RTVSPost2010Prop34
280
     0
102
RTVSPost2010PropOp34
 70
     1
102
RTVSPost2010Prop35
280
     0
102
RTVSPost2010PropOp35
 70
     1
102
RTVSPost2010Prop36
280
     0
102
RTVSPost2010PropOp36
 70
     1
102
RTVSPost2010Prop37
 90
       50
102
RTVSPost2010PropOp37
 70
     1
102
RTVSPost2010Prop38
140
0.0
102
RTVSPost2010PropOp38
 70
     1
102
RTVSPost2010Prop39
140
1.0
102
RTVSPost2010PropOp39
 70
     1
102
RTVSPost2010Prop40
 90
        0
102
RTVSPost2010PropOp40
 70
     1
102
RTVSPost2010Prop41ColorIndex
 90
       18
102
RTVSPost2010Prop41ColorRGB
 90
        0
102
RTVSPost2010PropOp41
 70
     1
102
RTVSPost2010Prop42
 90
       50
102
RTVSPost2010PropOp42
 70
     1
102
RTVSPost2010Prop43
 90
        3
102
RTVSPost2010PropOp43
 70
     1
102
RTVSPost2010Prop44ColorIndex
 90
        5
102
RTVSPost2010Prop44ColorRGB
 90
      255
102
RTVSPost2010PropOp44
 70
     1
102
RTVSPost2010Prop45
280
     0
102
RTVSPost2010PropOp45
 70
     1
102
RTVSPost2010Prop46
 90
       50
102
RTVSPost2010PropOp46
 70
     1
102
RTVSPost2010Prop47
 90
       50
102
RTVSPost2010PropOp47
 70
     1
102
RTVSPost2010Prop48
 90
       50
102
RTVSPost2010PropOp48
 70
     1
102
RTVSPost2010Prop49
280
     0
102
RTVSPost2010PropOp49
 70
     1
102
RTVSPost2010Prop50
 90
       50
102
RTVSPost2010PropOp50
 70
     1
102
RTVSPost2010Prop51ColorIndex
 90
      256
102
RTVSPost2010Prop51ColorRGB
 90
-16777216
102
RTVSPost2010PropOp51
 70
     0
102
RTVSPost2010Prop52
140
1.0
102
RTVSPost2010PropOp52
 70
     0
102
RTVSPost2010Prop53
 90
        2
102
RTVSPost2010PropOp53
 70
     1
102
RTVSPost2010Prop54
  1
strokes_ogs.tif
102
RTVSPost2010PropOp54
 70
     1
102
RTVSPost2010Prop55
280
     0
102
RTVSPost2010PropOp55
 70
     1
102
RTVSPost2010Prop56
140
1.0
102
RTVSPost2010PropOp56
 70
     1
102
RTVSPost2010Prop57
140
1.0
102
RTVSPost2010PropOp57
 70
     1
  0
XRECORD
  5
3A6
102
{ACAD_REACTORS
330
3A5
102
}
330
3A5
100
AcDbXrecord
280
     1
102
RTVSPropertyOp0
 70
     1
102
RTVSPropertyOp1
 70
     1
102
RTVSPropertyOp2
 70
     1
102
RTVSPropertyOp3
 70
     1
102
RTVSPropertyOp4
 70
     1
102
RTVSPropertyOp5
 70
     1
102
RTVSPropertyOp6
 70
     1
102
RTVSPropertyOp7
 70
     1
102
RTVSPropertyOp8
 70
     1
102
RTVSPropertyOp9
 70
     1
102
RTVSPropertyOp10
 70
     1
102
RTVSPropertyOp11
 70
     1
102
RTVSPropertyOp12
 70
     1
102
RTVSPropertyOp13
 70
     1
102
RTVSPropertyOp14
 70
     1
102
RTVSPropertyOp15
 70
     1
102
RTVSPropertyOp16
 70
     1
102
RTVSPropertyOp17
 70
     1
102
RTVSPropertyOp18
 70
     1
102
RTVSPropertyOp19
 70
     1
102
RTVSPropertyOp20
 70
     1
102
RTVSPropertyOp21
 70
     1
102
RTVSPropertyOp22
 70
     1
102
RTVSPropertyOp23
 70
     1
102
RTVSPropertyOp24
 70
     1
102
RTVSPropertyOp25
 70
     1
102
RTVSPropertyOp26
 70
     1
102
RTVSPropertyOp27
 70
     1
102
RTVSPropertyOp28
 70
     1
102
RTVSPropertyOp29
 70
     1
102
RTVSPropertyOp30
 70
     1
102
RTVSPropertyOp31
 70
     1
102
RTVSPropertyOp32
 70
     1
102
RTVSPropertyOp33
 70
     1
102
RTVSPropertyOp34
 70
     1
102
RTVSPropertyOp35
 70
     1
102
RTVSPropertyOp36
 70
     1
102
RTVSPropertyOp37
 70
     1
102
RTVSPropertyOp38
 70
     1
102
RTVSPropertyOp39
 70
     1
102
RTVSPropertyOp40
 70
     1
102
RTVSPropertyOp41
 70
     1
102
RTVSPropertyOp42
 70
     1
102
RTVSPropertyOp43
 70
     1
102
RTVSPropertyOp44
 70
     1
102
RTVSPropertyOp45
 70
     1
102
RTVSPropertyOp46
 70
     1
102
RTVSPropertyOp47
 70
     1
102
RTVSPropertyOp48
 70
     1
102
RTVSPropertyOp49
 70
     1
102
RTVSPropertyOp50
 70
     1
102
RTVSPropertyOp51
 70
     0
102
RTVSPropertyOp52
 70
     0
102
RTVSPropertyOp53
 70
     1
102
RTVSPropertyOp54
 70
     1
102
RTVSPropertyOp55
 70
     1
102
RTVSPropertyOp56
 70
     1
102
RTVSPropertyOp57
 70
     1
102
RTVSPost2010Prop28
280
     0
102
RTVSPost2010PropOp28
 70
     1
102
RTVSPost2010Prop29
280
     1
102
RTVSPost2010PropOp29
 70
     1
102
RTVSPost2010Prop30
280
     1
102
RTVSPost2010PropOp30
 70
     1
102
RTVSPost2010Prop31
280
     0
102
RTVSPost2010PropOp31
 70
     1
102
RTVSPost2010Prop32
280
     0
102
RTVSPost2010PropOp32
 70
     1
102
RTVSPost2010Prop33
280
     0
102
RTVSPost2010PropOp33
 70
     1
102
RTVSPost2010Prop34
280
     0
102
RTVSPost2010PropOp34
 70
     1
102
RTVSPost2010Prop35
280
     0
102
RTVSPost2010PropOp35
 70
     1
102
RTVSPost2010Prop36
280
     0
102
RTVSPost2010PropOp36
 70
     1
102
RTVSPost2010Prop37
 90
       50
102
RTVSPost2010PropOp37
 70
     1
102
RTVSPost2010Prop38
140
0.0
102
RTVSPost2010PropOp38
 70
     1
102
RTVSPost2010Prop39
140
1.0
102
RTVSPost2010PropOp39
 70
     1
102
RTVSPost2010Prop40
 90
        0
102
RTVSPost2010PropOp40
 70
     1
102
RTVSPost2010Prop41ColorIndex
 90
       18
102
RTVSPost2010Prop41ColorRGB
 90
        0
102
RTVSPost2010PropOp41
 70
     1
102
RTVSPost2010Prop42
 90
       50
102
RTVSPost2010PropOp42
 70
     1
102
RTVSPost2010Prop43
 90
        3
102
RTVSPost2010PropOp43
 70
     1
102
RTVSPost2010Prop44ColorIndex
 90
        5
102
RTVSPost2010Prop44ColorRGB
 90
      255
102
RTVSPost2010PropOp44
 70
     1
102
RTVSPost2010Prop45
280
     0
102
RTVSPost2010PropOp45
 70
     1
102
RTVSPost2010Prop46
 90
       50
102
RTVSPost2010PropOp46
 70
     1
102
RTVSPost2010Prop47
 90
       50
102
RTVSPost2010PropOp47
 70
     1
102
RTVSPost2010Prop48
 90
       50
102
RTVSPost2010PropOp48
 70
     1
102
RTVSPost2010Prop49
280
     0
102
RTVSPost2010PropOp49
 70
     1
102
RTVSPost2010Prop50
 90
       50
102
RTVSPost2010PropOp50
 70
     1
102
RTVSPost2010Prop51ColorIndex
 90
      256
102
RTVSPost2010Prop51ColorRGB
 90
-16777216
102
RTVSPost2010PropOp51
 70
     0
102
RTVSPost2010Prop52
140
1.0
102
RTVSPost2010PropOp52
 70
     0
102
RTVSPost2010Prop53
 90
        2
102
RTVSPost2010PropOp53
 70
     1
102
RTVSPost2010Prop54
  1
strokes_ogs.tif
102
RTVSPost2010PropOp54
 70
     1
102
RTVSPost2010Prop55
280
     0
102
RTVSPost2010PropOp55
 70
     1
102
RTVSPost2010Prop56
140
1.0
102
RTVSPost2010PropOp56
 70
     1
102
RTVSPost2010Prop57
140
1.0
102
RTVSPost2010PropOp57
 70
     1
  0
XRECORD
  5
398
102
{ACAD_REACTORS
330
397
102
}
330
397
100
AcDbXrecord
280
     1
102
RTVSPropertyOp0
 70
     1
102
RTVSPropertyOp1
 70
     1
102
RTVSPropertyOp2
 70
     1
102
RTVSPropertyOp3
 70
     1
102
RTVSPropertyOp4
 70
     1
102
RTVSPropertyOp5
 70
     1
102
RTVSPropertyOp6
 70
     1
102
RTVSPropertyOp7
 70
     1
102
RTVSPropertyOp8
 70
     1
102
RTVSPropertyOp9
 70
     1
102
RTVSPropertyOp10
 70
     1
102
RTVSPropertyOp11
 70
     1
102
RTVSPropertyOp12
 70
     1
102
RTVSPropertyOp13
 70
     1
102
RTVSPropertyOp14
 70
     1
102
RTVSPropertyOp15
 70
     1
102
RTVSPropertyOp16
 70
     1
102
RTVSPropertyOp17
 70
     1
102
RTVSPropertyOp18
 70
     1
102
RTVSPropertyOp19
 70
     1
102
RTVSPropertyOp20
 70
     1
102
RTVSPropertyOp21
 70
     1
102
RTVSPropertyOp22
 70
     1
102
RTVSPropertyOp23
 70
     1
102
RTVSPropertyOp24
 70
     1
102
RTVSPropertyOp25
 70
     1
102
RTVSPropertyOp26
 70
     1
102
RTVSPropertyOp27
 70
     1
102
RTVSPropertyOp28
 70
     1
102
RTVSPropertyOp29
 70
     1
102
RTVSPropertyOp30
 70
     1
102
RTVSPropertyOp31
 70
     1
102
RTVSPropertyOp32
 70
     1
102
RTVSPropertyOp33
 70
     1
102
RTVSPropertyOp34
 70
     1
102
RTVSPropertyOp35
 70
     1
102
RTVSPropertyOp36
 70
     1
102
RTVSPropertyOp37
 70
     1
102
RTVSPropertyOp38
 70
     1
102
RTVSPropertyOp39
 70
     1
102
RTVSPropertyOp40
 70
     1
102
RTVSPropertyOp41
 70
     1
102
RTVSPropertyOp42
 70
     1
102
RTVSPropertyOp43
 70
     1
102
RTVSPropertyOp44
 70
     1
102
RTVSPropertyOp45
 70
     1
102
RTVSPropertyOp46
 70
     1
102
RTVSPropertyOp47
 70
     1
102
RTVSPropertyOp48
 70
     1
102
RTVSPropertyOp49
 70
     1
102
RTVSPropertyOp50
 70
     1
102
RTVSPropertyOp51
 70
     0
102
RTVSPropertyOp52
 70
     0
102
RTVSPropertyOp53
 70
     1
102
RTVSPropertyOp54
 70
     1
102
RTVSPropertyOp55
 70
     1
102
RTVSPropertyOp56
 70
     1
102
RTVSPropertyOp57
 70
     1
102
RTVSPost2010Prop28
280
     0
102
RTVSPost2010PropOp28
 70
     1
102
RTVSPost2010Prop29
280
     1
102
RTVSPost2010PropOp29
 70
     1
102
RTVSPost2010Prop30
280
     1
102
RTVSPost2010PropOp30
 70
     1
102
RTVSPost2010Prop31
280
     0
102
RTVSPost2010PropOp31
 70
     1
102
RTVSPost2010Prop32
280
     0
102
RTVSPost2010PropOp32
 70
     1
102
RTVSPost2010Prop33
280
     0
102
RTVSPost2010PropOp33
 70
     1
102
RTVSPost2010Prop34
280
     0
102
RTVSPost2010PropOp34
 70
     1
102
RTVSPost2010Prop35
280
     0
102
RTVSPost2010PropOp35
 70
     1
102
RTVSPost2010Prop36
280
     0
102
RTVSPost2010PropOp36
 70
     1
102
RTVSPost2010Prop37
 90
       50
102
RTVSPost2010PropOp37
 70
     1
102
RTVSPost2010Prop38
140
0.0
102
RTVSPost2010PropOp38
 70
     1
102
RTVSPost2010Prop39
140
1.0
102
RTVSPost2010PropOp39
 70
     1
102
RTVSPost2010Prop40
 90
        0
102
RTVSPost2010PropOp40
 70
     1
102
RTVSPost2010Prop41ColorIndex
 90
       18
102
RTVSPost2010Prop41ColorRGB
 90
        0
102
RTVSPost2010PropOp41
 70
     1
102
RTVSPost2010Prop42
 90
       50
102
RTVSPost2010PropOp42
 70
     1
102
RTVSPost2010Prop43
 90
        3
102
RTVSPost2010PropOp43
 70
     1
102
RTVSPost2010Prop44ColorIndex
 90
        5
102
RTVSPost2010Prop44ColorRGB
 90
      255
102
RTVSPost2010PropOp44
 70
     1
102
RTVSPost2010Prop45
280
     0
102
RTVSPost2010PropOp45
 70
     1
102
RTVSPost2010Prop46
 90
       50
102
RTVSPost2010PropOp46
 70
     1
102
RTVSPost2010Prop47
 90
       50
102
RTVSPost2010PropOp47
 70
     1
102
RTVSPost2010Prop48
 90
       50
102
RTVSPost2010PropOp48
 70
     1
102
RTVSPost2010Prop49
280
     0
102
RTVSPost2010PropOp49
 70
     1
102
RTVSPost2010Prop50
 90
       50
102
RTVSPost2010PropOp50
 70
     1
102
RTVSPost2010Prop51ColorIndex
 90
      256
102
RTVSPost2010Prop51ColorRGB
 90
-16777216
102
RTVSPost2010PropOp51
 70
     0
102
RTVSPost2010Prop52
140
1.0
102
RTVSPost2010PropOp52
 70
     0
102
RTVSPost2010Prop53
 90
        2
102
RTVSPost2010PropOp53
 70
     1
102
RTVSPost2010Prop54
  1
strokes_ogs.tif
102
RTVSPost2010PropOp54
 70
     1
102
RTVSPost2010Prop55
280
     0
102
RTVSPost2010PropOp55
 70
     1
102
RTVSPost2010Prop56
140
1.0
102
RTVSPost2010PropOp56
 70
     1
102
RTVSPost2010Prop57
140
1.0
102
RTVSPost2010PropOp57
 70
     1
  0
XRECORD
  5
3B8
102
{ACAD_REACTORS
330
3B7
102
}
330
3B7
100
AcDbXrecord
280
     1
102
RTVSPropertyOp0
 70
     1
102
RTVSPropertyOp1
 70
     1
102
RTVSPropertyOp2
 70
     1
102
RTVSPropertyOp3
 70
     1
102
RTVSPropertyOp4
 70
     1
102
RTVSPropertyOp5
 70
     1
102
RTVSPropertyOp6
 70
     1
102
RTVSPropertyOp7
 70
     1
102
RTVSPropertyOp8
 70
     1
102
RTVSPropertyOp9
 70
     1
102
RTVSPropertyOp10
 70
     1
102
RTVSPropertyOp11
 70
     1
102
RTVSPropertyOp12
 70
     1
102
RTVSPropertyOp13
 70
     1
102
RTVSPropertyOp14
 70
     1
102
RTVSPropertyOp15
 70
     1
102
RTVSPropertyOp16
 70
     1
102
RTVSPropertyOp17
 70
     1
102
RTVSPropertyOp18
 70
     1
102
RTVSPropertyOp19
 70
     1
102
RTVSPropertyOp20
 70
     1
102
RTVSPropertyOp21
 70
     1
102
RTVSPropertyOp22
 70
     1
102
RTVSPropertyOp23
 70
     1
102
RTVSPropertyOp24
 70
     1
102
RTVSPropertyOp25
 70
     1
102
RTVSPropertyOp26
 70
     1
102
RTVSPropertyOp27
 70
     1
102
RTVSPropertyOp28
 70
     1
102
RTVSPropertyOp29
 70
     1
102
RTVSPropertyOp30
 70
     1
102
RTVSPropertyOp31
 70
     1
102
RTVSPropertyOp32
 70
     1
102
RTVSPropertyOp33
 70
     1
102
RTVSPropertyOp34
 70
     1
102
RTVSPropertyOp35
 70
     1
102
RTVSPropertyOp36
 70
     1
102
RTVSPropertyOp37
 70
     1
102
RTVSPropertyOp38
 70
     1
102
RTVSPropertyOp39
 70
     1
102
RTVSPropertyOp40
 70
     1
102
RTVSPropertyOp41
 70
     1
102
RTVSPropertyOp42
 70
     1
102
RTVSPropertyOp43
 70
     1
102
RTVSPropertyOp44
 70
     1
102
RTVSPropertyOp45
 70
     1
102
RTVSPropertyOp46
 70
     1
102
RTVSPropertyOp47
 70
     1
102
RTVSPropertyOp48
 70
     1
102
RTVSPropertyOp49
 70
     1
102
RTVSPropertyOp50
 70
     1
102
RTVSPropertyOp51
 70
     0
102
RTVSPropertyOp52
 70
     0
102
RTVSPropertyOp53
 70
     1
102
RTVSPropertyOp54
 70
     1
102
RTVSPropertyOp55
 70
     1
102
RTVSPropertyOp56
 70
     1
102
RTVSPropertyOp57
 70
     1
102
RTVSPost2010Prop28
280
     0
102
RTVSPost2010PropOp28
 70
     1
102
RTVSPost2010Prop29
280
     1
102
RTVSPost2010PropOp29
 70
     1
102
RTVSPost2010Prop30
280
     1
102
RTVSPost2010PropOp30
 70
     1
102
RTVSPost2010Prop31
280
     0
102
RTVSPost2010PropOp31
 70
     1
102
RTVSPost2010Prop32
280
     0
102
RTVSPost2010PropOp32
 70
     1
102
RTVSPost2010Prop33
280
     0
102
RTVSPost2010PropOp33
 70
     1
102
RTVSPost2010Prop34
280
     0
102
RTVSPost2010PropOp34
 70
     1
102
RTVSPost2010Prop35
280
     0
102
RTVSPost2010PropOp35
 70
     1
102
RTVSPost2010Prop36
280
     0
102
RTVSPost2010PropOp36
 70
     1
102
RTVSPost2010Prop37
 90
       50
102
RTVSPost2010PropOp37
 70
     1
102
RTVSPost2010Prop38
140
0.0
102
RTVSPost2010PropOp38
 70
     1
102
RTVSPost2010Prop39
140
1.0
102
RTVSPost2010PropOp39
 70
     1
102
RTVSPost2010Prop40
 90
        0
102
RTVSPost2010PropOp40
 70
     1
102
RTVSPost2010Prop41ColorIndex
 90
       18
102
RTVSPost2010Prop41ColorRGB
 90
        0
102
RTVSPost2010PropOp41
 70
     1
102
RTVSPost2010Prop42
 90
       50
102
RTVSPost2010PropOp42
 70
     1
102
RTVSPost2010Prop43
 90
        3
102
RTVSPost2010PropOp43
 70
     1
102
RTVSPost2010Prop44ColorIndex
 90
        5
102
RTVSPost2010Prop44ColorRGB
 90
      255
102
RTVSPost2010PropOp44
 70
     1
102
RTVSPost2010Prop45
280
     0
102
RTVSPost2010PropOp45
 70
     1
102
RTVSPost2010Prop46
 90
       50
102
RTVSPost2010PropOp46
 70
     1
102
RTVSPost2010Prop47
 90
       50
102
RTVSPost2010PropOp47
 70
     1
102
RTVSPost2010Prop48
 90
       50
102
RTVSPost2010PropOp48
 70
     1
102
RTVSPost2010Prop49
280
     0
102
RTVSPost2010PropOp49
 70
     1
102
RTVSPost2010Prop50
 90
       50
102
RTVSPost2010PropOp50
 70
     1
102
RTVSPost2010Prop51ColorIndex
 90
      256
102
RTVSPost2010Prop51ColorRGB
 90
-16777216
102
RTVSPost2010PropOp51
 70
     0
102
RTVSPost2010Prop52
140
1.0
102
RTVSPost2010PropOp52
 70
     0
102
RTVSPost2010Prop53
 90
        2
102
RTVSPost2010PropOp53
 70
     1
102
RTVSPost2010Prop54
  1
strokes_ogs.tif
102
RTVSPost2010PropOp54
 70
     1
102
RTVSPost2010Prop55
280
     0
102
RTVSPost2010PropOp55
 70
     1
102
RTVSPost2010Prop56
140
1.0
102
RTVSPost2010PropOp56
 70
     1
102
RTVSPost2010Prop57
140
1.0
102
RTVSPost2010PropOp57
 70
     1
  0
ENDSEC
  0
EOF
