  0
SECTION
  2
HEADER
  9
$ACADVER
  1
AC1009
  9
$INSBASE
 10
0.000000000
 20
0.000000000
  9
$EXTMIN
 10
-33.912377561
 20
-19.840579710
  9
$EXTMAX
 10
373.036153171
 20
218.246376812
  9
$LIMMIN
 10
-33.912377561
 20
-19.840579710
  9
$LIMMAX
 10
373.036153171
 20
218.246376812
  9
$SNAPBASE
 10
0.000000000
 20
0.000000000
  9
$SNAPANG
 50
0.000000000
  9
$SNAPSTYLE
 70
0
  9
$GRIDMODE
 70
0
  9
$GRIDUNIT
 10
0.000000000
 20
0.000000000
  9
$DIMEXO
 40
0.000000000
  9
$DIMDLI
 40
8.000000000
  9
$DIMDLE
 40
0.000000000
  9
$DIMEXE
 40
1.000000000
  9
$DIMTIH
 70
1
  9
$DIMTOH
 70
1
  9
$DIMTAD
 70
2
  9
$DIMZIN
 70
0
  9
$FILLETRAD
 40
1.000000000
  9
$CHAMFERA
 40
1.000000000
  9
$CHAMFERB
 40
1.000000000
  9
$TDCREATE
 40
2454152.721203704
  9
$TDUPDATE
 40
2454152.721203704
  9
$ANGBASE
 50
0.000000000
  9
$ANGDIR
 70
0
  0
ENDSEC
  0
SECTION
  2
TABLES
  0
TABLE
  2
LTYPE
 70
4
  0
LTYPE
  2
CENTER
 70
64
  3
___ _ ___ _ __
 72
65
 73
4
 40
13.000000000
 49
8.500000000
 49
-1.500000000
 49
1.500000000
 49
-1.500000000
  0
LTYPE
  2
CONTINUOUS
 70
64
  3
______________
 72
65
 73
0
 40
0.000000000
  0
LTYPE
  2
DIVIDE
 70
64
  3
___ . . ___ . 
 72
65
 73
6
 40
12.999999523
 49
5.199999809
 49
-2.599999905
 49
0.000000000
 49
-2.599999905
 49
0.000000000
 49
-2.599999905
  0
LTYPE
  2
PHANTOM
 70
64
  3
___ _ _ ___ _ 
 72
65
 73
6
 40
12.999999762
 49
4.000000000
 49
-1.799999952
 49
1.799999952
 49
-1.799999952
 49
1.799999952
 49
-1.799999952
  0
ENDTAB
  0
TABLE
  2
LAYER
 70
7
  0
LAYER
  2
1
 70
0
 62
7
  6
CONTINUOUS
  0
LAYER
  2
2
 70
0
 62
7
  6
CONTINUOUS
  0
LAYER
  2
3
 70
0
 62
7
  6
CONTINUOUS
999
Comment
  0
LAYER
  2
5
 70
0
 62
7
  6
CONTINUOUS
999
Comment
  0
LAYER
  2
15
 70
0
 62
5
  6
CONTINUOUS
999
ﾁｬｯｸ
  0
LAYER
  2
17
 70
0
 62
3
  6
CONTINUOUS
999
226
  0
LAYER
  2
30
 70
0
 62
7
  6
CONTINUOUS
999
111
  0
LAYER
  2
_CONSTR
 70
0
 62
5
  6
CONTINUOUS
  0
ENDTAB
  0
TABLE
  2
STYLE
 70
1
  0
STYLE
  2
STANDARD
 70
64
 40
0.000000000
 41
1.000000000
 50
0.000000000
 71
0
 42
3.200000000
  3
TXT
  4
EXTFONT
  0
ENDTAB
  0
TABLE
  2
VIEW
 70
0
  0
ENDTAB
  0
ENDSEC
  0
SECTION
  2
BLOCKS
  0
BLOCK
  8
0
  2
*D26
 70
65
 10
0.000000000
 20
0.000000000
  3
*D
  0
TEXT
  8
1
 62
4
  6
CONTINUOUS
 72
5
 10
316.728666116
 20
122.814412555
 40
2.800000000
  1
(
 41
1.650001650
 50
11.999999995
 11
318.235013421
 21
123.134596558
  0
TEXT
  8
1
 62
4
  6
CONTINUOUS
 72
5
 10
318.988187074
 20
123.294688560
 40
2.800000000
  1
φ
 41
1.164760695
 50
11.999999995
 11
322.000881684
 21
123.935056568
  0
TEXT
  8
1
 62
4
  6
CONTINUOUS
 72
5
 10
323.507228989
 20
124.255240571
 40
2.800000000
  1
12
 41
1.031247938
 50
11.999999995
 11
327.273097252
 21
125.055700581
  0
TEXT
  8
1
 62
4
  6
CONTINUOUS
 72
5
 10
328.026270905
 20
125.215792583
 40
2.800000000
  1
)
 41
1.650001650
 50
11.999999995
 11
329.532618210
 21
125.535976586
  0
LINE
  8
1
 62
4
  6
CONTINUOUS
 10
303.386716675
 20
118.367783464
 11
303.933417906
 21
115.795756389
  0
POLYLINE
  8
1
 62
4
  6
CONTINUOUS
 66
1
  0
VERTEX
  8
1
 10
305.411516219
 20
118.461319252
  0
VERTEX
  8
1
 10
303.517594525
 20
117.752051591
  0
VERTEX
  8
1
 10
305.536263233
 20
117.874430692
  0
SEQEND
  8
1
  0
LINE
  8
1
 62
4
  6
CONTINUOUS
 10
303.517594525
 20
117.752051591
 11
315.255365734
 21
120.246991879
  0
POLYLINE
  8
1
 62
4
  6
CONTINUOUS
 66
1
  0
VERTEX
  8
1
 10
313.361444039
 20
119.537724218
  0
VERTEX
  8
1
 10
315.255365734
 20
120.246991879
  0
VERTEX
  8
1
 10
313.236697025
 20
120.124612778
  0
SEQEND
  8
1
  0
LINE
  8
1
 62
4
  6
CONTINUOUS
 10
315.139255662
 20
120.793246819
 11
315.671189115
 21
118.290696678
  0
POLYLINE
  8
1
 62
4
  6
CONTINUOUS
 66
1
  0
VERTEX
  8
1
 10
315.255365734
 20
120.246991879
  0
VERTEX
  8
1
 10
331.932295217
 20
123.791782668
  0
SEQEND
  8
1
  0
ENDBLK
  8
0
  0
BLOCK
  8
0
  2
*D89
 70
65
 10
0.000000000
 20
0.000000000
  3
*D
  0
TEXT
  8
1
 62
4
  6
CONTINUOUS
 72
5
 10
259.788528159
 20
126.362401190
 40
2.800000000
  1
(
 41
1.650001650
 50
348.000000000
 11
261.294875465
 21
126.042217186
  0
TEXT
  8
1
 62
4
  6
CONTINUOUS
 72
5
 10
262.048049117
 20
125.882125184
 40
2.800000000
  1
φ
 41
1.164760695
 50
348.000000000
 11
265.060743727
 21
125.241757177
  0
TEXT
  8
1
 62
4
  6
CONTINUOUS
 72
5
 10
266.567091032
 20
124.921573173
 40
2.800000000
  1
14
 41
1.031247938
 50
348.000000000
 11
270.332959295
 21
124.121113163
  0
TEXT
  8
1
 62
4
  6
CONTINUOUS
 72
5
 10
271.086132948
 20
123.961021161
 40
2.800000000
  1
)
 41
1.650001650
 50
348.000000000
 11
272.592480253
 21
123.640837157
  0
LINE
  8
1
 62
4
  6
CONTINUOUS
 10
289.259435544
 20
116.007613103
 11
290.048702615
 21
119.720822730
  0
POLYLINE
  8
1
 62
4
  6
CONTINUOUS
 66
1
  0
VERTEX
  8
1
 10
287.614210525
 20
117.886906630
  0
VERTEX
  8
1
 10
289.632879233
 20
117.764527529
  0
VERTEX
  8
1
 10
287.738957539
 20
118.473795191
  0
SEQEND
  8
1
  0
LINE
  8
1
 62
4
  6
CONTINUOUS
 10
289.632879233
 20
117.764527529
 11
275.938812823
 21
120.675291200
  0
POLYLINE
  8
1
 62
4
  6
CONTINUOUS
 66
1
  0
VERTEX
  8
1
 10
277.957481532
 20
120.552912099
  0
VERTEX
  8
1
 10
275.938812823
 20
120.675291200
  0
VERTEX
  8
1
 10
277.832734517
 20
119.966023539
  0
SEQEND
  8
1
  0
LINE
  8
1
 62
4
  6
CONTINUOUS
 10
275.514238955
 20
118.677828197
 11
276.354636205
 21
122.631586402
  0
POLYLINE
  8
1
 62
4
  6
CONTINUOUS
 66
1
  0
VERTEX
  8
1
 10
289.632879233
 20
117.764527529
  0
VERTEX
  8
1
 10
257.373787680
 20
124.621409112
  0
SEQEND
  8
1
  0
ENDBLK
  8
0
  0
BLOCK
  8
0
  2
*D99
 70
65
 10
0.000000000
 20
0.000000000
  3
*D
  0
TEXT
  8
1
 62
4
  6
CONTINUOUS
 72
5
 10
315.723738190
 20
98.295736768
 40
2.800000000
  1
3.8
 41
1.199998800
 50
11.999999995
 11
322.296890067
 21
99.692903330
  0
LINE
  8
1
 62
4
  6
CONTINUOUS
 10
298.443329520
 20
152.206007073
 11
311.028224272
 21
92.998732273
  0
POLYLINE
  8
1
 62
4
  6
CONTINUOUS
 66
1
  0
VERTEX
  8
1
 10
308.593732182
 20
94.832648374
  0
VERTEX
  8
1
 10
310.612400890
 20
94.955027475
  0
SEQEND
  8
1
  0
POLYLINE
  8
1
 62
4
  6
CONTINUOUS
 66
1
  0
VERTEX
  8
1
 10
307.677958088
 20
94.331292403
  0
VERTEX
  8
1
 10
310.612400890
 20
94.955027475
  0
VERTEX
  8
1
 10
308.718479196
 20
94.245759813
  0
SEQEND
  8
1
  0
LINE
  8
1
 62
4
  6
CONTINUOUS
 10
310.612400890
 20
94.955027475
 11
314.329361777
 21
95.745091901
  0
POLYLINE
  8
1
 62
4
  6
CONTINUOUS
 66
1
  0
VERTEX
  8
1
 10
316.348030486
 20
95.867471002
  0
VERTEX
  8
1
 10
314.329361777
 20
95.745091901
  0
SEQEND
  8
1
  0
POLYLINE
  8
1
 62
4
  6
CONTINUOUS
 66
1
  0
VERTEX
  8
1
 10
317.263804580
 20
96.368826973
  0
VERTEX
  8
1
 10
314.329361777
 20
95.745091901
  0
VERTEX
  8
1
 10
316.223283472
 20
96.454359562
  0
SEQEND
  8
1
  0
LINE
  8
1
 62
4
  6
CONTINUOUS
 10
311.955836651
 20
106.911649681
 11
314.745185159
 21
93.788796699
  0
POLYLINE
  8
1
 62
4
  6
CONTINUOUS
 66
1
  0
VERTEX
  8
1
 10
314.329361777
 20
95.745091901
  0
VERTEX
  8
1
 10
324.695197667
 20
97.948418335
  0
SEQEND
  8
1
  0
ENDBLK
  8
0
  0
BLOCK
  8
0
  2
*D107
 70
65
 10
0.000000000
 20
0.000000000
  3
*D
  0
TEXT
  8
1
 62
4
  6
CONTINUOUS
 72
5
 10
231.857740660
 20
156.274197101
 40
2.800000000
  1
φ
 41
1.270648030
 50
90.000000000
 11
231.857740660
 21
159.634197101
  0
TEXT
  8
1
 62
4
  6
CONTINUOUS
 72
5
 10
231.857740660
 20
161.314197101
 40
2.800000000
  1
18.9
 41
1.237498917
 50
90.000000000
 11
231.857740660
 21
170.554197101
  0
LINE
  8
1
 62
4
  6
CONTINUOUS
 10
221.762740660
 20
172.855797101
 11
236.062740660
 21
172.855797101
  0
POLYLINE
  8
1
 62
4
  6
CONTINUOUS
 66
1
  0
VERTEX
  8
1
 10
234.362740660
 20
170.855797101
  0
VERTEX
  8
1
 10
234.062740660
 20
172.855797101
  0
VERTEX
  8
1
 10
233.762740660
 20
170.855797101
  0
SEQEND
  8
1
  0
LINE
  8
1
 62
4
  6
CONTINUOUS
 10
234.062740660
 20
172.855797101
 11
234.062740660
 21
153.955797101
  0
POLYLINE
  8
1
 62
4
  6
CONTINUOUS
 66
1
  0
VERTEX
  8
1
 10
233.762740660
 20
155.955797101
  0
VERTEX
  8
1
 10
234.062740660
 20
153.955797101
  0
VERTEX
  8
1
 10
234.362740660
 20
155.955797101
  0
SEQEND
  8
1
  0
LINE
  8
1
 62
4
  6
CONTINUOUS
 10
221.762740660
 20
153.955797101
 11
236.062740660
 21
153.955797101
  0
ENDBLK
  8
0
  0
BLOCK
  8
0
  2
*D127
 70
65
 10
0.000000000
 20
0.000000000
  3
*D
  0
TEXT
  8
1
 62
4
  6
CONTINUOUS
 72
5
 10
285.645084421
 20
96.352412705
 40
2.800000000
  1
12
 41
1.124997750
 50
354.000000000
 11
289.822076382
 21
95.913393160
  0
TEXT
  8
1
 62
4
  6
CONTINUOUS
 72
5
 10
290.657474774
 20
95.825589251
 40
2.800000000
  1
°
 41
1.270648030
 50
354.000000000
 11
293.999068343
 21
95.474373614
  0
LINE
  8
1
 62
4
  6
CONTINUOUS
 10
293.682151800
 20
152.206007073
 11
281.097257043
 21
92.998732275
  0
POLYLINE
  8
1
 62
4
  6
CONTINUOUS
 66
1
  0
VERTEX
  8
1
 10
283.531749133
 20
94.832648375
  0
VERTEX
  8
1
 10
281.513080425
 20
94.955027476
  0
VERTEX
  8
1
 10
283.407002119
 20
94.245759814
  0
SEQEND
  8
1
  0
ARC
  8
1
 62
4
  6
CONTINUOUS
 10
296.062740660
 20
163.405797101
 40
69.980000538
 50
258.000000000
 51
270.000000000
  0
POLYLINE
  8
1
 62
4
  6
CONTINUOUS
 66
1
  0
VERTEX
  8
1
 10
294.062740660
 20
93.125796564
  0
VERTEX
  8
1
 10
296.062740660
 20
93.425796564
  0
VERTEX
  8
1
 10
294.062740660
 20
93.725796564
  0
SEQEND
  8
1
  0
LINE
  8
1
 62
4
  6
CONTINUOUS
 10
296.062740660
 20
151.955797101
 11
296.062740660
 21
91.425796564
  0
ENDBLK
  8
0
  0
BLOCK
  8
0
  2
*D128
 70
65
 10
0.000000000
 20
0.000000000
  3
*D
  0
TEXT
  8
1
 62
4
  6
CONTINUOUS
 72
5
 10
270.093794198
 20
99.636532703
 40
2.800000000
  1
3.8
 41
1.199998800
 50
348.000000000
 11
276.666946075
 21
98.239366142
  0
LINE
  8
1
 62
4
  6
CONTINUOUS
 10
279.875236452
 20
105.526567908
 11
277.380296162
 21
93.788796699
  0
POLYLINE
  8
1
 62
4
  6
CONTINUOUS
 66
1
  0
VERTEX
  8
1
 10
275.902197849
 20
96.454359562
  0
VERTEX
  8
1
 10
277.796119544
 20
95.745091900
  0
SEQEND
  8
1
  0
POLYLINE
  8
1
 62
4
  6
CONTINUOUS
 66
1
  0
VERTEX
  8
1
 10
274.861676741
 20
96.368826972
  0
VERTEX
  8
1
 10
277.796119544
 20
95.745091900
  0
VERTEX
  8
1
 10
275.777450835
 20
95.867471001
  0
SEQEND
  8
1
  0
LINE
  8
1
 62
4
  6
CONTINUOUS
 10
277.796119544
 20
95.745091900
 11
281.513080425
 21
94.955027476
  0
POLYLINE
  8
1
 62
4
  6
CONTINUOUS
 66
1
  0
VERTEX
  8
1
 10
283.407002119
 20
94.245759814
  0
VERTEX
  8
1
 10
281.513080425
 20
94.955027476
  0
SEQEND
  8
1
  0
POLYLINE
  8
1
 62
4
  6
CONTINUOUS
 66
1
  0
VERTEX
  8
1
 10
284.447523227
 20
94.331292404
  0
VERTEX
  8
1
 10
281.513080425
 20
94.955027476
  0
VERTEX
  8
1
 10
283.531749134
 20
94.832648375
  0
SEQEND
  8
1
  0
LINE
  8
1
 62
4
  6
CONTINUOUS
 10
293.682151800
 20
152.206007073
 11
281.097257043
 21
92.998732275
  0
POLYLINE
  8
1
 62
4
  6
CONTINUOUS
 66
1
  0
VERTEX
  8
1
 10
277.796119544
 20
95.745091900
  0
VERTEX
  8
1
 10
267.679053718
 20
97.895540625
  0
SEQEND
  8
1
  0
ENDBLK
  8
0
  0
BLOCK
  8
0
  2
*D142
 70
65
 10
0.000000000
 20
0.000000000
  3
*D
  0
TEXT
  8
1
 62
4
  6
CONTINUOUS
 72
5
 10
299.813917730
 20
95.651737510
 40
2.800000000
  1
12
 41
1.124997750
 50
6.000000000
 11
303.990909690
 21
96.090757056
  0
TEXT
  8
1
 62
4
  6
CONTINUOUS
 72
5
 10
304.826308083
 20
96.178560965
 40
2.800000000
  1
°
 41
1.270648030
 50
6.000000000
 11
308.167901651
 21
96.529776602
  0
POLYLINE
  8
1
 62
4
  6
CONTINUOUS
 66
1
  0
VERTEX
  8
1
 10
298.062740660
 20
93.725796564
  0
VERTEX
  8
1
 10
296.062740660
 20
93.425796564
  0
VERTEX
  8
1
 10
298.062740660
 20
93.125796564
  0
SEQEND
  8
1
  0
ARC
  8
1
 62
4
  6
CONTINUOUS
 10
296.062740660
 20
163.405797101
 40
69.980000538
 50
270.000000000
 51
282.000000000
  0
POLYLINE
  8
1
 62
4
  6
CONTINUOUS
 66
1
  0
VERTEX
  8
1
 10
308.718479201
 20
94.245759814
  0
VERTEX
  8
1
 10
310.612400895
 20
94.955027476
  0
VERTEX
  8
1
 10
308.593732187
 20
94.832648375
  0
SEQEND
  8
1
  0
LINE
  8
1
 62
4
  6
CONTINUOUS
 10
298.443329520
 20
152.206007073
 11
311.028224277
 21
92.998732274
  0
ENDBLK
  8
0
  0
BLOCK
  8
0
  2
*D150
 70
65
 10
0.000000000
 20
0.000000000
  3
*D
  0
TEXT
  8
1
 62
4
  6
CONTINUOUS
 72
5
 10
334.441629654
 20
147.364283637
 40
2.800000000
  1
(
 41
1.800001800
 50
281.999999995
 11
334.790921294
 21
145.720995668
  0
TEXT
  8
1
 62
4
  6
CONTINUOUS
 72
5
 10
334.965567114
 20
144.899351683
 40
2.800000000
  1
57
 41
0.899998740
 50
281.999999995
 11
335.838796216
 21
140.791131760
  0
TEXT
  8
1
 62
4
  6
CONTINUOUS
 72
5
 10
336.013442036
 20
139.969487775
 40
2.800000000
  1
)
 41
1.800001800
 50
281.999999995
 11
336.362733677
 21
138.326199806
  0
LINE
  8
1
 62
4
  6
CONTINUOUS
 10
296.062740660
 20
163.405797101
 11
329.319759086
 21
170.474794586
  0
POLYLINE
  8
1
 62
4
  6
CONTINUOUS
 66
1
  0
VERTEX
  8
1
 10
328.072731546
 20
168.165049511
  0
VERTEX
  8
1
 10
327.363463884
 20
170.058971205
  0
VERTEX
  8
1
 10
327.485842986
 20
168.040302496
  0
SEQEND
  8
1
  0
LINE
  8
1
 62
4
  6
CONTINUOUS
 10
327.363463884
 20
170.058971205
 11
339.123775610
 21
114.731054562
  0
POLYLINE
  8
1
 62
4
  6
CONTINUOUS
 66
1
  0
VERTEX
  8
1
 10
338.414507948
 20
116.624976256
  0
VERTEX
  8
1
 10
339.123775610
 20
114.731054562
  0
VERTEX
  8
1
 10
339.001396509
 20
116.749723271
  0
SEQEND
  8
1
  0
LINE
  8
1
 62
4
  6
CONTINUOUS
 10
317.408898874
 20
110.115415028
 11
341.080070812
 21
115.146877943
  0
ENDBLK
  8
0
  0
BLOCK
  8
0
  2
*D153
 70
65
 10
0.000000000
 20
0.000000000
  3
*D
  0
TEXT
  8
1
 62
4
  6
CONTINUOUS
 72
5
 10
255.619036454
 20
137.650091797
 40
2.800000000
  1
(
 41
1.800001800
 50
78.000000007
 11
255.968328095
 21
139.293379766
  0
TEXT
  8
1
 62
4
  6
CONTINUOUS
 72
5
 10
256.142973915
 20
140.115023751
 40
2.800000000
  1
58
 41
0.899998740
 50
78.000000007
 11
257.016203016
 21
144.223243674
  0
TEXT
  8
1
 62
4
  6
CONTINUOUS
 72
5
 10
257.190848836
 20
145.044887659
 40
2.800000000
  1
)
 41
1.800001800
 50
78.000000007
 11
257.540140476
 21
146.688175628
  0
LINE
  8
1
 62
4
  6
CONTINUOUS
 10
296.062740660
 20
163.405797101
 11
262.805722234
 21
170.474794585
  0
POLYLINE
  8
1
 62
4
  6
CONTINUOUS
 66
1
  0
VERTEX
  8
1
 10
264.639638335
 20
168.040302495
  0
VERTEX
  8
1
 10
264.762017436
 20
170.058971204
  0
VERTEX
  8
1
 10
264.052749774
 20
168.165049509
  0
SEQEND
  8
1
  0
LINE
  8
1
 62
4
  6
CONTINUOUS
 10
264.762017436
 20
170.058971204
 11
252.707297498
 21
113.345972786
  0
POLYLINE
  8
1
 62
4
  6
CONTINUOUS
 66
1
  0
VERTEX
  8
1
 10
252.829676599
 20
115.364641495
  0
VERTEX
  8
1
 10
252.707297498
 20
113.345972786
  0
VERTEX
  8
1
 10
253.416565160
 20
115.239894480
  0
SEQEND
  8
1
  0
LINE
  8
1
 62
4
  6
CONTINUOUS
 10
274.422174227
 20
108.730333254
 11
250.751002296
 21
113.761796167
  0
ENDBLK
  8
0
  0
BLOCK
  8
0
  2
*D197
 70
65
 10
0.000000000
 20
0.000000000
  3
*D
  0
TEXT
  8
1
 62
4
  6
CONTINUOUS
 72
5
 10
133.957740660
 20
155.442597101
 40
2.800000000
  1
φ
 41
1.270648030
 50
90.000000000
 11
133.957740660
 21
158.802597101
  0
TEXT
  8
1
 62
4
  6
CONTINUOUS
 72
5
 10
133.957740660
 20
160.482597101
 40
2.800000000
  1
22
 41
0.899998740
 50
90.000000000
 11
133.957740660
 21
164.682597101
  0
TEXT
  8
1
 62
4
  6
CONTINUOUS
 72
5
 10
132.193740660
 20
165.522597101
 40
1.400000000
  1
 0
 41
2.333335926
 50
90.000000000
 11
132.193740660
 21
168.462597101
  0
TEXT
  8
1
 62
4
  6
CONTINUOUS
 72
5
 10
134.335740660
 20
165.522597101
 40
1.400000000
  1
-0.01
 41
1.710000684
 50
90.000000000
 11
134.335740660
 21
173.502597101
  0
POLYLINE
  8
1
 62
4
  6
CONTINUOUS
 66
1
  0
VERTEX
  8
1
 10
136.462740660
 20
172.405797101
  0
VERTEX
  8
1
 10
136.162740660
 20
174.405797101
  0
VERTEX
  8
1
 10
135.862740660
 20
172.405797101
  0
SEQEND
  8
1
  0
LINE
  8
1
 62
4
  6
CONTINUOUS
 10
136.162740660
 20
174.405797101
 11
136.162740660
 21
152.405797101
  0
POLYLINE
  8
1
 62
4
  6
CONTINUOUS
 66
1
  0
VERTEX
  8
1
 10
135.862740660
 20
154.405797101
  0
VERTEX
  8
1
 10
136.162740660
 20
152.405797101
  0
VERTEX
  8
1
 10
136.462740660
 20
154.405797101
  0
SEQEND
  8
1
  0
ENDBLK
  8
0
  0
BLOCK
  8
0
  2
*D198
 70
65
 10
0.000000000
 20
0.000000000
  3
*D
  0
TEXT
  8
1
 62
4
  6
CONTINUOUS
 72
5
 10
153.407740660
 20
155.442597101
 40
2.800000000
  1
φ
 41
1.270648030
 50
90.000000000
 11
153.407740660
 21
158.802597101
  0
TEXT
  8
1
 62
4
  6
CONTINUOUS
 72
5
 10
153.407740660
 20
160.482597101
 40
2.800000000
  1
22
 41
0.899998740
 50
90.000000000
 11
153.407740660
 21
164.682597101
  0
TEXT
  8
1
 62
4
  6
CONTINUOUS
 72
5
 10
151.643740660
 20
165.522597101
 40
1.400000000
  1
-0.01
 41
1.710000684
 50
90.000000000
 11
151.643740660
 21
173.502597101
  0
TEXT
  8
1
 62
4
  6
CONTINUOUS
 72
5
 10
153.785740660
 20
165.522597101
 40
1.400000000
  1
-0.02
 41
1.554544889
 50
90.000000000
 11
153.785740660
 21
173.502597101
  0
POLYLINE
  8
1
 62
4
  6
CONTINUOUS
 66
1
  0
VERTEX
  8
1
 10
155.912740660
 20
172.405797101
  0
VERTEX
  8
1
 10
155.612740660
 20
174.405797101
  0
VERTEX
  8
1
 10
155.312740660
 20
172.405797101
  0
SEQEND
  8
1
  0
LINE
  8
1
 62
4
  6
CONTINUOUS
 10
155.612740660
 20
174.405797101
 11
155.612740660
 21
152.405797101
  0
POLYLINE
  8
1
 62
4
  6
CONTINUOUS
 66
1
  0
VERTEX
  8
1
 10
155.312740660
 20
154.405797101
  0
VERTEX
  8
1
 10
155.612740660
 20
152.405797101
  0
VERTEX
  8
1
 10
155.912740660
 20
154.405797101
  0
SEQEND
  8
1
  0
ENDBLK
  8
0
  0
BLOCK
  8
0
  2
*D205
 70
65
 10
0.000000000
 20
0.000000000
  3
*D
  0
TEXT
  8
1
 62
4
  6
CONTINUOUS
 72
5
 10
86.086238045
 20
156.274197101
 40
2.800000000
  1
φ
 41
1.270648030
 50
90.000000000
 11
86.086238045
 21
159.634197101
  0
TEXT
  8
1
 62
4
  6
CONTINUOUS
 72
5
 10
86.086238045
 20
161.314197101
 40
2.800000000
  1
11.8
 41
1.414284098
 50
90.000000000
 11
86.086238045
 21
170.554197101
  0
LINE
  8
1
 62
4
  6
CONTINUOUS
 10
107.850083772
 20
169.305797101
 11
86.291238045
 21
169.305797101
  0
POLYLINE
  8
1
 62
4
  6
CONTINUOUS
 66
1
  0
VERTEX
  8
1
 10
88.591238045
 20
167.305797101
  0
VERTEX
  8
1
 10
88.291238045
 20
169.305797101
  0
VERTEX
  8
1
 10
87.991238045
 20
167.305797101
  0
SEQEND
  8
1
  0
LINE
  8
1
 62
4
  6
CONTINUOUS
 10
88.291238045
 20
169.305797101
 11
88.291238045
 21
157.505797101
  0
POLYLINE
  8
1
 62
4
  6
CONTINUOUS
 66
1
  0
VERTEX
  8
1
 10
87.991238045
 20
159.505797101
  0
VERTEX
  8
1
 10
88.291238045
 20
157.505797101
  0
VERTEX
  8
1
 10
88.591238045
 20
159.505797101
  0
SEQEND
  8
1
  0
LINE
  8
1
 62
4
  6
CONTINUOUS
 10
107.850083772
 20
157.505797101
 11
86.291238045
 21
157.505797101
  0
ENDBLK
  8
0
  0
BLOCK
  8
0
  2
*D207
 70
65
 10
0.000000000
 20
0.000000000
  3
*D
  0
TEXT
  8
1
 62
4
  6
CONTINUOUS
 72
5
 10
154.785389353
 20
200.610797101
 40
2.800000000
  1
(
 41
1.800001800
 11
156.465389353
 21
200.610797101
  0
TEXT
  8
1
 62
4
  6
CONTINUOUS
 72
5
 10
157.305389353
 20
200.610797101
 40
2.800000000
  1
117.8
 41
1.259998992
 11
169.065389353
 21
200.610797101
  0
TEXT
  8
1
 62
4
  6
CONTINUOUS
 72
5
 10
169.905389353
 20
200.610797101
 40
2.800000000
  1
)
 41
1.800001800
 11
171.585389353
 21
200.610797101
  0
LINE
  8
1
 62
4
  6
CONTINUOUS
 10
104.291238045
 20
166.828446832
 11
104.291238045
 21
200.405797101
  0
POLYLINE
  8
1
 62
4
  6
CONTINUOUS
 66
1
  0
VERTEX
  8
1
 10
106.291238045
 20
198.705797101
  0
VERTEX
  8
1
 10
104.291238045
 20
198.405797101
  0
VERTEX
  8
1
 10
106.291238045
 20
198.105797101
  0
SEQEND
  8
1
  0
LINE
  8
1
 62
4
  6
CONTINUOUS
 10
104.291238045
 20
198.405797101
 11
222.062740660
 21
198.405797101
  0
POLYLINE
  8
1
 62
4
  6
CONTINUOUS
 66
1
  0
VERTEX
  8
1
 10
220.062740660
 20
198.105797101
  0
VERTEX
  8
1
 10
222.062740660
 20
198.405797101
  0
VERTEX
  8
1
 10
220.062740660
 20
198.705797101
  0
SEQEND
  8
1
  0
LINE
  8
1
 62
4
  6
CONTINUOUS
 10
222.062740660
 20
172.555797101
 11
222.062740660
 21
200.405797101
  0
ENDBLK
  8
0
  0
BLOCK
  8
0
  2
*D208
 70
65
 10
0.000000000
 20
0.000000000
  3
*D
  0
TEXT
  8
1
 62
4
  6
CONTINUOUS
 72
5
 10
173.401140660
 20
192.610797101
 40
2.800000000
  1
63.7
 41
1.099999267
 11
182.641140660
 21
192.610797101
  0
LINE
  8
1
 62
4
  6
CONTINUOUS
 10
146.162740660
 20
174.405797101
 11
146.162740660
 21
192.405797101
  0
POLYLINE
  8
1
 62
4
  6
CONTINUOUS
 66
1
  0
VERTEX
  8
1
 10
148.162740660
 20
190.705797101
  0
VERTEX
  8
1
 10
146.162740660
 20
190.405797101
  0
VERTEX
  8
1
 10
148.162740660
 20
190.105797101
  0
SEQEND
  8
1
  0
LINE
  8
1
 62
4
  6
CONTINUOUS
 10
146.162740660
 20
190.405797101
 11
209.862740660
 21
190.405797101
  0
POLYLINE
  8
1
 62
4
  6
CONTINUOUS
 66
1
  0
VERTEX
  8
1
 10
207.862740660
 20
190.105797101
  0
VERTEX
  8
1
 10
209.862740660
 20
190.405797101
  0
VERTEX
  8
1
 10
207.862740660
 20
190.705797101
  0
SEQEND
  8
1
  0
LINE
  8
1
 62
4
  6
CONTINUOUS
 10
209.862740660
 20
173.405797101
 11
209.862740660
 21
192.405797101
  0
ENDBLK
  8
0
  0
BLOCK
  8
0
  2
*D209
 70
65
 10
0.000000000
 20
0.000000000
  3
*D
  0
TEXT
  8
1
 62
4
  6
CONTINUOUS
 72
5
 10
105.089689353
 20
192.610797101
 40
2.800000000
  1
(
 41
1.650001650
 11
106.629689353
 21
192.610797101
  0
TEXT
  8
1
 62
4
  6
CONTINUOUS
 72
5
 10
107.399689353
 20
192.610797101
 40
2.800000000
  1
14.7
 41
1.134374007
 11
115.869689353
 21
192.610797101
  0
TEXT
  8
1
 62
4
  6
CONTINUOUS
 72
5
 10
116.639689353
 20
192.610797101
 40
2.800000000
  1
)
 41
1.650001650
 11
118.179689353
 21
192.610797101
  0
LINE
  8
1
 62
4
  6
CONTINUOUS
 10
104.291238045
 20
166.828446832
 11
104.291238045
 21
192.405797101
  0
POLYLINE
  8
1
 62
4
  6
CONTINUOUS
 66
1
  0
VERTEX
  8
1
 10
106.291238045
 20
190.705797101
  0
VERTEX
  8
1
 10
104.291238045
 20
190.405797101
  0
VERTEX
  8
1
 10
106.291238045
 20
190.105797101
  0
SEQEND
  8
1
  0
LINE
  8
1
 62
4
  6
CONTINUOUS
 10
104.291238045
 20
190.405797101
 11
118.962740660
 21
190.405797101
  0
POLYLINE
  8
1
 62
4
  6
CONTINUOUS
 66
1
  0
VERTEX
  8
1
 10
116.962740660
 20
190.105797101
  0
VERTEX
  8
1
 10
118.962740660
 20
190.405797101
  0
VERTEX
  8
1
 10
116.962740660
 20
190.705797101
  0
SEQEND
  8
1
  0
LINE
  8
1
 62
4
  6
CONTINUOUS
 10
118.962740660
 20
172.680797101
 11
118.962740660
 21
192.405797101
  0
ENDBLK
  8
0
  0
BLOCK
  8
0
  2
*D210
 70
65
 10
0.000000000
 20
0.000000000
  3
*D
  0
TEXT
  8
1
 62
4
  6
CONTINUOUS
 72
5
 10
125.431140660
 20
192.610797101
 40
2.800000000
  1
(
 41
1.800001800
 11
127.111140660
 21
192.610797101
  0
TEXT
  8
1
 62
4
  6
CONTINUOUS
 72
5
 10
127.951140660
 20
192.610797101
 40
2.800000000
  1
27.2
 41
1.099999267
 11
137.191140660
 21
192.610797101
  0
TEXT
  8
1
 62
4
  6
CONTINUOUS
 72
5
 10
138.031140660
 20
192.610797101
 40
2.800000000
  1
)
 41
1.800001800
 11
139.711140660
 21
192.610797101
  0
POLYLINE
  8
1
 62
4
  6
CONTINUOUS
 66
1
  0
VERTEX
  8
1
 10
120.962740660
 20
190.705797101
  0
VERTEX
  8
1
 10
118.962740660
 20
190.405797101
  0
VERTEX
  8
1
 10
120.962740660
 20
190.105797101
  0
SEQEND
  8
1
  0
LINE
  8
1
 62
4
  6
CONTINUOUS
 10
118.962740660
 20
190.405797101
 11
146.162740660
 21
190.405797101
  0
POLYLINE
  8
1
 62
4
  6
CONTINUOUS
 66
1
  0
VERTEX
  8
1
 10
144.162740660
 20
190.105797101
  0
VERTEX
  8
1
 10
146.162740660
 20
190.405797101
  0
VERTEX
  8
1
 10
144.162740660
 20
190.705797101
  0
SEQEND
  8
1
  0
LINE
  8
1
 62
4
  6
CONTINUOUS
 10
146.162740660
 20
174.405797101
 11
146.162740660
 21
192.405797101
  0
ENDBLK
  8
0
  0
BLOCK
  8
0
  2
*D211
 70
65
 10
0.000000000
 20
0.000000000
  3
*D
  0
TEXT
  8
1
 62
4
  6
CONTINUOUS
 72
5
 10
208.443104068
 20
192.610797101
 40
2.800000000
  1
(
 41
1.650001650
 11
209.983104068
 21
192.610797101
  0
TEXT
  8
1
 62
4
  6
CONTINUOUS
 72
5
 10
210.753104068
 20
192.610797101
 40
2.800000000
  1
12.2
 41
1.134374007
 11
219.223104068
 21
192.610797101
  0
TEXT
  8
1
 62
4
  6
CONTINUOUS
 72
5
 10
219.993104068
 20
192.610797101
 40
2.800000000
  1
)
 41
1.650001650
 11
221.533104068
 21
192.610797101
  0
POLYLINE
  8
1
 62
4
  6
CONTINUOUS
 66
1
  0
VERTEX
  8
1
 10
211.862740660
 20
190.705797101
  0
VERTEX
  8
1
 10
209.862740660
 20
190.405797101
  0
VERTEX
  8
1
 10
211.862740660
 20
190.105797101
  0
SEQEND
  8
1
  0
LINE
  8
1
 62
4
  6
CONTINUOUS
 10
209.862740660
 20
190.405797101
 11
222.062740660
 21
190.405797101
  0
POLYLINE
  8
1
 62
4
  6
CONTINUOUS
 66
1
  0
VERTEX
  8
1
 10
220.062740660
 20
190.105797101
  0
VERTEX
  8
1
 10
222.062740660
 20
190.405797101
  0
VERTEX
  8
1
 10
220.062740660
 20
190.705797101
  0
SEQEND
  8
1
  0
LINE
  8
1
 62
4
  6
CONTINUOUS
 10
222.062740660
 20
172.555797101
 11
222.062740660
 21
192.405797101
  0
ENDBLK
  8
0
  0
ENDSEC
  0
SECTION
  2
ENTITIES
  0
LINE
  8
1
 62
7
  6
CONTINUOUS
 10
118.862740660
 20
158.805797101
 11
118.862740660
 21
168.005797101
  0
LINE
  8
1
 62
7
  6
CONTINUOUS
 10
118.862740660
 20
158.805797101
 11
118.962740660
 21
158.705797101
  0
LINE
  8
1
 62
7
  6
CONTINUOUS
 10
116.262740660
 20
168.005797101
 11
118.862740660
 21
168.005797101
  0
LINE
  8
1
 62
7
  6
CONTINUOUS
 10
116.262740660
 20
158.805797101
 11
116.262740660
 21
168.005797101
  0
LINE
  8
1
 62
7
  6
CONTINUOUS
 10
116.162740660
 20
168.105797101
 11
116.262740660
 21
168.005797101
  0
LINE
  8
1
 62
7
  6
CONTINUOUS
 10
115.791238045
 20
168.105797101
 11
116.162740660
 21
168.105797101
  0
LINE
  8
17
 62
1
  6
CENTER
 10
92.291238045
 20
163.405797101
 11
224.062740660
 21
163.405797101
  0
LINE
  8
1
 62
7
  6
CONTINUOUS
 10
116.162740660
 20
158.705797101
 11
116.262740660
 21
158.805797101
  0
LINE
  8
1
 62
7
  6
CONTINUOUS
 10
116.262740660
 20
158.805797101
 11
118.862740660
 21
158.805797101
  0
LINE
  8
1
 62
7
  6
CONTINUOUS
 10
118.862740660
 20
168.005797101
 11
118.962740660
 21
168.105797101
  0
LINE
  8
1
 62
4
  6
CONTINUOUS
 10
118.762740660
 20
165.677360440
 11
116.362740660
 21
161.134233763
  0
LINE
  8
1
 62
4
  6
CONTINUOUS
 10
116.362740660
 20
165.677360440
 11
118.762740660
 21
161.134233763
  0
ARC
  8
1
 62
7
  6
CONTINUOUS
 10
114.991238045
 20
168.505797101
 40
0.800000000
 50
0.000000000
 51
90.000000000
  0
LINE
  8
1
 62
7
  6
CONTINUOUS
 10
116.162740660
 20
168.105797101
 11
116.162740660
 21
158.705797101
  0
LINE
  8
1
 62
7
  6
CONTINUOUS
 10
108.141238045
 20
157.505797101
 11
108.291238045
 21
157.655797101
  0
LINE
  8
1
 62
7
  6
CONTINUOUS
 10
115.791238045
 20
158.705797101
 11
116.162740660
 21
158.705797101
  0
LINE
  8
3
 62
7
  6
CONTINUOUS
 10
121.162740660
 20
170.655797101
 11
121.362740660
 21
170.655797101
  0
LINE
  8
30
 62
7
  6
CONTINUOUS
 10
121.362740660
 20
173.405797101
 11
122.362740660
 21
174.405797101
  0
LINE
  8
30
 62
7
  6
CONTINUOUS
 10
146.162740660
 20
152.405797101
 11
146.162740660
 21
174.405797101
  0
ARC
  8
1
 62
7
  6
CONTINUOUS
 10
157.260599005
 20
163.405797101
 40
18.475208614
 50
165.638488437
 51
194.361511563
  0
LINE
  8
30
 62
7
  6
CONTINUOUS
 10
121.362740660
 20
153.405797101
 11
122.362740660
 21
152.405797101
  0
LINE
  8
30
 62
7
  6
CONTINUOUS
 10
122.362740660
 20
152.405797101
 11
146.162740660
 21
152.405797101
  0
LINE
  8
30
 62
7
  6
CONTINUOUS
 10
122.362740660
 20
174.405797101
 11
146.162740660
 21
174.405797101
  0
LINE
  8
30
 62
7
  6
CONTINUOUS
 10
122.362740660
 20
152.405797101
 11
122.362740660
 21
174.405797101
  0
LINE
  8
1
 62
7
  6
CONTINUOUS
 10
222.062740660
 20
171.905797101
 11
212.062740660
 21
171.905797101
  0
DIMENSION
  8
1
 62
4
  6
CONTINUOUS
  2
*D26
 70
0
 10
315.255365734
 20
120.246991879
 11
323.581555705
 21
122.016778191
 14
315.139255662
 24
120.793246819
 13
303.386716675
 23
118.367783464
 50
191.999999995
  0
LINE
  8
1
 62
7
  6
CONTINUOUS
 10
299.709019267
 20
134.467555835
 11
311.935864276
 21
137.066451971
  0
ARC
  8
1
 62
7
  6
CONTINUOUS
 10
312.358184898
 20
135.079589657
 40
2.031250000
 50
102.000000000
 51
161.489762594
  0
LINE
  8
1
 62
7
  6
CONTINUOUS
 10
300.071428213
 20
124.345520692
 11
302.272826933
 21
123.608606794
  0
LINE
  8
1
 62
7
  6
CONTINUOUS
 10
315.726739486
 20
127.648821422
 11
314.010520026
 21
126.103530479
  0
ARC
  8
1
 62
7
  6
CONTINUOUS
 10
301.605891295
 20
125.543474581
 40
2.031250000
 50
288.451825822
 51
341.489762594
  0
LINE
  8
1
 62
7
  6
CONTINUOUS
 10
317.200987183
 20
111.093562628
 11
305.463215974
 21
108.598622339
  0
LINE
  8
1
 62
7
  6
CONTINUOUS
 10
315.317942400
 20
112.737990294
 11
315.733765782
 21
110.781695092
  0
LINE
  8
1
 62
7
  6
CONTINUOUS
 10
305.671127665
 20
107.620474738
 11
317.408898874
 21
110.115415028
  0
LINE
  8
1
 62
7
  6
CONTINUOUS
 10
312.335386934
 20
126.769810544
 11
310.432017666
 21
135.724458911
  0
LINE
  8
1
 62
7
  6
CONTINUOUS
 10
305.463215974
 20
108.598622339
 11
305.671127665
 21
107.620474738
  0
LINE
  8
1
 62
7
  6
CONTINUOUS
 10
317.408898874
 20
110.115415028
 11
317.200987183
 21
111.093562628
  0
LINE
  8
1
 62
7
  6
CONTINUOUS
 10
278.287406481
 20
136.534289983
 11
276.421150924
 21
127.754247899
  0
LINE
  8
1
 62
7
  6
CONTINUOUS
 10
280.207076473
 20
137.148592125
 11
292.433921482
 21
134.549695990
  0
LINE
  8
1
 62
7
  6
CONTINUOUS
 10
279.807553816
 20
126.851950698
 11
281.710923083
 21
135.806599065
  0
ARC
  8
1
 62
7
  6
CONTINUOUS
 10
278.376901293
 20
128.025343447
 40
1.850301917
 50
208.317900462
 51
320.642077288
  0
LINE
  8
1
 62
7
  6
CONTINUOUS
 10
292.066562875
 20
124.404374523
 11
290.848339533
 21
123.482818653
  0
LINE
  8
1
 62
7
  6
CONTINUOUS
 10
276.421150924
 20
127.754247899
 11
277.154351239
 21
126.393565720
  0
LINE
  8
1
 62
7
  6
CONTINUOUS
 10
286.367857127
 20
107.213540565
 11
274.630085918
 21
109.708480855
  0
LINE
  8
1
 62
7
  6
CONTINUOUS
 10
285.316459108
 20
109.481703303
 11
284.900635726
 21
107.525408101
  0
LINE
  8
1
 62
7
  6
CONTINUOUS
 10
293.937768093
 20
133.207702930
 11
292.066562875
 21
124.404374523
  0
LINE
  8
1
 62
7
  6
CONTINUOUS
 10
280.207076473
 20
137.148592125
 11
278.287406481
 21
136.534289983
  0
LINE
  8
1
 62
7
  6
CONTINUOUS
 10
274.422174227
 20
108.730333254
 11
286.159945436
 21
106.235392964
  0
LINE
  8
1
 62
7
  6
CONTINUOUS
 10
292.433921482
 20
134.549695990
 11
293.937768093
 21
133.207702930
  0
LINE
  8
1
 62
7
  6
CONTINUOUS
 10
274.630085918
 20
109.708480855
 11
274.422174227
 21
108.730333254
  0
LINE
  8
1
 62
7
  6
CONTINUOUS
 10
286.159945436
 20
106.235392964
 11
286.367857127
 21
107.213540565
  0
LINE
  8
1
 62
7
  6
CONTINUOUS
 10
210.062740660
 20
172.855797101
 11
210.062740660
 21
153.955797101
  0
LINE
  8
1
 62
7
  6
CONTINUOUS
 10
288.610882222
 20
124.980745481
 11
290.514251490
 21
133.935393848
  0
ARC
  8
1
 62
7
  6
CONTINUOUS
 10
209.612740660
 20
154.705797101
 40
0.450000000
 50
303.748988593
 51
0.000000000
  0
ARC
  8
1
 62
7
  6
CONTINUOUS
 10
279.784755851
 20
135.161729811
 40
2.031250000
 50
18.510237406
 51
78.000000000
  0
LINE
  8
1
 62
7
  6
CONTINUOUS
 10
290.848339533
 20
123.482818653
 11
287.865783955
 21
109.450997876
  0
LINE
  8
1
 62
7
  6
CONTINUOUS
 10
287.272754309
 20
109.065879921
 11
274.556835500
 21
111.768731902
  0
LINE
  8
1
 62
7
  6
CONTINUOUS
 10
277.155990314
 20
126.401661072
 11
274.171717545
 21
112.361761548
  0
ARC
  8
1
 62
7
  6
CONTINUOUS
 10
286.210368043
 20
135.331018747
 40
10.625000000
 50
232.942384582
 51
283.057615418
  0
LINE
  8
1
 62
4
  6
PHANTOM
 10
222.062740660
 20
154.255797101
 11
222.062740660
 21
154.905797101
  0
LINE
  8
1
 62
4
  6
PHANTOM
 10
221.762740660
 20
153.955797101
 11
212.062740660
 21
153.955797101
  0
ARC
  8
1
 62
7
  6
CONTINUOUS
 10
292.011600860
 20
132.562833676
 40
2.031250000
 50
78.000000000
 51
137.489762594
  0
LINE
  8
1
 62
7
  6
CONTINUOUS
 10
290.848339533
 20
123.482818653
 11
277.154351239
 21
126.393565720
  0
ARC
  8
1
 62
7
  6
CONTINUOUS
 10
290.403654264
 20
125.479870264
 40
1.860955976
 50
195.557708232
 51
307.106605351
  0
LINE
  8
1
 62
7
  6
CONTINUOUS
 10
314.010520026
 20
126.103530479
 11
316.681207956
 21
113.538931630
  0
LINE
  8
1
 62
4
  6
PHANTOM
 10
221.762740660
 20
172.855797101
 11
222.062740660
 21
172.555797101
  0
LINE
  8
1
 62
7
  6
CONTINUOUS
 10
316.296090001
 20
112.945901984
 11
305.536466393
 21
110.658873385
  0
LINE
  8
1
 62
7
  6
CONTINUOUS
 10
302.271031626
 20
123.616668937
 11
304.943436747
 21
111.043991340
  0
LINE
  8
1
 62
7
  6
CONTINUOUS
 10
314.010520026
 20
126.103530479
 11
302.272826933
 21
123.608606794
  0
ARC
  8
1
 62
7
  6
CONTINUOUS
 10
284.111437263
 20
125.456325799
 40
10.625000000
 50
52.942384582
 51
103.057615418
  0
LINE
  8
1
 62
7
  6
CONTINUOUS
 10
299.709019267
 20
134.467555835
 11
298.205172657
 21
133.125562776
  0
LINE
  8
1
 62
7
  6
CONTINUOUS
 10
276.097307319
 20
109.396613319
 11
276.513130701
 21
111.352908520
  0
LINE
  8
1
 62
7
  6
CONTINUOUS
 10
274.171717545
 20
112.361761548
 11
274.556835500
 21
111.768731902
  0
LINE
  8
1
 62
7
  6
CONTINUOUS
 10
287.272754309
 20
109.065879921
 11
287.865783955
 21
109.450997876
  0
LINE
  8
1
 62
7
  6
CONTINUOUS
 10
287.865783955
 20
109.450997876
 11
274.171717545
 21
112.361761548
  0
LINE
  8
1
 62
7
  6
CONTINUOUS
 10
311.935864276
 20
137.066451971
 11
313.855534268
 21
136.452149829
  0
LINE
  8
1
 62
7
  6
CONTINUOUS
 10
298.205172657
 20
133.125562776
 11
300.071428213
 21
124.345520692
  0
LINE
  8
1
 62
7
  6
CONTINUOUS
 10
306.930437375
 20
108.910489875
 11
306.514613993
 21
110.866785076
  0
LINE
  8
1
 62
7
  6
CONTINUOUS
 10
304.943436747
 20
111.043991340
 11
305.536466393
 21
110.658873385
  0
LINE
  8
1
 62
4
  6
PHANTOM
 10
221.762740660
 20
172.855797101
 11
212.062740660
 21
172.855797101
  0
LINE
  8
1
 62
7
  6
CONTINUOUS
 10
316.296090001
 20
112.945901984
 11
316.681207956
 21
113.538931630
  0
LINE
  8
1
 62
7
  6
CONTINUOUS
 10
316.681207956
 20
113.538931630
 11
304.943436747
 21
111.043991340
  0
LINE
  8
1
 62
7
  6
CONTINUOUS
 10
303.532058527
 20
124.898605326
 11
301.628689259
 21
133.853253694
  0
LINE
  8
1
 62
7
  6
CONTINUOUS
 10
313.855534268
 20
136.452149829
 11
315.726739486
 21
127.648821422
  0
ARC
  8
1
 62
7
  6
CONTINUOUS
 10
300.131339889
 20
132.480693521
 40
2.031250000
 50
42.510237406
 51
102.000000000
  0
ARC
  8
1
 62
7
  6
CONTINUOUS
 10
305.932572706
 20
135.248878592
 40
10.625000000
 50
256.942384582
 51
307.057615418
  0
ARC
  8
1
 62
7
  6
CONTINUOUS
 10
313.832736304
 20
128.142370716
 40
2.031250000
 50
222.510237406
 51
275.560735571
  0
ARC
  8
1
 62
7
  6
CONTINUOUS
 10
308.031503487
 20
125.374185645
 40
10.625000000
 50
76.942384582
 51
127.057615418
  0
DIMENSION
  8
1
 62
4
  6
CONTINUOUS
  2
*D89
 70
0
 10
275.938812823
 20
120.675291200
 11
265.724527191
 21
122.846404634
 14
275.514238955
 24
118.677828197
 13
289.259435544
 23
116.007613103
 50
348.000000000
  0
LINE
  8
1
 62
7
  6
CONTINUOUS
 10
212.262740660
 20
154.905797101
 11
212.262740660
 21
159.492383943
  0
LINE
  8
1
 62
4
  6
PHANTOM
 10
222.062740660
 20
154.255797101
 11
221.762740660
 21
153.955797101
  0
LINE
  8
1
 62
7
  6
CONTINUOUS
 10
212.262740660
 20
154.905797101
 11
212.062740660
 21
154.905797101
  0
TEXT
  8
1
 62
4
  6
CONTINUOUS
 72
5
 10
251.813179048
 20
104.605203210
 40
3.200000000
  1
（排気）
 41
0.722783070
 11
262.323948279
 21
104.605203210
  0
LINE
  8
1
 62
7
  6
CONTINUOUS
 10
219.862740660
 20
154.905797101
 11
219.862740660
 21
159.492383943
  0
TEXT
  8
1
 62
4
  6
CONTINUOUS
 72
5
 10
329.256169709
 20
104.605203210
 40
3.200000000
  1
（給気）
 41
0.722783070
 11
339.766938939
 21
104.605203210
  0
LINE
  8
1
 62
7
  6
CONTINUOUS
 10
219.862740660
 20
159.492383943
 11
212.262740660
 21
159.492383943
  0
LINE
  8
1
 62
7
  6
CONTINUOUS
 10
291.933273382
 20
154.905797101
 11
300.192207938
 21
154.905797101
  0
LINE
  8
1
 62
7
  6
CONTINUOUS
 10
300.192207938
 20
171.905797101
 11
291.933273382
 21
171.905797101
  0
DIMENSION
  8
1
 62
4
  6
CONTINUOUS
  2
*D99
 70
0
 10
314.329361777
 20
95.745091901
 11
319.460542966
 21
96.835758131
 14
311.955836651
 24
106.911649681
 13
298.443329520
 23
152.206007073
 50
191.999999995
  0
LINE
  8
1
 62
7
  6
CONTINUOUS
 10
212.062740660
 20
154.905797101
 11
212.062740660
 21
153.955797101
  0
LINE
  8
1
 62
7
  6
CONTINUOUS
 10
222.062740660
 20
154.905797101
 11
219.862740660
 21
154.905797101
  0
LINE
  8
1
 62
7
  6
CONTINUOUS
 10
212.062740660
 20
171.905797101
 11
212.062740660
 21
172.855797101
  0
ARC
  8
1
 62
7
  6
CONTINUOUS
 10
209.612740660
 20
172.105797101
 40
0.450000000
 50
0.000000000
 51
56.251011407
  0
LINE
  8
1
 62
7
  6
CONTINUOUS
 10
222.062740660
 20
154.905797101
 11
222.062740660
 21
171.905797101
  0
LINE
  8
1
 62
7
  6
CONTINUOUS
 10
212.062740660
 20
153.955797101
 11
210.062740660
 21
153.955797101
  0
LINE
  8
1
 62
7
  6
CONTINUOUS
 10
212.062740660
 20
172.855797101
 11
210.062740660
 21
172.855797101
  0
DIMENSION
  8
1
 62
4
  6
CONTINUOUS
  2
*D107
 70
1
 10
234.062740660
 20
153.955797101
 11
234.062740660
 21
163.405797101
 14
221.762740660
 24
153.955797101
 13
221.762740660
 23
172.855797101
 50
90.000000000
  0
ARC
  8
1
 62
7
  6
CONTINUOUS
 10
222.212562453
 20
127.189119085
 40
1.860955976
 50
207.557708232
 51
319.106605351
  0
LINE
  8
1
 62
7
  6
CONTINUOUS
 10
223.062740659
 20
125.328163109
 11
209.062820520
 21
125.328163109
  0
ARC
  8
1
 62
7
  6
CONTINUOUS
 10
222.312740659
 20
134.451613647
 40
2.031250000
 50
90.000000000
 51
149.489762594
  0
LINE
  8
1
 62
7
  6
CONTINUOUS
 10
121.162740660
 20
172.780797101
 11
121.062740660
 21
172.880797101
  0
LINE
  8
1
 62
4
  6
PHANTOM
 10
222.062740660
 20
171.905797101
 11
222.062740660
 21
172.555797101
  0
LINE
  8
1
 62
7
  6
CONTINUOUS
 10
220.851805939
 20
136.482863647
 11
220.942935973
 21
139.382668333
  0
LINE
  8
1
 62
7
  6
CONTINUOUS
 10
211.273675378
 20
136.482863647
 11
211.182545344
 21
139.382668333
  0
LINE
  8
2
 62
7
  6
CONTINUOUS
 10
211.812740659
 20
140.012863647
 11
220.312740659
 21
140.012863647
  0
ARC
  8
1
 62
7
  6
CONTINUOUS
 10
216.062740659
 20
135.953163109
 40
10.625000000
 50
244.942384582
 51
295.057615418
  0
LINE
  8
1
 62
7
  6
CONTINUOUS
 10
209.062740659
 20
125.336422340
 11
209.062740659
 21
110.982863109
  0
LINE
  8
1
 62
7
  6
CONTINUOUS
 10
118.962740660
 20
172.680797101
 11
119.162740660
 21
172.880797101
  0
LINE
  8
1
 62
7
  6
CONTINUOUS
 10
222.562740659
 20
110.482863109
 11
209.562740659
 21
110.482863109
  0
LINE
  8
1
 62
7
  6
CONTINUOUS
 10
121.062740660
 20
172.880797101
 11
119.162740660
 21
172.880797101
  0
LINE
  8
1
 62
7
  6
CONTINUOUS
 10
223.062740659
 20
125.328163109
 11
223.062740659
 21
110.982863109
  0
LINE
  8
1
 62
7
  6
CONTINUOUS
 10
209.062740659
 20
110.982863109
 11
209.562740659
 21
110.482863109
  0
LINE
  8
1
 62
7
  6
CONTINUOUS
 10
222.562740659
 20
110.482863109
 11
223.062740659
 21
110.982863109
  0
LINE
  8
1
 62
7
  6
CONTINUOUS
 10
309.967872477
 20
139.697170302
 11
309.230178421
 21
140.176234424
  0
LINE
  8
1
 62
7
  6
CONTINUOUS
 10
300.915923814
 20
138.408985052
 11
300.430524753
 21
137.661536044
  0
LINE
  8
1
 62
7
  6
CONTINUOUS
 10
300.915923814
 20
138.408985052
 11
301.179963073
 21
138.465108329
  0
DIMENSION
  8
1
 62
4
  6
CONTINUOUS
  2
*D127
 70
5
 10
296.062740660
 20
93.425796564
 11
288.747838744
 21
93.809154329
 13
293.682151800
 23
152.206007073
 14
296.062740660
 24
151.955797101
 15
296.062740660
 25
163.405797101
  0
DIMENSION
  8
1
 62
4
  6
CONTINUOUS
  2
*D128
 70
0
 10
281.513080432
 20
94.955027474
 11
272.913708418
 21
96.782880421
 14
293.682151800
 24
152.206007073
 13
279.875236452
 23
105.526567908
 50
168.000000007
  0
LINE
  8
1
 62
7
  6
CONTINUOUS
 10
302.077197462
 20
143.767524360
 11
303.116755916
 21
138.876786357
  0
LINE
  8
1
 62
7
  6
CONTINUOUS
 10
299.876365360
 20
143.299723056
 11
308.190619967
 21
145.066972428
  0
LINE
  8
1
 62
7
  6
CONTINUOUS
 10
118.962740660
 20
154.130797101
 11
118.962740660
 21
172.680797101
  0
LINE
  8
1
 62
7
  6
CONTINUOUS
 10
310.504568388
 20
136.762220638
 11
309.977627429
 21
139.690835363
  0
LINE
  8
1
 62
7
  6
CONTINUOUS
 10
301.140315155
 20
134.771787168
 11
300.430524753
 21
137.661536044
  0
LINE
  8
2
 62
7
  6
CONTINUOUS
 10
300.915923814
 20
138.408985052
 11
309.230178421
 21
140.176234424
  0
LINE
  8
1
 62
7
  6
CONTINUOUS
 10
300.430524753
 20
137.661536044
 11
309.977627429
 21
139.690835363
  0
LINE
  8
1
 62
7
  6
CONTINUOUS
 10
121.162740660
 20
172.780797101
 11
121.162740660
 21
154.030797101
  0
LINE
  8
1
 62
7
  6
CONTINUOUS
 10
121.062740660
 20
153.930797101
 11
119.162740660
 21
153.930797101
  0
LINE
  8
1
 62
1
  6
CONTINUOUS
 10
310.008837604
 20
136.656849807
 11
309.394840627
 21
140.069301537
  0
LINE
  8
1
 62
7
  6
CONTINUOUS
 10
118.962740660
 20
154.130797101
 11
119.162740660
 21
153.930797101
  0
LINE
  8
1
 62
1
  6
CONTINUOUS
 10
301.636045939
 20
134.877157999
 11
300.808990927
 21
138.244322846
  0
LINE
  8
1
 62
7
  6
CONTINUOUS
 10
304.450904846
 20
159.053648025
 11
307.457009266
 21
144.911038660
  0
DIMENSION
  8
1
 62
4
  6
CONTINUOUS
  2
*D142
 70
5
 10
310.612400895
 20
94.955027476
 11
303.377642576
 21
93.809154329
 13
296.062740660
 23
151.955797101
 14
298.443329520
 24
152.206007073
 15
296.062740660
 25
163.405797101
  0
LINE
  8
1
 62
7
  6
CONTINUOUS
 10
308.190619967
 20
145.066972428
 11
309.230178421
 21
140.176234424
  0
LINE
  8
1
 62
7
  6
CONTINUOUS
 10
287.496099913
 20
159.416415407
 11
284.425932197
 21
144.972411932
  0
LINE
  8
1
 62
7
  6
CONTINUOUS
 10
292.251113003
 20
143.309118406
 11
283.936858397
 21
145.076367778
  0
LINE
  8
1
 62
7
  6
CONTINUOUS
 10
121.162740660
 20
154.030797101
 11
121.062740660
 21
153.930797101
  0
LINE
  8
1
 62
7
  6
CONTINUOUS
 10
283.936858397
 20
145.076367778
 11
282.897299943
 21
140.185629774
  0
LINE
  8
1
 62
7
  6
CONTINUOUS
 10
292.251113003
 20
143.309118406
 11
291.211554549
 21
138.418380402
  0
LINE
  8
1
 62
7
  6
CONTINUOUS
 10
286.137690499
 20
144.608566473
 11
285.098132045
 21
139.717828470
  0
DIMENSION
  8
1
 62
4
  6
CONTINUOUS
  2
*D150
 70
0
 10
339.123775610
 20
114.731054564
 11
333.243619747
 21
142.395012883
 14
317.408898874
 24
110.115415028
 13
296.062740660
 23
163.405797101
 50
102.000000000
  0
LINE
  8
1
 62
7
  6
CONTINUOUS
 10
294.204892856
 20
154.905797101
 11
291.762039203
 21
143.413074251
  0
LINE
  8
1
 62
1
  6
CONTINUOUS
 10
282.131817047
 20
136.739475886
 11
282.732637737
 21
140.078696887
  0
DIMENSION
  8
1
 62
4
  6
CONTINUOUS
  2
*D153
 70
0
 10
252.707297498
 20
113.345972786
 11
258.734657467
 21
141.702471995
 14
274.422174227
 24
108.730333254
 13
296.062740660
 23
163.405797101
 50
78.000000007
  0
LINE
  8
1
 62
1
  6
CONTINUOUS
 10
290.509180908
 20
134.958812228
 11
291.318487436
 21
138.253718196
  0
LINE
  8
1
 62
7
  6
CONTINUOUS
 10
142.562740660
 20
158.823221406
 11
142.562740660
 21
167.988372796
  0
LINE
  8
1
 62
7
  6
CONTINUOUS
 10
282.897299943
 20
140.185629774
 11
282.149850935
 21
139.700230712
  0
LINE
  8
1
 62
1
  6
CENTER
 10
311.955836651
 20
106.911649681
 11
301.112000242
 21
157.927888953
  0
LINE
  8
1
 62
7
  6
CONTINUOUS
 10
218.062740659
 20
145.012863647
 11
218.062740659
 21
140.012863647
  0
LINE
  8
2
 62
7
  6
CONTINUOUS
 10
211.182545344
 20
139.382668333
 11
220.942935973
 21
139.382668333
  0
ARC
  8
1
 62
7
  6
CONTINUOUS
 10
209.812740659
 20
134.451613647
 40
2.031250000
 50
30.510237406
 51
90.000000000
  0
LINE
  8
1
 62
7
  6
CONTINUOUS
 10
220.562740659
 20
126.328163109
 11
220.562740659
 21
135.482863647
  0
LINE
  8
1
 62
7
  6
CONTINUOUS
 10
222.062740659
 20
107.482863109
 11
222.062740659
 21
108.482863109
  0
LINE
  8
1
 62
7
  6
CONTINUOUS
 10
210.062740659
 20
108.482863109
 11
210.062740659
 21
107.482863109
  0
LINE
  8
1
 62
7
  6
CONTINUOUS
 10
222.312740659
 20
136.482863647
 11
224.062740659
 21
135.482863647
  0
LINE
  8
1
 62
1
  6
CENTER
 10
293.682151800
 20
152.206007073
 11
296.062740660
 21
163.405797101
  0
LINE
  8
1
 62
7
  6
CONTINUOUS
 10
210.062740659
 20
107.482863109
 11
222.062740659
 21
107.482863109
  0
LINE
  8
1
 62
7
  6
CONTINUOUS
 10
108.441238045
 20
165.541212752
 11
108.291238045
 21
165.391212752
  0
LINE
  8
1
 62
7
  6
CONTINUOUS
 10
104.791238045
 20
167.694472236
 11
107.350083772
 21
169.171822505
  0
LINE
  8
1
 62
7
  6
CONTINUOUS
 10
209.812740659
 20
136.482863647
 11
208.062740659
 21
135.482863647
  0
LINE
  8
1
 62
7
  6
CONTINUOUS
 10
224.062740659
 20
135.482863647
 11
224.062740659
 21
126.482863647
  0
LINE
  8
1
 62
7
  6
CONTINUOUS
 10
220.562740659
 20
110.482863109
 11
220.562740659
 21
108.482863109
  0
LINE
  8
1
 62
7
  6
CONTINUOUS
 10
220.942935973
 20
139.382668333
 11
220.312740659
 21
140.012863647
  0
LINE
  8
1
 62
7
  6
CONTINUOUS
 10
108.291238045
 20
157.905797101
 11
111.291238045
 21
157.905797101
  0
LINE
  8
1
 62
7
  6
CONTINUOUS
 10
114.991238045
 20
157.505797101
 11
111.441238045
 21
157.505797101
  0
LINE
  8
1
 62
7
  6
CONTINUOUS
 10
211.812740659
 20
140.012863647
 11
211.182545344
 21
139.382668333
  0
LINE
  8
1
 62
1
  6
CONTINUOUS
 10
220.345000235
 20
136.482863647
 11
220.451572003
 21
139.874032303
  0
ARC
  8
1
 62
7
  6
CONTINUOUS
 10
107.850083772
 20
168.305797101
 40
1.000000000
 50
90.000000000
 51
120.000000000
  0
LINE
  8
1
 62
7
  6
CONTINUOUS
 10
108.141238045
 20
169.305797101
 11
107.850083772
 21
169.305797101
  0
LINE
  8
1
 62
7
  6
CONTINUOUS
 10
108.291238045
 20
161.420381451
 11
108.441238045
 21
161.270381451
  0
LINE
  8
1
 62
1
  6
CONTINUOUS
 10
211.780481082
 20
136.482863647
 11
211.673909314
 21
139.874032303
  0
LINE
  8
1
 62
7
  6
CONTINUOUS
 10
219.812740659
 20
159.492383943
 11
219.812740659
 21
145.012863647
  0
LINE
  8
1
 62
7
  6
CONTINUOUS
 10
214.062740659
 20
145.012863647
 11
214.062740659
 21
140.012863647
  0
LINE
  8
1
 62
7
  6
CONTINUOUS
 10
220.312740659
 20
145.012863647
 11
220.312740659
 21
140.012863647
  0
LINE
  8
1
 62
7
  6
CONTINUOUS
 10
211.812740659
 20
145.012863647
 11
211.812740659
 21
140.012863647
  0
LINE
  8
1
 62
7
  6
CONTINUOUS
 10
220.312740659
 20
145.012863647
 11
211.812740659
 21
145.012863647
  0
LINE
  8
1
 62
7
  6
CONTINUOUS
 10
111.291238045
 20
169.155797101
 11
111.441238045
 21
169.305797101
  0
LINE
  8
1
 62
7
  6
CONTINUOUS
 10
212.312740659
 20
159.492383943
 11
212.312740659
 21
145.012863647
  0
LINE
  8
1
 62
7
  6
CONTINUOUS
 10
222.062740659
 20
108.482863109
 11
210.062740659
 21
108.482863109
  0
LINE
  8
1
 62
7
  6
CONTINUOUS
 10
208.062740659
 20
126.506670200
 11
209.062820520
 21
125.328163109
  0
LINE
  8
1
 62
7
  6
CONTINUOUS
 10
224.062740659
 20
126.482863647
 11
223.062740659
 21
125.328163109
  0
ARC
  8
1
 62
7
  6
CONTINUOUS
 10
209.919389255
 20
127.178465026
 40
1.850301917
 50
220.317900462
 51
332.642077288
  0
LINE
  8
1
 62
7
  6
CONTINUOUS
 10
211.562740659
 20
126.328163109
 11
211.562740659
 21
135.482863647
  0
LINE
  8
1
 62
7
  6
CONTINUOUS
 10
223.062740659
 20
110.982863109
 11
209.062740659
 21
110.982863109
  0
LINE
  8
1
 62
7
  6
CONTINUOUS
 10
291.696953611
 20
137.670931394
 11
291.211554549
 21
138.418380402
  0
LINE
  8
2
 62
7
  6
CONTINUOUS
 10
282.149850935
 20
139.700230712
 11
291.696953611
 21
137.670931394
  0
LINE
  8
1
 62
1
  6
CENTER
 10
307.512740660
 20
163.405797101
 11
284.612740660
 21
163.405797101
  0
DIMENSION
  8
1
 62
4
  6
CONTINUOUS
  2
*D197
 70
1
 10
136.162740660
 20
152.405797101
 11
136.162740660
 21
163.405797101
 14
136.162740660
 24
152.405797101
 13
136.162740660
 23
174.405797101
 50
90.000000000
  0
DIMENSION
  8
1
 62
4
  6
CONTINUOUS
  2
*D198
 70
1
 10
155.612740660
 20
152.405797101
 11
155.612740660
 21
163.405797101
 14
155.612740660
 24
152.405797101
 13
155.612740660
 23
174.405797101
 50
90.000000000
  0
ARC
  8
15
 62
7
  6
CONTINUOUS
 10
94.491238045
 20
164.705797101
 40
0.200000000
 50
90.000000000
 51
180.000000000
  0
LINE
  8
15
 62
7
  6
CONTINUOUS
 10
94.491238045
 20
164.905797101
 11
104.291238045
 21
164.905797101
  0
LINE
  8
1
 62
7
  6
CONTINUOUS
 10
209.812740659
 20
136.482863647
 11
222.312740659
 21
136.482863647
  0
LINE
  8
1
 62
7
  6
CONTINUOUS
 10
139.362740660
 20
158.823221406
 11
142.562740660
 21
158.823221406
  0
LINE
  8
15
 62
7
  6
CONTINUOUS
 10
94.291238045
 20
164.705797101
 11
94.291238045
 21
162.105797101
  0
TEXT
  8
1
 62
3
  6
CONTINUOUS
 72
5
 10
143.376989353
 20
105.498863109
 40
4.000000000
  1
ＭＳＳ－２２３０ＲＡ
 41
0.834440244
 11
182.576989353
 21
105.498863109
  0
DIMENSION
  8
1
 62
4
  6
CONTINUOUS
  2
*D205
 70
1
 10
88.291238045
 20
157.505797101
 11
88.291238045
 21
163.405797101
 14
107.850083772
 24
157.505797101
 13
107.850083772
 23
169.305797101
 50
90.000000000
  0
ARC
  8
15
 62
7
  6
CONTINUOUS
 10
94.491238045
 20
162.105797101
 40
0.200000000
 50
180.000000000
 51
270.000000000
  0
DIMENSION
  8
1
 62
4
  6
CONTINUOUS
  2
*D207
 70
0
 10
222.062740660
 20
198.405797101
 11
163.176989353
 21
198.405797101
 14
222.062740660
 24
172.555797101
 13
104.291238045
 23
166.828446832
 50
0.000000000
  0
DIMENSION
  8
1
 62
4
  6
CONTINUOUS
  2
*D208
 70
0
 10
209.862740660
 20
190.405797101
 11
178.012740660
 21
190.405797101
 14
209.862740660
 24
173.405797101
 13
146.162740660
 23
174.405797101
 50
0.000000000
  0
DIMENSION
  8
1
 62
4
  6
CONTINUOUS
  2
*D209
 70
0
 10
118.962740660
 20
190.405797101
 11
111.626989353
 21
190.405797101
 14
118.962740660
 24
172.680797101
 13
104.291238045
 23
166.828446832
 50
0.000000000
  0
DIMENSION
  8
1
 62
4
  6
CONTINUOUS
  2
*D210
 70
0
 10
146.162740660
 20
190.405797101
 11
132.562740660
 21
190.405797101
 14
146.162740660
 24
174.405797101
 13
118.962740660
 23
172.680797101
 50
0.000000000
  0
DIMENSION
  8
1
 62
4
  6
CONTINUOUS
  2
*D211
 70
0
 10
222.062740660
 20
190.405797101
 11
214.980404068
 21
190.405797101
 14
222.062740660
 24
172.555797101
 13
209.862740660
 23
173.405797101
 50
0.000000000
  0
LINE
  8
30
 62
7
  6
CONTINUOUS
 10
208.862740660
 20
152.405797101
 11
208.862740660
 21
174.405797101
  0
LINE
  8
1
 62
4
  6
CONTINUOUS
 10
139.362740660
 20
167.988372796
 11
142.562740660
 21
158.823221406
  0
LINE
  8
1
 62
4
  6
CONTINUOUS
 10
142.562740660
 20
167.988372796
 11
139.362740660
 21
158.823221406
  0
LINE
  8
1
 62
7
  6
CONTINUOUS
 10
142.562740660
 20
167.988372796
 11
139.362740660
 21
167.988372796
  0
LINE
  8
1
 62
7
  6
CONTINUOUS
 10
118.762740660
 20
165.677360440
 11
116.362740660
 21
165.677360440
  0
LINE
  8
1
 62
7
  6
CONTINUOUS
 10
118.762740660
 20
161.134233763
 11
118.762740660
 21
165.677360440
  0
LINE
  8
1
 62
7
  6
CONTINUOUS
 10
116.362740660
 20
161.134233763
 11
118.762740660
 21
161.134233763
  0
LINE
  8
1
 62
4
  6
CONTINUOUS
 10
111.291238045
 20
165.391212752
 11
108.291238045
 21
161.420381451
  0
LINE
  8
1
 62
7
  6
CONTINUOUS
 10
116.362740660
 20
165.677360440
 11
116.362740660
 21
161.134233763
  0
LINE
  8
1
 62
7
  6
CONTINUOUS
 10
139.362740660
 20
167.988372796
 11
139.362740660
 21
158.823221406
  0
LINE
  8
1
 62
1
  6
CENTER
 10
296.062740660
 20
174.855797101
 11
296.062740660
 21
151.955797101
  0
ARC
  8
1
 62
7
  6
CONTINUOUS
 10
296.062740660
 20
163.405797101
 40
9.450000000
 50
295.911393746
 51
244.088606254
  0
LINE
  8
1
 62
7
  6
CONTINUOUS
 10
208.062740659
 20
135.482863647
 11
208.062740659
 21
126.506670200
  0
LINE
  8
1
 62
7
  6
CONTINUOUS
 10
290.050280902
 20
143.776919710
 11
289.010722447
 21
138.886181706
  0
LINE
  8
15
 62
7
  6
CONTINUOUS
 10
104.291238045
 20
161.905797101
 11
94.491238045
 21
161.905797101
  0
LINE
  8
2
 62
7
  6
CONTINUOUS
 10
282.897299943
 20
140.185629774
 11
291.211554549
 21
138.418380402
  0
ARC
  8
1
 62
7
  6
CONTINUOUS
 10
124.664882315
 20
163.405797101
 40
18.475208614
 50
345.638488437
 51
14.361511563
  0
LINE
  8
1
 62
7
  6
CONTINUOUS
 10
107.350083772
 20
168.671822505
 11
107.350083772
 21
158.139771698
  0
LINE
  8
1
 62
7
  6
CONTINUOUS
 10
111.441238045
 20
157.505797101
 11
111.441238045
 21
169.305797101
  0
LINE
  8
1
 62
7
  6
CONTINUOUS
 10
108.141238045
 20
157.505797101
 11
108.141238045
 21
169.305797101
  0
LINE
  8
1
 62
7
  6
CONTINUOUS
 10
111.141238045
 20
161.270381451
 11
111.291238045
 21
161.420381451
  0
LINE
  8
1
 62
7
  6
CONTINUOUS
 10
111.291238045
 20
165.391212752
 11
111.141238045
 21
165.541212752
  0
LINE
  8
1
 62
7
  6
CONTINUOUS
 10
108.441238045
 20
157.905797101
 11
108.441238045
 21
161.270381451
  0
LINE
  8
1
 62
7
  6
CONTINUOUS
 10
111.141238045
 20
157.905797101
 11
111.141238045
 21
161.270381451
  0
LINE
  8
1
 62
7
  6
CONTINUOUS
 10
108.441238045
 20
165.541212752
 11
111.141238045
 21
165.541212752
  0
LINE
  8
1
 62
7
  6
CONTINUOUS
 10
108.441238045
 20
161.270381451
 11
111.141238045
 21
161.270381451
  0
LINE
  8
1
 62
4
  6
CONTINUOUS
 10
108.291238045
 20
165.391212752
 11
111.291238045
 21
161.420381451
  0
LINE
  8
1
 62
7
  6
CONTINUOUS
 10
108.441238045
 20
165.541212752
 11
108.441238045
 21
168.905797101
  0
LINE
  8
1
 62
7
  6
CONTINUOUS
 10
111.141238045
 20
165.541212752
 11
111.141238045
 21
168.905797101
  0
LINE
  8
1
 62
7
  6
CONTINUOUS
 10
114.991238045
 20
169.305797101
 11
114.991238045
 21
157.505797101
  0
LINE
  8
1
 62
7
  6
CONTINUOUS
 10
104.291238045
 20
159.983147371
 11
104.291238045
 21
166.828446832
  0
LINE
  8
1
 62
7
  6
CONTINUOUS
 10
107.850083772
 20
169.305797101
 11
107.850083772
 21
157.505797101
  0
LINE
  8
1
 62
7
  6
CONTINUOUS
 10
111.291238045
 20
157.655797101
 11
111.441238045
 21
157.505797101
  0
LINE
  8
1
 62
7
  6
CONTINUOUS
 10
104.791238045
 20
167.194472236
 11
104.791238045
 21
159.617121967
  0
LINE
  8
1
 62
7
  6
CONTINUOUS
 10
111.291238045
 20
169.155797101
 11
111.291238045
 21
157.655797101
  0
LINE
  8
1
 62
7
  6
CONTINUOUS
 10
108.141238045
 20
157.505797101
 11
107.850083772
 21
157.505797101
  0
ARC
  8
1
 62
7
  6
CONTINUOUS
 10
107.850083772
 20
158.505797101
 40
1.000000000
 50
240.000000000
 51
270.000000000
  0
LINE
  8
1
 62
7
  6
CONTINUOUS
 10
108.291238045
 20
157.655797101
 11
108.291238045
 21
169.155797101
  0
LINE
  8
1
 62
7
  6
CONTINUOUS
 10
104.791238045
 20
159.117121967
 11
107.350083772
 21
157.639771698
  0
LINE
  8
1
 62
7
  6
CONTINUOUS
 10
114.991238045
 20
169.305797101
 11
111.441238045
 21
169.305797101
  0
LINE
  8
1
 62
7
  6
CONTINUOUS
 10
115.791238045
 20
168.505797101
 11
115.791238045
 21
158.305797101
  0
LINE
  8
1
 62
7
  6
CONTINUOUS
 10
108.291238045
 20
168.905797101
 11
111.291238045
 21
168.905797101
  0
LINE
  8
1
 62
7
  6
CONTINUOUS
 10
108.141238045
 20
169.305797101
 11
108.291238045
 21
169.155797101
  0
ARC
  8
1
 62
7
  6
CONTINUOUS
 10
114.991238045
 20
158.305797101
 40
0.800000000
 50
270.000000000
 51
0.000000000
  0
ARC
  8
1
 62
7
  6
CONTINUOUS
 10
105.291238045
 20
159.983147371
 40
1.000000000
 50
180.000000000
 51
240.000000000
  0
ARC
  8
1
 62
7
  6
CONTINUOUS
 10
105.291238045
 20
166.828446832
 40
1.000000000
 50
120.000000000
 51
180.000000000
  0
LINE
  8
1
 62
1
  6
CENTER
 10
279.875236452
 20
105.526567908
 11
291.013481079
 21
157.927888954
  0
ARC
  8
1
 62
7
  6
CONTINUOUS
 10
296.062740660
 20
163.405797101
 40
9.450000000
 50
257.696846312
 51
283.819219294
  0
LINE
  8
1
 62
1
  6
CENTER
 10
298.443329520
 20
152.206007073
 11
296.062740660
 21
163.405797101
  0
LINE
  8
1
 62
7
  6
CONTINUOUS
 10
211.562740659
 20
108.482863109
 11
211.562740659
 21
110.482863109
  0
ARC
  8
1
 62
7
  6
CONTINUOUS
 10
150.364882315
 20
163.405797101
 40
18.475208614
 50
345.638488437
 51
14.361511563
  0
LINE
  8
3
 62
7
  6
CONTINUOUS
 10
121.162740660
 20
156.155797101
 11
121.362740660
 21
156.155797101
  0
LINE
  8
1
 62
7
  6
CONTINUOUS
 10
165.062740660
 20
167.988372796
 11
165.062740660
 21
158.823221406
  0
LINE
  8
1
 62
7
  6
CONTINUOUS
 10
168.262740660
 20
167.988372796
 11
165.062740660
 21
167.988372796
  0
LINE
  8
1
 62
4
  6
CONTINUOUS
 10
168.262740660
 20
167.988372796
 11
165.062740660
 21
158.823221406
  0
LINE
  8
1
 62
4
  6
CONTINUOUS
 10
165.062740660
 20
167.988372796
 11
168.262740660
 21
158.823221406
  0
LINE
  8
1
 62
7
  6
CONTINUOUS
 10
165.062740660
 20
158.823221406
 11
168.262740660
 21
158.823221406
  0
LINE
  8
1
 62
7
  6
CONTINUOUS
 10
168.262740660
 20
158.823221406
 11
168.262740660
 21
167.988372796
  0
ARC
  8
1
 62
7
  6
CONTINUOUS
 10
182.960599005
 20
163.405797101
 40
18.475208614
 50
165.638488437
 51
194.361511563
  0
ARC
  8
1
 62
7
  6
CONTINUOUS
 10
216.062740659
 20
125.857863647
 40
10.625000000
 50
64.942384582
 51
115.057615418
  0
LINE
  8
1
 62
7
  6
CONTINUOUS
 10
281.636086263
 20
136.844846717
 11
282.149850935
 21
139.700230712
  0
LINE
  8
1
 62
7
  6
CONTINUOUS
 10
299.876365360
 20
143.299723056
 11
300.915923814
 21
138.408985052
  0
LINE
  8
1
 62
1
  6
CENTER
 10
216.062740660
 20
161.492383943
 11
216.062740660
 21
105.482863109
  0
LINE
  8
1
 62
7
  6
CONTINUOUS
 10
291.004911692
 20
134.853441397
 11
291.696953611
 21
137.670931394
  0
LINE
  8
1
 62
7
  6
CONTINUOUS
 10
298.176173613
 20
154.905797101
 11
300.609976061
 21
143.455656824
  0
LINE
  8
30
 62
7
  6
CONTINUOUS
 10
121.362740660
 20
173.405797101
 11
121.362740660
 21
153.405797101
  0
LINE
  8
1
 62
7
  6
CONTINUOUS
 10
305.989787865
 20
144.599171124
 11
307.029346319
 21
139.708433120
  0
LINE
  8
5
 62
7
  6
CONTINUOUS
 10
209.862740660
 20
153.405797101
 11
208.862740660
 21
152.405797101
  0
LINE
  8
5
 62
7
  6
CONTINUOUS
 10
146.162740660
 20
174.405797101
 11
208.862740660
 21
174.405797101
  0
LINE
  8
5
 62
7
  6
CONTINUOUS
 10
146.162740660
 20
152.405797101
 11
208.862740660
 21
152.405797101
  0
LINE
  8
5
 62
7
  6
CONTINUOUS
 10
208.862740660
 20
174.405797101
 11
209.862740660
 21
173.405797101
  0
LINE
  8
5
 62
7
  6
CONTINUOUS
 10
146.162740660
 20
174.405797101
 11
146.162740660
 21
152.405797101
  0
LINE
  8
5
 62
7
  6
CONTINUOUS
 10
209.862740660
 20
173.405797101
 11
209.862740660
 21
153.405797101
  0
ENDSEC
  0
EOF
