  0
SECTION
  2
HEADER
  9
$ACADVER
  1
AC1009
  9
$INSBASE
 10
0.000000000
 20
0.000000000
  9
$EXTMIN
 10
-18.691543779
 20
-22.318946284
  9
$EXTMAX
 10
205.606981574
 20
245.508409126
  9
$LIMMIN
 10
-18.691543779
 20
-22.318946284
  9
$LIMMAX
 10
205.606981574
 20
245.508409126
  9
$SNAPBASE
 10
0.000000000
 20
0.000000000
  9
$SNAPANG
 50
0.000000000
  9
$SNAPSTYLE
 70
0
  9
$GRIDMODE
 70
0
  9
$GRIDUNIT
 10
0.000000000
 20
0.000000000
  9
$DIMEXO
 40
0.000000000
  9
$DIMDLI
 40
8.000000000
  9
$DIMDLE
 40
0.000000000
  9
$DIMEXE
 40
1.000000000
  9
$DIMTIH
 70
1
  9
$DIMTOH
 70
1
  9
$DIMTAD
 70
2
  9
$DIMZIN
 70
0
  9
$FILLETRAD
 40
1.000000000
  9
$CHAMFERA
 40
1.000000000
  9
$CHAMFERB
 40
1.000000000
  9
$TDCREATE
 40
2454188.499293982
  9
$TDUPDATE
 40
2454188.499293982
  9
$ANGBASE
 50
0.000000000
  9
$ANGDIR
 70
0
  0
ENDSEC
  0
SECTION
  2
TABLES
  0
TABLE
  2
LTYPE
 70
3
  0
LTYPE
  2
CENTER
 70
64
  3
___ _ ___ _ __
 72
65
 73
4
 40
13.000000000
 49
8.500000000
 49
-1.500000000
 49
1.500000000
 49
-1.500000000
  0
LTYPE
  2
CONTINUOUS
 70
64
  3
______________
 72
65
 73
0
 40
0.000000000
  0
LTYPE
  2
DIVIDE
 70
64
  3
___ . . ___ . 
 72
65
 73
6
 40
12.999999523
 49
5.199999809
 49
-2.599999905
 49
0.000000000
 49
-2.599999905
 49
0.000000000
 49
-2.599999905
  0
ENDTAB
  0
TABLE
  2
LAYER
 70
1
  0
LAYER
  2
1
 70
0
 62
7
  6
CONTINUOUS
  0
LAYER
  2
_CONSTR
 70
0
 62
5
  6
CONTINUOUS
  0
ENDTAB
  0
TABLE
  2
STYLE
 70
1
  0
STYLE
  2
STANDARD
 70
64
 40
0.000000000
 41
1.000000000
 50
0.000000000
 71
0
 42
3.200000000
  3
TXT
  4
EXTFONT
  0
ENDTAB
  0
TABLE
  2
VIEW
 70
0
  0
ENDTAB
  0
ENDSEC
  0
SECTION
  2
BLOCKS
  0
BLOCK
  8
0
  2
*D7
 70
65
 10
0.000000000
 20
0.000000000
  3
*D
  0
TEXT
  8
1
 62
4
  6
CONTINUOUS
 72
5
 10
147.383837794
 20
167.678913043
 40
2.800000000
  1
(
 41
1.800001800
 11
149.063837794
 21
167.678913043
  0
TEXT
  8
1
 62
4
  6
CONTINUOUS
 72
5
 10
149.903837794
 20
167.678913043
 40
2.800000000
  1
60.8
 41
1.164705197
 11
159.143837794
 21
167.678913043
  0
TEXT
  8
1
 62
4
  6
CONTINUOUS
 72
5
 10
159.983837794
 20
167.678913043
 40
2.800000000
  1
)
 41
1.800001800
 11
161.663837794
 21
167.678913043
  0
LINE
  8
1
 62
4
  6
CONTINUOUS
 10
124.115437795
 20
189.673913043
 11
124.115437795
 21
163.473913043
  0
POLYLINE
  8
1
 62
4
  6
CONTINUOUS
 66
1
  0
VERTEX
  8
1
 10
126.115437795
 20
165.773913043
  0
VERTEX
  8
1
 10
124.115437795
 20
165.473913043
  0
VERTEX
  8
1
 10
126.115437795
 20
165.173913043
  0
SEQEND
  8
1
  0
LINE
  8
1
 62
4
  6
CONTINUOUS
 10
124.115437795
 20
165.473913043
 11
184.915437794
 21
165.473913043
  0
POLYLINE
  8
1
 62
4
  6
CONTINUOUS
 66
1
  0
VERTEX
  8
1
 10
182.915437794
 20
165.173913043
  0
VERTEX
  8
1
 10
184.915437794
 20
165.473913043
  0
VERTEX
  8
1
 10
182.915437794
 20
165.773913043
  0
SEQEND
  8
1
  0
LINE
  8
1
 62
4
  6
CONTINUOUS
 10
184.915437794
 20
194.773913043
 11
184.915437794
 21
163.473913043
  0
ENDBLK
  8
0
  0
BLOCK
  8
0
  2
*D34
 70
65
 10
0.000000000
 20
0.000000000
  3
*D
  0
TEXT
  8
1
 62
4
  6
CONTINUOUS
 72
5
 10
111.910437795
 20
191.690713043
 40
2.800000000
  1
φ
 41
1.270648030
 50
90.000000000
 11
111.910437795
 21
195.050713043
  0
TEXT
  8
1
 62
4
  6
CONTINUOUS
 72
5
 10
111.910437795
 20
196.730713043
 40
2.800000000
  1
25.4
 41
1.099999267
 50
90.000000000
 11
111.910437795
 21
205.970713043
  0
TEXT
  8
1
 62
4
  6
CONTINUOUS
 72
5
 10
110.146437795
 20
206.810713043
 40
1.400000000
  1
 0
 41
2.333335926
 50
90.000000000
 11
110.146437795
 21
209.750713043
  0
TEXT
  8
1
 62
4
  6
CONTINUOUS
 72
5
 10
112.288437795
 20
206.810713043
 40
1.400000000
  1
-0.01
 41
1.710000684
 50
90.000000000
 11
112.288437795
 21
214.790713043
  0
LINE
  8
1
 62
4
  6
CONTINUOUS
 10
124.315437795
 20
214.873913043
 11
112.115437795
 21
214.873913043
  0
POLYLINE
  8
1
 62
4
  6
CONTINUOUS
 66
1
  0
VERTEX
  8
1
 10
114.415437795
 20
212.873913043
  0
VERTEX
  8
1
 10
114.115437795
 20
214.873913043
  0
VERTEX
  8
1
 10
113.815437795
 20
212.873913043
  0
SEQEND
  8
1
  0
LINE
  8
1
 62
4
  6
CONTINUOUS
 10
114.115437795
 20
214.873913043
 11
114.115437795
 21
189.473913043
  0
POLYLINE
  8
1
 62
4
  6
CONTINUOUS
 66
1
  0
VERTEX
  8
1
 10
113.815437795
 20
191.473913043
  0
VERTEX
  8
1
 10
114.115437795
 20
189.473913043
  0
VERTEX
  8
1
 10
114.415437795
 20
191.473913043
  0
SEQEND
  8
1
  0
LINE
  8
1
 62
4
  6
CONTINUOUS
 10
124.315437795
 20
189.473913043
 11
112.115437795
 21
189.473913043
  0
ENDBLK
  8
0
  0
BLOCK
  8
0
  2
*D35
 70
65
 10
0.000000000
 20
0.000000000
  3
*D
  0
TEXT
  8
1
 62
4
  6
CONTINUOUS
 72
5
 10
172.322437794
 20
175.678913043
 40
2.800000000
  1
(
 41
1.500001500
 11
173.722437794
 21
175.678913043
  0
TEXT
  8
1
 62
4
  6
CONTINUOUS
 72
5
 10
174.422437794
 20
175.678913043
 40
2.800000000
  1
13.3
 41
1.031249098
 11
182.122437794
 21
175.678913043
  0
TEXT
  8
1
 62
4
  6
CONTINUOUS
 72
5
 10
182.822437794
 20
175.678913043
 40
2.800000000
  1
)
 41
1.500001500
 11
184.222437794
 21
175.678913043
  0
POLYLINE
  8
1
 62
4
  6
CONTINUOUS
 66
1
  0
VERTEX
  8
1
 10
173.615437795
 20
173.773913043
  0
VERTEX
  8
1
 10
171.615437795
 20
173.473913043
  0
VERTEX
  8
1
 10
173.615437795
 20
173.173913043
  0
SEQEND
  8
1
  0
LINE
  8
1
 62
4
  6
CONTINUOUS
 10
171.615437795
 20
173.473913043
 11
184.915437794
 21
173.473913043
  0
POLYLINE
  8
1
 62
4
  6
CONTINUOUS
 66
1
  0
VERTEX
  8
1
 10
182.915437794
 20
173.173913043
  0
VERTEX
  8
1
 10
184.915437794
 20
173.473913043
  0
VERTEX
  8
1
 10
182.915437794
 20
173.773913043
  0
SEQEND
  8
1
  0
LINE
  8
1
 62
4
  6
CONTINUOUS
 10
184.915437794
 20
194.773913043
 11
184.915437794
 21
171.473913043
  0
ENDBLK
  8
0
  0
BLOCK
  8
0
  2
*D38
 70
65
 10
0.000000000
 20
0.000000000
  3
*D
  0
TEXT
  8
1
 62
4
  6
CONTINUOUS
 72
5
 10
143.253837795
 20
175.678913043
 40
2.800000000
  1
47.5
 41
1.099999267
 11
152.493837795
 21
175.678913043
  0
LINE
  8
1
 62
4
  6
CONTINUOUS
 10
124.115437795
 20
189.673913043
 11
124.115437795
 21
171.473913043
  0
POLYLINE
  8
1
 62
4
  6
CONTINUOUS
 66
1
  0
VERTEX
  8
1
 10
126.115437795
 20
173.773913043
  0
VERTEX
  8
1
 10
124.115437795
 20
173.473913043
  0
VERTEX
  8
1
 10
126.115437795
 20
173.173913043
  0
SEQEND
  8
1
  0
LINE
  8
1
 62
4
  6
CONTINUOUS
 10
124.115437795
 20
173.473913043
 11
171.615437795
 21
173.473913043
  0
POLYLINE
  8
1
 62
4
  6
CONTINUOUS
 66
1
  0
VERTEX
  8
1
 10
169.615437795
 20
173.173913043
  0
VERTEX
  8
1
 10
171.615437795
 20
173.473913043
  0
VERTEX
  8
1
 10
169.615437795
 20
173.773913043
  0
SEQEND
  8
1
  0
LINE
  8
1
 62
4
  6
CONTINUOUS
 10
171.615437795
 20
189.673913043
 11
171.615437795
 21
171.473913043
  0
ENDBLK
  8
0
  0
ENDSEC
  0
SECTION
  2
ENTITIES
  0
ARC
  8
1
 62
7
  6
CONTINUOUS
 10
122.081383454
 20
202.173913043
 40
21.015549799
 50
342.420103684
 51
17.579896316
  0
ARC
  8
1
 62
7
  6
CONTINUOUS
 10
158.749492135
 20
202.173913043
 40
21.015549799
 50
162.420103684
 51
197.579896316
  0
LINE
  8
1
 62
7
  6
CONTINUOUS
 10
138.715437795
 20
208.521353473
 11
142.115437795
 21
208.521353473
  0
LINE
  8
1
 62
7
  6
CONTINUOUS
 10
142.115437795
 20
208.521353473
 11
142.115437795
 21
195.826472614
  0
LINE
  8
1
 62
7
  6
CONTINUOUS
 10
171.615437795
 20
189.673913043
 11
171.615437795
 21
214.673913043
  0
LINE
  8
1
 62
7
  6
CONTINUOUS
 10
124.315437795
 20
214.873913043
 11
171.415437795
 21
214.873913043
  0
DIMENSION
  8
1
 62
4
  6
CONTINUOUS
  2
*D7
 70
0
 10
184.915437794
 20
165.473913043
 11
154.515437794
 21
165.473913043
 14
184.915437794
 24
194.773913043
 13
124.115437795
 23
189.673913043
 50
0.000000000
  0
LINE
  8
1
 62
7
  6
CONTINUOUS
 10
183.915437794
 20
193.773913043
 11
183.915437794
 21
210.573913043
  0
LINE
  8
1
 62
1
  6
CONTINUOUS
 10
176.816399688
 20
193.623913043
 11
178.115437794
 21
194.373913043
  0
LINE
  8
1
 62
1
  6
CONTINUOUS
 10
178.115437794
 20
194.373913043
 11
184.515437794
 21
194.373913043
  0
LINE
  8
1
 62
7
  6
CONTINUOUS
 10
178.115437794
 20
193.623913043
 11
172.515437794
 21
193.623913043
  0
LINE
  8
1
 62
7
  6
CONTINUOUS
 10
171.615437795
 20
193.773913043
 11
172.515437794
 21
193.773913043
  0
LINE
  8
1
 62
7
  6
CONTINUOUS
 10
183.915437794
 20
193.773913043
 11
184.915437794
 21
194.773913043
  0
LINE
  8
1
 62
7
  6
CONTINUOUS
 10
183.915437794
 20
193.773913043
 11
178.115437794
 21
193.773913043
  0
LINE
  8
1
 62
7
  6
CONTINUOUS
 10
183.915437794
 20
210.573913043
 11
178.115437794
 21
210.573913043
  0
LINE
  8
1
 62
7
  6
CONTINUOUS
 10
178.115437794
 20
193.623913043
 11
178.115437794
 21
210.723913043
  0
LINE
  8
1
 62
7
  6
CONTINUOUS
 10
124.115437795
 20
214.673913043
 11
124.115437795
 21
189.673913043
  0
LINE
  8
1
 62
7
  6
CONTINUOUS
 10
183.915437794
 20
210.573913043
 11
184.915437794
 21
209.573913043
  0
LINE
  8
1
 62
7
  6
CONTINUOUS
 10
124.315437795
 20
189.473913043
 11
124.115437795
 21
189.673913043
  0
LINE
  8
1
 62
7
  6
CONTINUOUS
 10
184.915437794
 20
194.773913043
 11
184.915437794
 21
209.573913043
  0
LINE
  8
1
 62
7
  6
CONTINUOUS
 10
124.315437795
 20
189.473913043
 11
171.415437795
 21
189.473913043
  0
LINE
  8
1
 62
7
  6
CONTINUOUS
 10
171.615437795
 20
210.573913044
 11
172.515437794
 21
210.573913043
  0
LINE
  8
1
 62
7
  6
CONTINUOUS
 10
172.515437794
 20
210.723913043
 11
172.515437794
 21
193.623913043
  0
LINE
  8
1
 62
7
  6
CONTINUOUS
 10
178.115437794
 20
210.723913043
 11
172.515437794
 21
210.723913043
  0
LINE
  8
1
 62
1
  6
CONTINUOUS
 10
178.115437794
 20
209.973913043
 11
184.515437794
 21
209.973913043
  0
LINE
  8
1
 62
1
  6
CONTINUOUS
 10
176.816399688
 20
210.723913043
 11
178.115437794
 21
209.973913043
  0
TEXT
  8
1
 62
3
  6
CONTINUOUS
 72
5
 10
134.715437794
 20
151.489913043
 40
4.000000000
  1
ＡＲＧ－Ｈ２５０４Ｎ
 41
0.834440244
 11
173.915437794
 21
151.489913043
  0
LINE
  8
1
 62
7
  6
CONTINUOUS
 10
124.115437795
 20
214.673913043
 11
124.315437795
 21
214.873913043
  0
LINE
  8
1
 62
4
  6
CONTINUOUS
 10
142.115437795
 20
208.521353473
 11
138.715437795
 21
195.826472614
  0
LINE
  8
1
 62
4
  6
CONTINUOUS
 10
138.715437795
 20
208.521353473
 11
142.115437795
 21
195.826472614
  0
LINE
  8
1
 62
1
  6
CENTER
 10
122.115437795
 20
202.173913043
 11
186.915437794
 21
202.173913043
  0
LINE
  8
1
 62
7
  6
CONTINUOUS
 10
138.715437795
 20
195.826472614
 11
142.115437795
 21
195.826472614
  0
LINE
  8
1
 62
7
  6
CONTINUOUS
 10
138.715437795
 20
208.521353473
 11
138.715437795
 21
195.826472614
  0
DIMENSION
  8
1
 62
4
  6
CONTINUOUS
  2
*D34
 70
1
 10
114.115437795
 20
189.473913043
 11
114.115437795
 21
202.173913043
 14
124.315437795
 24
189.473913043
 13
124.315437795
 23
214.873913043
 50
90.000000000
  0
DIMENSION
  8
1
 62
4
  6
CONTINUOUS
  2
*D35
 70
0
 10
184.915437794
 20
173.473913043
 11
178.265437794
 21
173.473913043
 14
184.915437794
 24
194.773913043
 13
171.615437795
 23
189.673913043
 50
0.000000000
  0
LINE
  8
1
 62
7
  6
CONTINUOUS
 10
171.615437795
 20
189.673913043
 11
171.415437795
 21
189.473913043
  0
LINE
  8
1
 62
7
  6
CONTINUOUS
 10
171.615437795
 20
214.673913043
 11
171.415437795
 21
214.873913043
  0
DIMENSION
  8
1
 62
4
  6
CONTINUOUS
  2
*D38
 70
1
 10
171.615437795
 20
173.473913043
 11
147.865437795
 21
173.473913043
 14
171.615437795
 24
189.673913043
 13
124.115437795
 23
189.673913043
 50
0.000000000
  0
ENDSEC
  0
EOF
