  0
SECTION
  2
HEADER
  9
$ACADVER
  1
AC1009
  9
$INSBASE
 10
0.000000000
 20
0.000000000
  9
$EXTMIN
 10
-31.656438264
 20
-22.816666667
  9
$EXTMAX
 10
348.220820907
 20
250.983333333
  9
$LIMMIN
 10
-31.656438264
 20
-22.816666667
  9
$LIMMAX
 10
348.220820907
 20
250.983333333
  9
$SNAPBASE
 10
0.000000000
 20
0.000000000
  9
$SNAPANG
 50
0.000000000
  9
$SNAPSTYLE
 70
0
  9
$GRIDMODE
 70
0
  9
$GRIDUNIT
 10
0.000000000
 20
0.000000000
  9
$DIMEXO
 40
0.000000000
  9
$DIMDLI
 40
8.000000000
  9
$DIMDLE
 40
0.000000000
  9
$DIMEXE
 40
1.000000000
  9
$DIMTIH
 70
1
  9
$DIMTOH
 70
1
  9
$DIMTAD
 70
2
  9
$DIMZIN
 70
0
  9
$FILLETRAD
 40
1.000000000
  9
$CHAMFERA
 40
1.000000000
  9
$CHAMFERB
 40
1.000000000
  9
$TDCREATE
 40
2454160.416585648
  9
$TDUPDATE
 40
2454160.416585648
  9
$ANGBASE
 50
0.000000000
  9
$ANGDIR
 70
0
  0
ENDSEC
  0
SECTION
  2
TABLES
  0
TABLE
  2
LTYPE
 70
4
  0
LTYPE
  2
CENTER
 70
64
  3
___ _ ___ _ __
 72
65
 73
4
 40
13.000000000
 49
8.500000000
 49
-1.500000000
 49
1.500000000
 49
-1.500000000
  0
LTYPE
  2
CONTINUOUS
 70
64
  3
______________
 72
65
 73
0
 40
0.000000000
  0
LTYPE
  2
DASHED
 70
64
  3
___ ___ ___ __
 72
65
 73
2
 40
5.000000119
 49
3.400000095
 49
-1.600000024
  0
LTYPE
  2
DIVIDE
 70
64
  3
___ . . ___ . 
 72
65
 73
6
 40
12.999999523
 49
5.199999809
 49
-2.599999905
 49
0.000000000
 49
-2.599999905
 49
0.000000000
 49
-2.599999905
  0
ENDTAB
  0
TABLE
  2
LAYER
 70
3
  0
LAYER
  2
1
 70
0
 62
7
  6
CONTINUOUS
  0
LAYER
  2
2
 70
0
 62
7
  6
CONTINUOUS
  0
LAYER
  2
5
 70
0
 62
7
  6
CONTINUOUS
999
Comment
  0
LAYER
  2
_CONSTR
 70
0
 62
5
  6
CONTINUOUS
  0
ENDTAB
  0
TABLE
  2
STYLE
 70
1
  0
STYLE
  2
STANDARD
 70
64
 40
0.000000000
 41
1.000000000
 50
0.000000000
 71
0
 42
3.200000000
  3
TXT
  4
EXTFONT
  0
ENDTAB
  0
TABLE
  2
VIEW
 70
0
  0
ENDTAB
  0
ENDSEC
  0
SECTION
  2
BLOCKS
  0
BLOCK
  8
0
  2
*D61
 70
65
 10
0.000000000
 20
0.000000000
  3
*D
  0
TEXT
  8
1
 62
4
  6
CONTINUOUS
 72
5
 10
232.241309164
 20
164.663823174
 40
2.800000000
  1
(
 41
1.800001800
 50
77.999999997
 11
232.590600805
 21
166.307111143
  0
TEXT
  8
1
 62
4
  6
CONTINUOUS
 72
5
 10
232.765246625
 20
167.128755128
 40
2.800000000
  1
61
 41
1.125000281
 50
77.999999997
 11
233.638475727
 21
171.236975051
  0
TEXT
  8
1
 62
4
  6
CONTINUOUS
 72
5
 10
233.813121547
 20
172.058619036
 40
2.800000000
  1
)
 41
1.800001800
 50
77.999999997
 11
234.162413187
 21
173.701907005
  0
LINE
  8
1
 62
4
  6
CONTINUOUS
 10
249.605582411
 20
134.746420467
 11
227.108187599
 21
139.528389351
  0
POLYLINE
  8
1
 62
4
  6
CONTINUOUS
 66
1
  0
VERTEX
  8
1
 10
229.186861902
 20
141.131234679
  0
VERTEX
  8
1
 10
229.064482801
 20
139.112565970
  0
VERTEX
  8
1
 10
229.773750463
 20
141.006487664
  0
SEQEND
  8
1
  0
LINE
  8
1
 62
4
  6
CONTINUOUS
 10
229.064482801
 20
139.112565970
 11
241.649377554
 21
198.319840775
  0
POLYLINE
  8
1
 62
4
  6
CONTINUOUS
 66
1
  0
VERTEX
  8
1
 10
241.526998452
 20
196.301172066
  0
VERTEX
  8
1
 10
241.649377554
 20
198.319840775
  0
VERTEX
  8
1
 10
240.940109892
 20
196.425919080
  0
SEQEND
  8
1
  0
LINE
  8
1
 62
4
  6
CONTINUOUS
 10
272.950100777
 20
191.666666667
 11
239.693082352
 21
198.735664156
  0
ENDBLK
  8
0
  0
BLOCK
  8
0
  2
*D62
 70
65
 10
0.000000000
 20
0.000000000
  3
*D
  0
TEXT
  8
1
 62
4
  6
CONTINUOUS
 72
5
 10
288.932095887
 20
124.501852042
 40
2.800000000
  1
5
 41
0.899996850
 50
11.999999995
 11
290.575383857
 21
124.851143683
  0
LINE
  8
1
 62
4
  6
CONTINUOUS
 10
290.570220804
 20
132.819191179
 11
293.065161094
 21
121.081419970
  0
POLYLINE
  8
1
 62
4
  6
CONTINUOUS
 66
1
  0
VERTEX
  8
1
 10
294.668006421
 20
123.160094273
  0
VERTEX
  8
1
 10
292.649337712
 20
123.037715172
  0
SEQEND
  8
1
  0
POLYLINE
  8
1
 62
4
  6
CONTINUOUS
 66
1
  0
VERTEX
  8
1
 10
295.583780514
 20
123.661450244
  0
VERTEX
  8
1
 10
292.649337712
 20
123.037715172
  0
VERTEX
  8
1
 10
294.543259406
 20
123.746982833
  0
SEQEND
  8
1
  0
LINE
  8
1
 62
4
  6
CONTINUOUS
 10
292.649337712
 20
123.037715172
 11
287.758599708
 21
121.998156718
  0
POLYLINE
  8
1
 62
4
  6
CONTINUOUS
 66
1
  0
VERTEX
  8
1
 10
285.739931000
 20
121.875777616
  0
VERTEX
  8
1
 10
287.758599708
 20
121.998156718
  0
SEQEND
  8
1
  0
POLYLINE
  8
1
 62
4
  6
CONTINUOUS
 66
1
  0
VERTEX
  8
1
 10
284.824156906
 20
121.374421645
  0
VERTEX
  8
1
 10
287.758599708
 20
121.998156718
  0
VERTEX
  8
1
 10
285.864678014
 20
121.288889056
  0
SEQEND
  8
1
  0
LINE
  8
1
 62
4
  6
CONTINUOUS
 10
275.923237956
 20
177.679155976
 11
288.174423090
 21
120.041861516
  0
ENDBLK
  8
0
  0
BLOCK
  8
0
  2
*D63
 70
65
 10
0.000000000
 20
0.000000000
  3
*D
  0
TEXT
  8
1
 62
4
  6
CONTINUOUS
 72
5
 10
276.831410073
 20
122.674481650
 40
2.800000000
  1
12
 41
1.124997750
 50
6.000000000
 11
281.008402033
 21
123.113501196
  0
TEXT
  8
1
 62
4
  6
CONTINUOUS
 72
5
 10
281.843800425
 20
123.201305105
 40
2.800000000
  1
°
 41
1.270648030
 50
6.000000000
 11
285.185393994
 21
123.552520741
  0
LINE
  8
1
 62
4
  6
CONTINUOUS
 10
275.923237956
 20
177.679155976
 11
288.174423090
 21
120.041861516
  0
POLYLINE
  8
1
 62
4
  6
CONTINUOUS
 66
1
  0
VERTEX
  8
1
 10
285.864678014
 20
121.288889056
  0
VERTEX
  8
1
 10
287.758599708
 20
121.998156718
  0
VERTEX
  8
1
 10
285.739930999
 20
121.875777616
  0
SEQEND
  8
1
  0
ARC
  8
1
 62
4
  6
CONTINUOUS
 10
272.950100777
 20
191.666666667
 40
71.224945905
 50
270.000000000
 51
282.000000000
  0
POLYLINE
  8
1
 62
4
  6
CONTINUOUS
 66
1
  0
VERTEX
  8
1
 10
274.950100777
 20
120.741720762
  0
VERTEX
  8
1
 10
272.950100777
 20
120.441720762
  0
VERTEX
  8
1
 10
274.950100777
 20
120.141720762
  0
SEQEND
  8
1
  0
LINE
  8
1
 62
4
  6
CONTINUOUS
 10
272.950100777
 20
177.366666667
 11
272.950100777
 21
118.441720762
  0
ENDBLK
  8
0
  0
BLOCK
  8
0
  2
*D64
 70
65
 10
0.000000000
 20
0.000000000
  3
*D
  0
TEXT
  8
1
 62
4
  6
CONTINUOUS
 72
5
 10
262.402312312
 20
123.375156845
 40
2.800000000
  1
12
 41
1.124997750
 50
354.000000000
 11
266.579304273
 21
122.936137299
  0
TEXT
  8
1
 62
4
  6
CONTINUOUS
 72
5
 10
267.414702665
 20
122.848333390
 40
2.800000000
  1
°
 41
1.270648030
 50
354.000000000
 11
270.756296233
 21
122.497117753
  0
POLYLINE
  8
1
 62
4
  6
CONTINUOUS
 66
1
  0
VERTEX
  8
1
 10
270.950100777
 20
120.141720762
  0
VERTEX
  8
1
 10
272.950100777
 20
120.441720762
  0
VERTEX
  8
1
 10
270.950100777
 20
120.741720762
  0
SEQEND
  8
1
  0
ARC
  8
1
 62
4
  6
CONTINUOUS
 10
272.950100777
 20
191.666666667
 40
71.224945905
 50
258.000000000
 51
270.000000000
  0
POLYLINE
  8
1
 62
4
  6
CONTINUOUS
 66
1
  0
VERTEX
  8
1
 10
260.160270554
 20
121.875777616
  0
VERTEX
  8
1
 10
258.141601846
 20
121.998156718
  0
VERTEX
  8
1
 10
260.035523540
 20
121.288889056
  0
SEQEND
  8
1
  0
LINE
  8
1
 62
4
  6
CONTINUOUS
 10
269.976963598
 20
177.679155976
 11
257.725778464
 21
120.041861516
  0
ENDBLK
  8
0
  0
BLOCK
  8
0
  2
*D65
 70
65
 10
0.000000000
 20
0.000000000
  3
*D
  0
TEXT
  8
1
 62
4
  6
CONTINUOUS
 72
5
 10
255.341250581
 20
124.847650766
 40
2.800000000
  1
5
 41
0.899996850
 50
348.000000000
 11
256.984538551
 21
124.498359125
  0
LINE
  8
1
 62
4
  6
CONTINUOUS
 10
269.976963598
 20
177.679155976
 11
257.725778471
 21
120.041861515
  0
POLYLINE
  8
1
 62
4
  6
CONTINUOUS
 66
1
  0
VERTEX
  8
1
 10
260.035523547
 20
121.288889054
  0
VERTEX
  8
1
 10
258.141601853
 20
121.998156716
  0
SEQEND
  8
1
  0
POLYLINE
  8
1
 62
4
  6
CONTINUOUS
 66
1
  0
VERTEX
  8
1
 10
261.076044655
 20
121.374421644
  0
VERTEX
  8
1
 10
258.141601853
 20
121.998156716
  0
VERTEX
  8
1
 10
260.160270561
 20
121.875777615
  0
SEQEND
  8
1
  0
LINE
  8
1
 62
4
  6
CONTINUOUS
 10
258.141601853
 20
121.998156716
 11
253.250863843
 21
123.037715172
  0
POLYLINE
  8
1
 62
4
  6
CONTINUOUS
 66
1
  0
VERTEX
  8
1
 10
251.356942149
 20
123.746982834
  0
VERTEX
  8
1
 10
253.250863843
 20
123.037715172
  0
SEQEND
  8
1
  0
POLYLINE
  8
1
 62
4
  6
CONTINUOUS
 66
1
  0
VERTEX
  8
1
 10
250.316421041
 20
123.661450244
  0
VERTEX
  8
1
 10
253.250863843
 20
123.037715172
  0
VERTEX
  8
1
 10
251.232195134
 20
123.160094273
  0
SEQEND
  8
1
  0
LINE
  8
1
 62
4
  6
CONTINUOUS
 10
255.058644634
 20
131.542655120
 11
252.835040462
 21
121.081419970
  0
ENDBLK
  8
0
  0
BLOCK
  8
0
  2
*D106
 70
65
 10
0.000000000
 20
0.000000000
  3
*D
  0
TEXT
  8
1
 62
4
  6
CONTINUOUS
 72
5
 10
295.343050269
 20
148.721954053
 40
2.800000000
  1
(
 41
1.650001650
 50
11.999999995
 11
296.849397574
 21
149.042138056
  0
TEXT
  8
1
 62
4
  6
CONTINUOUS
 72
5
 10
297.602571227
 20
149.202230058
 40
2.800000000
  1
φ
 41
1.164760695
 50
11.999999995
 11
300.615265837
 21
149.842598066
  0
TEXT
  8
1
 62
4
  6
CONTINUOUS
 72
5
 10
302.121613142
 20
150.162782069
 40
2.800000000
  1
12
 41
1.031247938
 50
11.999999995
 11
305.887481405
 21
150.963242079
  0
TEXT
  8
1
 62
4
  6
CONTINUOUS
 72
5
 10
306.640655058
 20
151.123334081
 40
2.800000000
  1
)
 41
1.650001650
 50
11.999999995
 11
308.147002363
 21
151.443518084
  0
LINE
  8
1
 62
4
  6
CONTINUOUS
 10
282.001100828
 20
144.275324963
 11
282.547802059
 21
141.703297887
  0
POLYLINE
  8
1
 62
4
  6
CONTINUOUS
 66
1
  0
VERTEX
  8
1
 10
284.025900372
 20
144.368860751
  0
VERTEX
  8
1
 10
282.131978678
 20
143.659593089
  0
VERTEX
  8
1
 10
284.150647386
 20
143.781972190
  0
SEQEND
  8
1
  0
LINE
  8
1
 62
4
  6
CONTINUOUS
 10
282.131978678
 20
143.659593089
 11
293.869749886
 21
146.154533378
  0
POLYLINE
  8
1
 62
4
  6
CONTINUOUS
 66
1
  0
VERTEX
  8
1
 10
291.975828192
 20
145.445265716
  0
VERTEX
  8
1
 10
293.869749886
 20
146.154533378
  0
VERTEX
  8
1
 10
291.851081178
 20
146.032154277
  0
SEQEND
  8
1
  0
LINE
  8
1
 62
4
  6
CONTINUOUS
 10
293.753639815
 20
146.700788317
 11
294.285573268
 21
144.198238176
  0
POLYLINE
  8
1
 62
4
  6
CONTINUOUS
 66
1
  0
VERTEX
  8
1
 10
293.869749886
 20
146.154533378
  0
VERTEX
  8
1
 10
310.546679370
 20
149.699324166
  0
SEQEND
  8
1
  0
ENDBLK
  8
0
  0
BLOCK
  8
0
  2
*D119
 70
65
 10
0.000000000
 20
0.000000000
  3
*D
  0
TEXT
  8
1
 62
4
  6
CONTINUOUS
 72
5
 10
236.628078582
 20
152.026464499
 40
2.800000000
  1
(
 41
1.650001650
 50
348.000000007
 11
238.134425887
 21
151.706280495
  0
TEXT
  8
1
 62
4
  6
CONTINUOUS
 72
5
 10
238.887599540
 20
151.546188493
 40
2.800000000
  1
φ
 41
1.164760695
 50
348.000000007
 11
241.900294150
 21
150.905820486
  0
TEXT
  8
1
 62
4
  6
CONTINUOUS
 72
5
 10
243.406641455
 20
150.585636482
 40
2.800000000
  1
14
 41
1.031247938
 50
348.000000007
 11
247.172509718
 21
149.785176473
  0
TEXT
  8
1
 62
4
  6
CONTINUOUS
 72
5
 10
247.925683371
 20
149.625084471
 40
2.800000000
  1
)
 41
1.650001650
 50
348.000000007
 11
249.432030676
 21
149.304900468
  0
LINE
  8
1
 62
4
  6
CONTINUOUS
 10
264.442843728
 20
142.023700316
 11
265.232110799
 21
145.736909943
  0
POLYLINE
  8
1
 62
4
  6
CONTINUOUS
 66
1
  0
VERTEX
  8
1
 10
262.797618708
 20
143.902993843
  0
VERTEX
  8
1
 10
264.816287417
 20
143.780614741
  0
VERTEX
  8
1
 10
262.922365723
 20
144.489882403
  0
SEQEND
  8
1
  0
LINE
  8
1
 62
4
  6
CONTINUOUS
 10
264.816287417
 20
143.780614741
 11
251.122221006
 21
146.691378412
  0
POLYLINE
  8
1
 62
4
  6
CONTINUOUS
 66
1
  0
VERTEX
  8
1
 10
253.140889715
 20
146.568999310
  0
VERTEX
  8
1
 10
251.122221006
 20
146.691378412
  0
VERTEX
  8
1
 10
253.016142701
 20
145.982110750
  0
SEQEND
  8
1
  0
LINE
  8
1
 62
4
  6
CONTINUOUS
 10
250.697647139
 20
144.693915409
 11
251.538044388
 21
148.647673613
  0
POLYLINE
  8
1
 62
4
  6
CONTINUOUS
 66
1
  0
VERTEX
  8
1
 10
264.816287417
 20
143.780614741
  0
VERTEX
  8
1
 10
234.213338102
 20
150.285472421
  0
SEQEND
  8
1
  0
ENDBLK
  8
0
  0
BLOCK
  8
0
  2
*D164
 70
65
 10
0.000000000
 20
0.000000000
  3
*D
  0
TEXT
  8
1
 62
4
  6
CONTINUOUS
 72
5
 10
149.218500777
 20
230.371666667
 40
2.800000000
  1
(
 41
1.800001800
 11
150.898500777
 21
230.371666667
  0
TEXT
  8
1
 62
4
  6
CONTINUOUS
 72
5
 10
151.738500777
 20
230.371666667
 40
2.800000000
  1
86.2
 41
1.099999267
 11
160.978500777
 21
230.371666667
  0
TEXT
  8
1
 62
4
  6
CONTINUOUS
 72
5
 10
161.818500777
 20
230.371666667
 40
2.800000000
  1
)
 41
1.800001800
 11
163.498500777
 21
230.371666667
  0
LINE
  8
1
 62
4
  6
CONTINUOUS
 10
199.450100777
 20
203.666666667
 11
199.450100777
 21
230.166666667
  0
POLYLINE
  8
1
 62
4
  6
CONTINUOUS
 66
1
  0
VERTEX
  8
1
 10
197.450100777
 20
227.866666667
  0
VERTEX
  8
1
 10
199.450100777
 20
228.166666667
  0
VERTEX
  8
1
 10
197.450100777
 20
228.466666667
  0
SEQEND
  8
1
  0
LINE
  8
1
 62
4
  6
CONTINUOUS
 10
199.450100777
 20
228.166666667
 11
113.250100777
 21
228.166666667
  0
POLYLINE
  8
1
 62
4
  6
CONTINUOUS
 66
1
  0
VERTEX
  8
1
 10
115.250100777
 20
228.466666667
  0
VERTEX
  8
1
 10
113.250100777
 20
228.166666667
  0
VERTEX
  8
1
 10
115.250100777
 20
227.866666667
  0
SEQEND
  8
1
  0
LINE
  8
1
 62
4
  6
CONTINUOUS
 10
113.250100777
 20
204.066666667
 11
113.250100777
 21
230.166666667
  0
ENDBLK
  8
0
  0
BLOCK
  8
0
  2
*D186
 70
65
 10
0.000000000
 20
0.000000000
  3
*D
  0
TEXT
  8
1
 62
4
  6
CONTINUOUS
 72
5
 10
311.605613228
 20
174.323742158
 40
2.800000000
  1
(
 41
1.800001800
 50
281.999999997
 11
311.954904868
 21
172.680454189
  0
TEXT
  8
1
 62
4
  6
CONTINUOUS
 72
5
 10
312.129550688
 20
171.858810204
 40
2.800000000
  1
59
 41
0.899998740
 50
281.999999997
 11
313.002779789
 21
167.750590281
  0
TEXT
  8
1
 62
4
  6
CONTINUOUS
 72
5
 10
313.177425609
 20
166.928946296
 40
2.800000000
  1
)
 41
1.800001800
 50
281.999999997
 11
313.526717250
 21
165.285658327
  0
LINE
  8
1
 62
4
  6
CONTINUOUS
 10
296.023283026
 20
136.022956526
 11
318.520677844
 21
140.804925413
  0
POLYLINE
  8
1
 62
4
  6
CONTINUOUS
 66
1
  0
VERTEX
  8
1
 10
315.855114980
 20
142.283023725
  0
VERTEX
  8
1
 10
316.564382642
 20
140.389102031
  0
VERTEX
  8
1
 10
316.442003541
 20
142.407770740
  0
SEQEND
  8
1
  0
LINE
  8
1
 62
4
  6
CONTINUOUS
 10
316.564382642
 20
140.389102031
 11
304.250824001
 21
198.319840771
  0
POLYLINE
  8
1
 62
4
  6
CONTINUOUS
 66
1
  0
VERTEX
  8
1
 10
304.960091663
 20
196.425919077
  0
VERTEX
  8
1
 10
304.250824001
 20
198.319840771
  0
VERTEX
  8
1
 10
304.373203102
 20
196.301172062
  0
SEQEND
  8
1
  0
LINE
  8
1
 62
4
  6
CONTINUOUS
 10
272.950100777
 20
191.666666667
 11
306.207119202
 21
198.735664153
  0
ENDBLK
  8
0
  0
BLOCK
  8
0
  2
*D191
 70
65
 10
0.000000000
 20
0.000000000
  3
*D
  0
TEXT
  8
1
 62
4
  6
CONTINUOUS
 72
5
 10
185.831721080
 20
222.371666667
 40
2.800000000
  1
(
 41
1.650001650
 11
187.371721080
 21
222.371666667
  0
TEXT
  8
1
 62
4
  6
CONTINUOUS
 72
5
 10
188.141721080
 20
222.371666667
 40
2.800000000
  1
13.5
 41
1.134374007
 11
196.611721080
 21
222.371666667
  0
TEXT
  8
1
 62
4
  6
CONTINUOUS
 72
5
 10
197.381721080
 20
222.371666667
 40
2.800000000
  1
)
 41
1.650001650
 11
198.921721080
 21
222.371666667
  0
LINE
  8
1
 62
4
  6
CONTINUOUS
 10
199.450100777
 20
203.666666667
 11
199.450100777
 21
222.166666667
  0
POLYLINE
  8
1
 62
4
  6
CONTINUOUS
 66
1
  0
VERTEX
  8
1
 10
197.450100777
 20
219.866666667
  0
VERTEX
  8
1
 10
199.450100777
 20
220.166666667
  0
VERTEX
  8
1
 10
197.450100777
 20
220.466666667
  0
SEQEND
  8
1
  0
LINE
  8
1
 62
4
  6
CONTINUOUS
 10
199.450100777
 20
220.166666667
 11
185.950100777
 21
220.166666667
  0
POLYLINE
  8
1
 62
4
  6
CONTINUOUS
 66
1
  0
VERTEX
  8
1
 10
187.950100777
 20
220.466666667
  0
VERTEX
  8
1
 10
185.950100777
 20
220.166666667
  0
VERTEX
  8
1
 10
187.950100777
 20
219.866666667
  0
SEQEND
  8
1
  0
LINE
  8
1
 62
4
  6
CONTINUOUS
 10
185.950100777
 20
204.066666667
 11
185.950100777
 21
222.166666667
  0
ENDBLK
  8
0
  0
BLOCK
  8
0
  2
*D192
 70
65
 10
0.000000000
 20
0.000000000
  3
*D
  0
TEXT
  8
1
 62
4
  6
CONTINUOUS
 72
5
 10
144.988500777
 20
222.371666667
 40
2.800000000
  1
72.7
 41
1.099999267
 11
154.228500777
 21
222.371666667
  0
POLYLINE
  8
1
 62
4
  6
CONTINUOUS
 66
1
  0
VERTEX
  8
1
 10
183.950100777
 20
219.866666667
  0
VERTEX
  8
1
 10
185.950100777
 20
220.166666667
  0
VERTEX
  8
1
 10
183.950100777
 20
220.466666667
  0
SEQEND
  8
1
  0
LINE
  8
1
 62
4
  6
CONTINUOUS
 10
185.950100777
 20
220.166666667
 11
113.250100777
 21
220.166666667
  0
POLYLINE
  8
1
 62
4
  6
CONTINUOUS
 66
1
  0
VERTEX
  8
1
 10
115.250100777
 20
220.466666667
  0
VERTEX
  8
1
 10
113.250100777
 20
220.166666667
  0
VERTEX
  8
1
 10
115.250100777
 20
219.866666667
  0
SEQEND
  8
1
  0
LINE
  8
1
 62
4
  6
CONTINUOUS
 10
113.250100777
 20
204.066666667
 11
113.250100777
 21
222.166666667
  0
ENDBLK
  8
0
  0
BLOCK
  8
0
  2
*D193
 70
65
 10
0.000000000
 20
0.000000000
  3
*D
  0
TEXT
  8
1
 62
4
  6
CONTINUOUS
 72
5
 10
101.045100777
 20
183.703466667
 40
2.800000000
  1
φ
 41
1.270648030
 50
90.000000000
 11
101.045100777
 21
187.063466667
  0
TEXT
  8
1
 62
4
  6
CONTINUOUS
 72
5
 10
101.045100777
 20
188.743466667
 40
2.800000000
  1
25
 41
0.899998740
 50
90.000000000
 11
101.045100777
 21
192.943466667
  0
TEXT
  8
1
 62
4
  6
CONTINUOUS
 72
5
 10
99.281100777
 20
193.783466667
 40
1.400000000
  1
 0
 41
2.333335926
 50
90.000000000
 11
99.281100777
 21
196.723466667
  0
TEXT
  8
1
 62
4
  6
CONTINUOUS
 72
5
 10
101.423100777
 20
193.783466667
 40
1.400000000
  1
-0.01
 41
1.710000684
 50
90.000000000
 11
101.423100777
 21
201.763466667
  0
LINE
  8
1
 62
4
  6
CONTINUOUS
 10
113.350100777
 20
204.166666667
 11
101.250100777
 21
204.166666667
  0
POLYLINE
  8
1
 62
4
  6
CONTINUOUS
 66
1
  0
VERTEX
  8
1
 10
103.550100777
 20
202.166666667
  0
VERTEX
  8
1
 10
103.250100777
 20
204.166666667
  0
VERTEX
  8
1
 10
102.950100777
 20
202.166666667
  0
SEQEND
  8
1
  0
LINE
  8
1
 62
4
  6
CONTINUOUS
 10
103.250100777
 20
204.166666667
 11
103.250100777
 21
179.166666667
  0
POLYLINE
  8
1
 62
4
  6
CONTINUOUS
 66
1
  0
VERTEX
  8
1
 10
102.950100777
 20
181.166666667
  0
VERTEX
  8
1
 10
103.250100777
 20
179.166666667
  0
VERTEX
  8
1
 10
103.550100777
 20
181.166666667
  0
SEQEND
  8
1
  0
LINE
  8
1
 62
4
  6
CONTINUOUS
 10
113.350100777
 20
179.166666667
 11
101.250100777
 21
179.166666667
  0
ENDBLK
  8
0
  0
BLOCK
  8
0
  2
*D194
 70
65
 10
0.000000000
 20
0.000000000
  3
*D
  0
TEXT
  8
1
 62
4
  6
CONTINUOUS
 72
5
 10
209.245100777
 20
184.535066667
 40
2.800000000
  1
φ
 41
1.270648030
 50
90.000000000
 11
209.245100777
 21
187.895066667
  0
TEXT
  8
1
 62
4
  6
CONTINUOUS
 72
5
 10
209.245100777
 20
189.575066667
 40
2.800000000
  1
24.6
 41
1.099999267
 50
90.000000000
 11
209.245100777
 21
198.815066667
  0
LINE
  8
1
 62
4
  6
CONTINUOUS
 10
199.150100777
 20
203.966666667
 11
213.450100777
 21
203.966666667
  0
POLYLINE
  8
1
 62
4
  6
CONTINUOUS
 66
1
  0
VERTEX
  8
1
 10
211.750100777
 20
201.966666667
  0
VERTEX
  8
1
 10
211.450100777
 20
203.966666667
  0
VERTEX
  8
1
 10
211.150100777
 20
201.966666667
  0
SEQEND
  8
1
  0
LINE
  8
1
 62
4
  6
CONTINUOUS
 10
211.450100777
 20
203.966666667
 11
211.450100777
 21
179.366666667
  0
POLYLINE
  8
1
 62
4
  6
CONTINUOUS
 66
1
  0
VERTEX
  8
1
 10
211.150100777
 20
181.366666667
  0
VERTEX
  8
1
 10
211.450100777
 20
179.366666667
  0
VERTEX
  8
1
 10
211.750100777
 20
181.366666667
  0
SEQEND
  8
1
  0
LINE
  8
1
 62
4
  6
CONTINUOUS
 10
199.150100777
 20
179.366666667
 11
213.450100777
 21
179.366666667
  0
ENDBLK
  8
0
  0
ENDSEC
  0
SECTION
  2
ENTITIES
  0
LINE
  8
1
 62
7
  6
CONTINUOUS
 10
184.950100777
 20
161.498950860
 11
184.950100777
 21
152.522757413
  0
LINE
  8
1
 62
1
  6
CENTER
 10
111.250100777
 20
191.666666667
 11
201.450100777
 21
191.666666667
  0
LINE
  8
1
 62
7
  6
CONTINUOUS
 10
186.700100777
 20
162.498950860
 11
199.200100777
 21
162.498950860
  0
LINE
  8
1
 62
7
  6
CONTINUOUS
 10
188.450100777
 20
152.344250322
 11
188.450100777
 21
161.498950860
  0
ARC
  8
1
 62
7
  6
CONTINUOUS
 10
186.806749373
 20
153.194552239
 40
1.850301917
 50
220.317900462
 51
332.642077288
  0
LINE
  8
1
 62
7
  6
CONTINUOUS
 10
200.950100777
 20
152.498950860
 11
199.950100777
 21
151.344250322
  0
LINE
  8
1
 62
7
  6
CONTINUOUS
 10
184.950100777
 20
152.522757413
 11
185.950180638
 21
151.344250322
  0
LINE
  8
1
 62
7
  6
CONTINUOUS
 10
185.850100777
 20
204.166666667
 11
185.950100777
 21
204.066666667
  0
ARC
  8
1
 62
7
  6
CONTINUOUS
 10
107.731516490
 20
191.666666667
 40
20.784609691
 50
343.402157864
 51
16.597842136
  0
ARC
  8
1
 62
7
  6
CONTINUOUS
 10
144.168685064
 20
191.666666667
 40
20.784609691
 50
163.402157864
 51
196.597842136
  0
LINE
  8
1
 62
7
  6
CONTINUOUS
 10
127.650100777
 20
185.729495623
 11
127.650100777
 21
197.603837710
  0
LINE
  8
1
 62
7
  6
CONTINUOUS
 10
185.950100777
 20
179.266666667
 11
185.950100777
 21
204.066666667
  0
LINE
  8
1
 62
7
  6
CONTINUOUS
 10
185.850100777
 20
179.166666667
 11
185.950100777
 21
179.266666667
  0
LINE
  8
1
 62
7
  6
CONTINUOUS
 10
124.250100777
 20
197.603837710
 11
124.250100777
 21
185.729495623
  0
LINE
  8
1
 62
4
  6
CONTINUOUS
 10
124.250100777
 20
197.603837710
 11
127.650100777
 21
185.729495623
  0
LINE
  8
1
 62
4
  6
CONTINUOUS
 10
127.650100777
 20
197.603837710
 11
124.250100777
 21
185.729495623
  0
LINE
  8
1
 62
7
  6
CONTINUOUS
 10
113.350100777
 20
204.166666667
 11
185.850100777
 21
204.166666667
  0
LINE
  8
1
 62
7
  6
CONTINUOUS
 10
124.250100777
 20
185.729495623
 11
127.650100777
 21
185.729495623
  0
LINE
  8
1
 62
7
  6
CONTINUOUS
 10
198.950100777
 20
134.498950322
 11
186.950100777
 21
134.498950322
  0
LINE
  8
1
 62
7
  6
CONTINUOUS
 10
197.450100777
 20
136.498950322
 11
197.450100777
 21
134.498950322
  0
LINE
  8
1
 62
7
  6
CONTINUOUS
 10
200.950100777
 20
161.498950860
 11
200.950100777
 21
152.498950860
  0
LINE
  8
1
 62
7
  6
CONTINUOUS
 10
186.700100777
 20
162.498950860
 11
184.950100777
 21
161.498950860
  0
LINE
  8
1
 62
7
  6
CONTINUOUS
 10
186.950100777
 20
133.498950322
 11
198.950100777
 21
133.498950322
  0
LINE
  8
1
 62
7
  6
CONTINUOUS
 10
199.200100777
 20
162.498950860
 11
200.950100777
 21
161.498950860
  0
LINE
  8
1
 62
7
  6
CONTINUOUS
 10
186.950100777
 20
134.498950322
 11
186.950100777
 21
133.498950322
  0
LINE
  8
1
 62
7
  6
CONTINUOUS
 10
198.950100777
 20
133.498950322
 11
198.950100777
 21
134.498950322
  0
LINE
  8
1
 62
7
  6
CONTINUOUS
 10
197.450100777
 20
152.344250322
 11
197.450100777
 21
161.498950860
  0
ARC
  8
1
 62
7
  6
CONTINUOUS
 10
186.700100777
 20
160.467700860
 40
2.031250000
 50
30.510237406
 51
90.000000000
  0
LINE
  8
1
 62
7
  6
CONTINUOUS
 10
199.950100777
 20
151.344250322
 11
199.950100777
 21
136.998950322
  0
LINE
  8
1
 62
7
  6
CONTINUOUS
 10
199.450100777
 20
136.498950322
 11
186.450100777
 21
136.498950322
  0
LINE
  8
1
 62
7
  6
CONTINUOUS
 10
185.950100777
 20
151.352509553
 11
185.950100777
 21
136.998950322
  0
ARC
  8
1
 62
7
  6
CONTINUOUS
 10
192.950100777
 20
161.969250322
 40
10.625000000
 50
244.942384582
 51
295.057615418
  0
ARC
  8
1
 62
7
  6
CONTINUOUS
 10
199.200100776
 20
160.467700860
 40
2.031250000
 50
90.000000000
 51
149.489762594
  0
LINE
  8
1
 62
7
  6
CONTINUOUS
 10
199.950100777
 20
151.344250322
 11
185.950180638
 21
151.344250322
  0
ARC
  8
1
 62
7
  6
CONTINUOUS
 10
199.099922570
 20
153.205206298
 40
1.860955976
 50
207.557708232
 51
319.106605351
  0
ARC
  8
1
 62
7
  6
CONTINUOUS
 10
192.950100777
 20
151.873950860
 40
10.625000000
 50
64.942384582
 51
115.057615418
  0
LINE
  8
1
 62
7
  6
CONTINUOUS
 10
188.450100777
 20
134.498950322
 11
188.450100777
 21
136.498950322
  0
LINE
  8
1
 62
7
  6
CONTINUOUS
 10
113.350100777
 20
179.166666667
 11
185.850100777
 21
179.166666667
  0
LINE
  8
1
 62
7
  6
CONTINUOUS
 10
113.350100777
 20
179.166666667
 11
113.250100777
 21
179.266666667
  0
LINE
  8
1
 62
7
  6
CONTINUOUS
 10
113.250100777
 20
204.066666667
 11
113.350100777
 21
204.166666667
  0
LINE
  8
1
 62
7
  6
CONTINUOUS
 10
113.250100777
 20
204.066666667
 11
113.350100777
 21
204.166666667
  0
LINE
  8
1
 62
7
  6
CONTINUOUS
 10
113.350100777
 20
179.166666667
 11
113.250100777
 21
179.266666667
  0
LINE
  8
1
 62
7
  6
CONTINUOUS
 10
185.950100777
 20
136.998950322
 11
186.450100777
 21
136.498950322
  0
LINE
  8
1
 62
7
  6
CONTINUOUS
 10
199.450100777
 20
136.498950322
 11
199.950100777
 21
136.998950322
  0
LINE
  8
1
 62
7
  6
CONTINUOUS
 10
199.950100777
 20
136.998950322
 11
185.950100777
 21
136.998950322
  0
LINE
  8
1
 62
7
  6
CONTINUOUS
 10
197.200100777
 20
171.028950860
 11
188.700100777
 21
171.028950860
  0
LINE
  8
1
 62
1
  6
CENTER
 10
287.250100777
 20
191.666666667
 11
258.650100777
 21
191.666666667
  0
LINE
  8
1
 62
1
  6
CENTER
 10
272.950100777
 20
205.966666667
 11
272.950100777
 21
177.366666667
  0
LINE
  8
1
 62
7
  6
CONTINUOUS
 10
113.250100777
 20
179.266666667
 11
113.250100777
 21
204.066666667
  0
LINE
  8
1
 62
7
  6
CONTINUOUS
 10
266.188319876
 20
160.869528610
 11
266.880361795
 21
163.687018606
  0
LINE
  8
1
 62
7
  6
CONTINUOUS
 10
284.604172018
 20
170.506712622
 11
285.643730472
 21
165.615974618
  0
LINE
  8
1
 62
7
  6
CONTINUOUS
 10
283.112782691
 20
184.737749269
 11
286.071393419
 21
170.818580158
  0
ARC
  8
1
 62
7
  6
CONTINUOUS
 10
185.550100777
 20
180.666666667
 40
0.600000000
 50
311.810314879
 51
0.000000000
  0
ARC
  8
1
 62
7
  6
CONTINUOUS
 10
185.550100777
 20
202.666666667
 40
0.600000000
 50
0.000000000
 51
48.189685121
  0
CIRCLE
  8
1
 62
7
  6
CONTINUOUS
 10
272.950100777
 20
191.666666667
 40
12.300000000
  0
LINE
  8
1
 62
1
  6
DASHED
 10
261.950100777
 20
197.170301829
 11
261.950100777
 21
186.163031504
  0
LINE
  8
1
 62
1
  6
DASHED
 10
283.950100777
 20
186.163031504
 11
283.950100777
 21
197.170301829
  0
LINE
  8
1
 62
1
  6
CENTER
 10
272.950100777
 20
191.666666667
 11
269.976963598
 21
177.679155976
  0
LINE
  8
1
 62
7
  6
CONTINUOUS
 10
256.819494447
 20
162.860933930
 11
257.333259119
 21
165.716317925
  0
LINE
  8
1
 62
7
  6
CONTINUOUS
 10
269.183342526
 20
179.957630315
 11
266.945447387
 21
169.429161463
  0
DIMENSION
  8
1
 62
4
  6
CONTINUOUS
  2
*D61
 70
0
 10
241.649377553
 20
198.319840770
 11
235.356930177
 21
168.716203371
 14
272.950100777
 24
191.666666667
 13
249.605582411
 23
134.746420467
 50
258.000000005
  0
DIMENSION
  8
1
 62
4
  6
CONTINUOUS
  2
*D62
 70
0
 10
287.758599705
 20
121.998156717
 11
290.203968710
 21
122.517935945
 14
275.923237956
 24
177.679155976
 13
290.570220804
 23
132.819191179
 50
11.999999997
  0
DIMENSION
  8
1
 62
4
  6
CONTINUOUS
  2
*D63
 70
5
 10
272.950100777
 20
120.441720762
 11
280.395134919
 21
120.831898468
 13
272.950100777
 23
177.366666667
 14
275.923237956
 24
177.679155976
 15
272.950100777
 25
191.666666667
  0
DIMENSION
  8
1
 62
4
  6
CONTINUOUS
  2
*D64
 70
5
 10
258.141601846
 20
121.998156718
 11
265.505066635
 21
120.831898468
 13
269.976963598
 23
177.679155976
 14
272.950100777
 24
177.366666667
 15
272.950100777
 25
191.666666667
  0
DIMENSION
  8
1
 62
4
  6
CONTINUOUS
  2
*D65
 70
0
 10
253.250863841
 20
123.037715172
 11
255.696232848
 21
122.517935944
 14
255.058644634
 24
131.542655120
 13
269.976963598
 23
177.679155976
 50
347.999999997
  0
LINE
  8
1
 62
7
  6
CONTINUOUS
 10
279.044908906
 20
163.569077542
 11
288.592011582
 21
165.598376861
  0
LINE
  8
2
 62
7
  6
CONTINUOUS
 10
279.530307967
 20
164.316526551
 11
287.844562574
 21
166.083775923
  0
LINE
  8
1
 62
7
  6
CONTINUOUS
 10
124.250100777
 20
197.603837710
 11
127.650100777
 21
197.603837710
  0
LINE
  8
1
 62
7
  6
CONTINUOUS
 10
279.754699308
 20
160.679328666
 11
279.044908906
 21
163.569077542
  0
LINE
  8
1
 62
7
  6
CONTINUOUS
 10
289.118952541
 20
162.669762136
 11
288.592011582
 21
165.598376861
  0
LINE
  8
1
 62
7
  6
CONTINUOUS
 10
278.490749513
 20
169.207264554
 11
286.805004119
 21
170.974513926
  0
LINE
  8
1
 62
7
  6
CONTINUOUS
 10
276.955548428
 20
180.037118562
 11
279.224360214
 21
169.363198322
  0
LINE
  8
1
 62
7
  6
CONTINUOUS
 10
280.691581615
 20
169.675065859
 11
281.731140069
 21
164.784327855
  0
LINE
  8
1
 62
7
  6
CONTINUOUS
 10
279.530307967
 20
164.316526551
 11
279.794347226
 21
164.372649828
  0
LINE
  8
1
 62
7
  6
CONTINUOUS
 10
279.530307967
 20
164.316526551
 11
279.044908906
 21
163.569077542
  0
LINE
  8
1
 62
7
  6
CONTINUOUS
 10
288.582256630
 20
165.604711801
 11
287.844562574
 21
166.083775923
  0
ARC
  8
1
 62
7
  6
CONTINUOUS
 10
286.645887640
 20
151.281727143
 40
10.625000000
 50
76.942384582
 51
127.057615418
  0
ARC
  8
1
 62
7
  6
CONTINUOUS
 10
292.447120457
 20
154.049912214
 40
2.031250000
 50
222.510237406
 51
275.560735571
  0
ARC
  8
1
 62
7
  6
CONTINUOUS
 10
284.546956859
 20
161.156420090
 40
10.625000000
 50
256.942384582
 51
307.057615418
  0
ARC
  8
1
 62
7
  6
CONTINUOUS
 10
278.745724042
 20
158.388235019
 40
2.031250000
 50
42.510237406
 51
102.000000000
  0
LINE
  8
1
 62
7
  6
CONTINUOUS
 10
292.469918421
 20
162.359691327
 11
294.341123639
 21
153.556362920
  0
LINE
  8
1
 62
7
  6
CONTINUOUS
 10
282.146442680
 20
150.806146825
 11
280.243073412
 21
159.760795192
  0
LINE
  8
1
 62
7
  6
CONTINUOUS
 10
295.295592109
 20
139.446473128
 11
283.557820900
 21
136.951532839
  0
LINE
  8
1
 62
7
  6
CONTINUOUS
 10
294.910474154
 20
138.853443483
 11
295.295592109
 21
139.446473128
  0
LINE
  8
1
 62
7
  6
CONTINUOUS
 10
283.557820900
 20
136.951532839
 11
284.150850546
 21
136.566414884
  0
LINE
  8
1
 62
7
  6
CONTINUOUS
 10
285.544821528
 20
134.818031373
 11
285.128998146
 21
136.774326574
  0
LINE
  8
1
 62
7
  6
CONTINUOUS
 10
276.819556810
 20
159.033104274
 11
278.685812366
 21
150.253062190
  0
LINE
  8
1
 62
7
  6
CONTINUOUS
 10
290.550248429
 20
162.973993469
 11
292.469918421
 21
162.359691327
  0
LINE
  8
1
 62
7
  6
CONTINUOUS
 10
278.323403420
 20
160.375097333
 11
276.819556810
 21
159.033104274
  0
LINE
  8
1
 62
7
  6
CONTINUOUS
 10
292.624904178
 20
152.011071977
 11
280.887211086
 21
149.516148292
  0
LINE
  8
1
 62
7
  6
CONTINUOUS
 10
280.885415779
 20
149.524210435
 11
283.557820900
 21
136.951532839
  0
LINE
  8
1
 62
7
  6
CONTINUOUS
 10
294.910474154
 20
138.853443483
 11
284.150850546
 21
136.566414884
  0
LINE
  8
1
 62
7
  6
CONTINUOUS
 10
292.624904178
 20
152.011071977
 11
295.295592109
 21
139.446473128
  0
LINE
  8
1
 62
7
  6
CONTINUOUS
 10
278.490749513
 20
169.207264554
 11
279.530307967
 21
164.316526551
  0
LINE
  8
1
 62
7
  6
CONTINUOUS
 10
296.023283026
 20
136.022956526
 11
295.815371336
 21
137.001104127
  0
LINE
  8
1
 62
7
  6
CONTINUOUS
 10
284.077600127
 20
134.506163837
 11
284.285511818
 21
133.528016236
  0
LINE
  8
1
 62
7
  6
CONTINUOUS
 10
290.949771087
 20
152.677352042
 11
289.046401819
 21
161.632000409
  0
LINE
  8
1
 62
7
  6
CONTINUOUS
 10
284.285511818
 20
133.528016236
 11
296.023283026
 21
136.022956526
  0
LINE
  8
1
 62
7
  6
CONTINUOUS
 10
293.932326553
 20
138.645531792
 11
294.348149935
 21
136.689236590
  0
LINE
  8
1
 62
7
  6
CONTINUOUS
 10
295.815371336
 20
137.001104127
 11
284.077600127
 21
134.506163837
  0
ARC
  8
1
 62
7
  6
CONTINUOUS
 10
280.220275448
 20
151.451016079
 40
2.031250000
 50
288.451825822
 51
341.489762594
  0
LINE
  8
1
 62
7
  6
CONTINUOUS
 10
294.341123639
 20
153.556362920
 11
292.624904178
 21
152.011071977
  0
LINE
  8
1
 62
7
  6
CONTINUOUS
 10
278.685812366
 20
150.253062190
 11
280.887211086
 21
149.516148292
  0
ARC
  8
1
 62
7
  6
CONTINUOUS
 10
290.972569051
 20
160.987131155
 40
2.031250000
 50
102.000000000
 51
161.489762594
  0
LINE
  8
1
 62
7
  6
CONTINUOUS
 10
278.323403420
 20
160.375097333
 11
290.550248429
 21
162.973993469
  0
DIMENSION
  8
1
 62
4
  6
CONTINUOUS
  2
*D106
 70
0
 10
293.869749886
 20
146.154533378
 11
302.195939858
 21
147.924319689
 14
293.753639815
 24
146.700788317
 13
282.001100828
 23
144.275324963
 50
191.999999997
  0
LINE
  8
2
 62
7
  6
CONTINUOUS
 10
258.080708127
 20
166.201716986
 11
266.394962733
 21
164.434467614
  0
LINE
  8
1
 62
7
  6
CONTINUOUS
 10
265.233689085
 20
169.793006922
 11
264.194130631
 21
164.902268919
  0
LINE
  8
2
 62
7
  6
CONTINUOUS
 10
257.333259119
 20
165.716317925
 11
266.880361795
 21
163.687018606
  0
LINE
  8
1
 62
7
  6
CONTINUOUS
 10
266.880361795
 20
163.687018606
 11
266.394962733
 21
164.434467614
  0
LINE
  8
1
 62
7
  6
CONTINUOUS
 10
258.080708127
 20
166.201716986
 11
257.333259119
 21
165.716317925
  0
LINE
  8
1
 62
1
  6
CONTINUOUS
 10
265.692589091
 20
160.974899441
 11
266.501895620
 21
164.269805408
  0
LINE
  8
1
 62
7
  6
CONTINUOUS
 10
262.594015219
 20
185.030290252
 11
259.609340382
 21
170.988499144
  0
LINE
  8
1
 62
1
  6
CONTINUOUS
 10
257.315225231
 20
162.755563099
 11
257.916045921
 21
166.094784099
  0
LINE
  8
1
 62
7
  6
CONTINUOUS
 10
261.321098683
 20
170.624653686
 11
260.281540228
 21
165.733915682
  0
LINE
  8
1
 62
7
  6
CONTINUOUS
 10
267.434521188
 20
169.325205618
 11
266.394962733
 21
164.434467614
  0
LINE
  8
1
 62
7
  6
CONTINUOUS
 10
259.120266581
 20
171.092454990
 11
258.080708127
 21
166.201716986
  0
LINE
  8
1
 62
7
  6
CONTINUOUS
 10
267.434521188
 20
169.325205618
 11
259.120266581
 21
171.092454990
  0
DIMENSION
  8
1
 62
4
  6
CONTINUOUS
  2
*D119
 70
0
 10
251.122221006
 20
146.691378412
 11
242.564077614
 21
148.510467944
 14
250.697647139
 24
144.693915409
 13
264.442843728
 23
142.023700316
 50
348.000000005
  0
LINE
  8
1
 62
7
  6
CONTINUOUS
 10
263.049192139
 20
135.467085089
 11
249.355125729
 21
138.377848760
  0
LINE
  8
1
 62
7
  6
CONTINUOUS
 10
262.456162493
 20
135.081967134
 11
263.049192139
 21
135.467085089
  0
LINE
  8
1
 62
7
  6
CONTINUOUS
 10
249.355125729
 20
138.377848760
 11
249.740243683
 21
137.784819114
  0
LINE
  8
1
 62
7
  6
CONTINUOUS
 10
251.280715503
 20
135.412700531
 11
251.696538885
 21
137.368995733
  0
ARC
  8
1
 62
7
  6
CONTINUOUS
 10
259.294845446
 20
151.472413012
 40
10.625000000
 50
52.942384582
 51
103.057615418
  0
ARC
  8
1
 62
7
  6
CONTINUOUS
 10
265.587062448
 20
151.495957477
 40
1.860955976
 50
195.557708232
 51
307.106605351
  0
LINE
  8
1
 62
7
  6
CONTINUOUS
 10
266.031747717
 20
149.498905865
 11
252.337759423
 21
152.409652933
  0
ARC
  8
1
 62
7
  6
CONTINUOUS
 10
267.195009044
 20
158.578920888
 40
2.031250000
 50
78.000000000
 51
137.489762594
  0
ARC
  8
1
 62
7
  6
CONTINUOUS
 10
261.393776227
 20
161.347105959
 40
10.625000000
 50
232.942384582
 51
283.057615418
  0
LINE
  8
1
 62
7
  6
CONTINUOUS
 10
252.339398497
 20
152.417748284
 11
249.355125729
 21
138.377848760
  0
LINE
  8
1
 62
7
  6
CONTINUOUS
 10
262.456162493
 20
135.081967134
 11
249.740243683
 21
137.784819114
  0
LINE
  8
1
 62
7
  6
CONTINUOUS
 10
266.031747717
 20
149.498905865
 11
263.049192139
 21
135.467085089
  0
ARC
  8
1
 62
7
  6
CONTINUOUS
 10
254.968164035
 20
161.177817023
 40
2.031250000
 50
18.510237406
 51
78.000000000
  0
LINE
  8
1
 62
7
  6
CONTINUOUS
 10
263.794290406
 20
150.996832693
 11
265.697659674
 21
159.951481060
  0
LINE
  8
1
 62
7
  6
CONTINUOUS
 10
261.343353620
 20
132.251480177
 11
261.551265311
 21
133.229627778
  0
LINE
  8
1
 62
7
  6
CONTINUOUS
 10
249.813494102
 20
135.724568067
 11
249.605582411
 21
134.746420467
  0
LINE
  8
1
 62
7
  6
CONTINUOUS
 10
267.617329666
 20
160.565783202
 11
269.121176276
 21
159.223790142
  0
LINE
  8
1
 62
7
  6
CONTINUOUS
 10
249.605582411
 20
134.746420467
 11
261.343353620
 21
132.251480177
  0
LINE
  8
1
 62
7
  6
CONTINUOUS
 10
255.390484657
 20
163.164679337
 11
253.470814665
 21
162.550377195
  0
LINE
  8
1
 62
7
  6
CONTINUOUS
 10
269.121176276
 20
159.223790142
 11
267.249971059
 21
150.420461736
  0
LINE
  8
1
 62
7
  6
CONTINUOUS
 10
260.499867292
 20
135.497790515
 11
260.084043910
 21
133.541495314
  0
LINE
  8
1
 62
7
  6
CONTINUOUS
 10
261.551265311
 20
133.229627778
 11
249.813494102
 21
135.724568067
  0
LINE
  8
1
 62
7
  6
CONTINUOUS
 10
251.604559108
 20
153.770335111
 11
252.337759423
 21
152.409652933
  0
LINE
  8
1
 62
7
  6
CONTINUOUS
 10
267.249971059
 20
150.420461736
 11
266.031747717
 21
149.498905865
  0
ARC
  8
1
 62
7
  6
CONTINUOUS
 10
253.560309477
 20
154.041430660
 40
1.850301917
 50
208.317900462
 51
320.642077288
  0
LINE
  8
1
 62
4
  6
CONTINUOUS
 10
188.050100777
 20
197.170301829
 11
191.450100777
 21
186.163031504
  0
LINE
  8
1
 62
4
  6
CONTINUOUS
 10
191.450100777
 20
197.170301829
 11
188.050100777
 21
186.163031504
  0
LINE
  8
5
 62
7
  6
CONTINUOUS
 10
191.450100777
 20
186.163031504
 11
188.050100777
 21
186.163031504
  0
LINE
  8
1
 62
7
  6
CONTINUOUS
 10
254.990961999
 20
152.868037911
 11
256.894331267
 21
161.822686278
  0
LINE
  8
1
 62
7
  6
CONTINUOUS
 10
255.390484657
 20
163.164679337
 11
267.617329666
 21
160.565783202
  0
LINE
  8
1
 62
7
  6
CONTINUOUS
 10
253.470814665
 20
162.550377195
 11
251.604559108
 21
153.770335111
  0
TEXT
  8
1
 62
4
  6
CONTINUOUS
 72
5
 10
303.188382642
 20
127.456715172
 40
3.200000000
  1
（給気）
 41
0.722783070
 11
313.699151872
 21
127.456715172
  0
TEXT
  8
1
 62
4
  6
CONTINUOUS
 72
5
 10
231.688482801
 20
127.456715172
 40
3.200000000
  1
（排気）
 41
0.722783070
 11
242.199252032
 21
127.456715172
  0
LINE
  8
5
 62
7
  6
CONTINUOUS
 10
199.150100777
 20
179.366666667
 11
199.450100777
 21
179.666666667
  0
LINE
  8
5
 62
7
  6
CONTINUOUS
 10
186.150100777
 20
179.466666667
 11
186.250100777
 21
179.366666667
  0
LINE
  8
5
 62
7
  6
CONTINUOUS
 10
186.250100777
 20
203.966666667
 11
199.150100777
 21
203.966666667
  0
LINE
  8
5
 62
7
  6
CONTINUOUS
 10
186.150100777
 20
179.466666667
 11
186.150100777
 21
203.866666667
  0
LINE
  8
5
 62
7
  6
CONTINUOUS
 10
186.250100777
 20
179.366666667
 11
189.150100777
 21
179.366666667
  0
LINE
  8
5
 62
7
  6
CONTINUOUS
 10
199.450100777
 20
203.666666667
 11
199.450100777
 21
179.666666667
  0
LINE
  8
5
 62
7
  6
CONTINUOUS
 10
186.150100777
 20
203.866666667
 11
186.250100777
 21
203.966666667
  0
LINE
  8
5
 62
7
  6
CONTINUOUS
 10
199.150100777
 20
203.966666667
 11
199.450100777
 21
203.666666667
  0
LINE
  8
5
 62
7
  6
CONTINUOUS
 10
191.450100777
 20
197.170301829
 11
191.450100777
 21
186.163031504
  0
LINE
  8
5
 62
7
  6
CONTINUOUS
 10
191.450100777
 20
197.170301829
 11
188.050100777
 21
197.170301829
  0
LINE
  8
5
 62
7
  6
CONTINUOUS
 10
188.050100777
 20
186.163031504
 11
188.050100777
 21
197.170301829
  0
DIMENSION
  8
1
 62
4
  6
CONTINUOUS
  2
*D164
 70
0
 10
113.250100777
 20
228.166666667
 11
156.350100777
 21
228.166666667
 14
113.250100777
 24
204.066666667
 13
199.450100777
 23
203.666666667
 50
0.000000000
  0
LINE
  8
1
 62
7
  6
CONTINUOUS
 10
188.700100777
 20
171.028950860
 11
188.700100777
 21
166.028950860
  0
LINE
  8
1
 62
7
  6
CONTINUOUS
 10
197.200100777
 20
171.028950860
 11
197.200100777
 21
166.028950860
  0
LINE
  8
1
 62
7
  6
CONTINUOUS
 10
190.950100776
 20
171.028950860
 11
190.950100776
 21
166.028950860
  0
LINE
  8
1
 62
1
  6
CONTINUOUS
 10
188.667841200
 20
162.498950860
 11
188.561269432
 21
165.890119516
  0
LINE
  8
1
 62
7
  6
CONTINUOUS
 10
189.200100777
 20
185.090478102
 11
189.200100777
 21
171.028950860
  0
LINE
  8
1
 62
1
  6
CONTINUOUS
 10
197.232360353
 20
162.498950860
 11
197.338932121
 21
165.890119516
  0
LINE
  8
1
 62
7
  6
CONTINUOUS
 10
188.700100777
 20
166.028950860
 11
188.069905463
 21
165.398755546
  0
LINE
  8
1
 62
7
  6
CONTINUOUS
 10
197.830296091
 20
165.398755546
 11
197.200100777
 21
166.028950860
  0
LINE
  8
2
 62
7
  6
CONTINUOUS
 10
188.069905463
 20
165.398755546
 11
197.830296091
 21
165.398755546
  0
LINE
  8
1
 62
7
  6
CONTINUOUS
 10
194.950100776
 20
171.028950860
 11
194.950100776
 21
166.028950860
  0
LINE
  8
2
 62
7
  6
CONTINUOUS
 10
188.700100777
 20
166.028950860
 11
197.200100777
 21
166.028950860
  0
LINE
  8
1
 62
7
  6
CONTINUOUS
 10
196.700100777
 20
185.090478102
 11
196.700100777
 21
171.028950860
  0
LINE
  8
1
 62
7
  6
CONTINUOUS
 10
188.161035496
 20
162.498950860
 11
188.069905463
 21
165.398755546
  0
LINE
  8
1
 62
7
  6
CONTINUOUS
 10
197.739166057
 20
162.498950860
 11
197.830296091
 21
165.398755546
  0
LINE
  8
1
 62
7
  6
CONTINUOUS
 10
196.750100777
 20
185.090478102
 11
196.750100777
 21
179.366666667
  0
LINE
  8
1
 62
1
  6
CONTINUOUS
 10
288.623221757
 20
162.564391305
 11
288.009224780
 21
165.976843036
  0
LINE
  8
1
 62
1
  6
CONTINUOUS
 10
280.250430092
 20
160.784699497
 11
279.423375080
 21
164.151864344
  0
LINE
  8
1
 62
7
  6
CONTINUOUS
 10
286.805004119
 20
170.974513926
 11
287.844562574
 21
166.083775923
  0
LINE
  8
1
 62
1
  6
CENTER
 10
279.713083268
 20
183.898007334
 11
290.570220804
 21
132.819191179
  0
LINE
  8
1
 62
1
  6
CENTER
 10
272.950100777
 20
191.666666667
 11
275.923237956
 21
177.679155976
  0
LINE
  8
1
 62
1
  6
CENTER
 10
266.187118286
 20
183.898007334
 11
255.058644634
 21
131.542655120
  0
DIMENSION
  8
1
 62
4
  6
CONTINUOUS
  2
*D186
 70
0
 10
304.250824000
 20
198.319840773
 11
310.407603321
 21
169.354471404
 14
272.950100777
 24
191.666666667
 13
296.023283026
 23
136.022956526
 50
282.000000000
  0
LINE
  8
1
 62
7
  6
CONTINUOUS
 10
189.150100777
 20
185.090478102
 11
196.750100777
 21
185.090478102
  0
LINE
  8
1
 62
7
  6
CONTINUOUS
 10
189.150100777
 20
179.366666667
 11
189.150100777
 21
185.090478102
  0
LINE
  8
1
 62
1
  6
CENTER
 10
192.950100777
 20
187.090478102
 11
192.950100777
 21
131.498950322
  0
LINE
  8
5
 62
7
  6
CONTINUOUS
 10
196.750100777
 20
179.366666667
 11
199.150100777
 21
179.366666667
  0
DIMENSION
  8
1
 62
4
  6
CONTINUOUS
  2
*D191
 70
0
 10
185.950100777
 20
220.166666667
 11
192.369021080
 21
220.166666667
 14
185.950100777
 24
204.066666667
 13
199.450100777
 23
203.666666667
 50
0.000000000
  0
DIMENSION
  8
1
 62
4
  6
CONTINUOUS
  2
*D192
 70
1
 10
113.250100777
 20
220.166666667
 11
149.600100777
 21
220.166666667
 14
113.250100777
 24
204.066666667
 13
185.950100777
 23
204.066666667
 50
0.000000000
  0
DIMENSION
  8
1
 62
4
  6
CONTINUOUS
  2
*D193
 70
1
 10
103.250100777
 20
179.166666667
 11
103.250100777
 21
191.666666667
 14
113.350100777
 24
179.166666667
 13
113.350100777
 23
204.166666667
 50
90.000000000
  0
DIMENSION
  8
1
 62
4
  6
CONTINUOUS
  2
*D194
 70
1
 10
211.450100777
 20
179.366666667
 11
211.450100777
 21
191.666666667
 14
199.150100777
 24
179.366666667
 13
199.150100777
 23
203.966666667
 50
90.000000000
  0
TEXT
  8
1
 62
3
  6
CONTINUOUS
 72
5
 10
131.800100777
 20
132.791486381
 40
4.000000000
  1
ＡＭ－２５２６ＬＡ
 41
0.834566215
 11
167.000100777
 21
132.791486381
  0
ENDSEC
  0
EOF
