  0
SECTION
  2
HEADER
  9
$ACADVER
  1
AC1009
  9
$INSBASE
 10
0.000000000
 20
0.000000000
  9
$EXTMIN
 10
-28.932936498
 20
-20.059420290
  9
$EXTMAX
 10
318.262301479
 20
220.653623188
  9
$LIMMIN
 10
-28.932936498
 20
-20.059420290
  9
$LIMMAX
 10
318.262301479
 20
220.653623188
  9
$SNAPBASE
 10
0.000000000
 20
0.000000000
  9
$SNAPANG
 50
0.000000000
  9
$SNAPSTYLE
 70
0
  9
$GRIDMODE
 70
0
  9
$GRIDUNIT
 10
0.000000000
 20
0.000000000
  9
$DIMEXO
 40
0.000000000
  9
$DIMDLI
 40
8.000000000
  9
$DIMDLE
 40
0.000000000
  9
$DIMEXE
 40
1.000000000
  9
$DIMTIH
 70
1
  9
$DIMTOH
 70
1
  9
$DIMTAD
 70
2
  9
$DIMZIN
 70
0
  9
$FILLETRAD
 40
1.000000000
  9
$CHAMFERA
 40
1.000000000
  9
$CHAMFERB
 40
1.000000000
  9
$TDCREATE
 40
2454152.715960648
  9
$TDUPDATE
 40
2454152.715960648
  9
$ANGBASE
 50
0.000000000
  9
$ANGDIR
 70
0
  0
ENDSEC
  0
SECTION
  2
TABLES
  0
TABLE
  2
LTYPE
 70
4
  0
LTYPE
  2
CENTER
 70
64
  3
___ _ ___ _ __
 72
65
 73
4
 40
13.000000000
 49
8.500000000
 49
-1.500000000
 49
1.500000000
 49
-1.500000000
  0
LTYPE
  2
CONTINUOUS
 70
64
  3
______________
 72
65
 73
0
 40
0.000000000
  0
LTYPE
  2
DASHED
 70
64
  3
___ ___ ___ __
 72
65
 73
2
 40
5.000000119
 49
3.400000095
 49
-1.600000024
  0
LTYPE
  2
DIVIDE
 70
64
  3
___ . . ___ . 
 72
65
 73
6
 40
12.999999523
 49
5.199999809
 49
-2.599999905
 49
0.000000000
 49
-2.599999905
 49
0.000000000
 49
-2.599999905
  0
ENDTAB
  0
TABLE
  2
LAYER
 70
3
  0
LAYER
  2
1
 70
0
 62
7
  6
CONTINUOUS
  0
LAYER
  2
2
 70
0
 62
7
  6
CONTINUOUS
  0
LAYER
  2
3
 70
0
 62
7
  6
CONTINUOUS
999
Comment
  0
LAYER
  2
_CONSTR
 70
0
 62
5
  6
CONTINUOUS
  0
ENDTAB
  0
TABLE
  2
STYLE
 70
1
  0
STYLE
  2
STANDARD
 70
64
 40
0.000000000
 41
1.000000000
 50
0.000000000
 71
0
 42
3.200000000
  3
TXT
  4
EXTFONT
  0
ENDTAB
  0
TABLE
  2
VIEW
 70
0
  0
ENDTAB
  0
ENDSEC
  0
SECTION
  2
BLOCKS
  0
BLOCK
  8
0
  2
*D49
 70
65
 10
0.000000000
 20
0.000000000
  3
*D
  0
TEXT
  8
1
 62
4
  6
CONTINUOUS
 72
5
 10
227.838912156
 20
92.117248821
 40
2.800000000
  1
8
 41
0.899996850
 50
355.000000000
 11
229.512519248
 21
91.970827174
  0
LINE
  8
1
 62
4
  6
CONTINUOUS
 10
245.671995484
 20
144.758512501
 11
240.599513528
 21
86.779778446
  0
POLYLINE
  8
1
 62
4
  6
CONTINUOUS
 66
1
  0
VERTEX
  8
1
 10
242.740067687
 20
88.298997947
  0
VERTEX
  8
1
 10
240.773825014
 20
88.772167842
  0
SEQEND
  8
1
  0
POLYLINE
  8
1
 62
4
  6
CONTINUOUS
 66
1
  0
VERTEX
  8
1
 10
243.762409108
 20
88.510700614
  0
VERTEX
  8
1
 10
240.773825014
 20
88.772167842
  0
VERTEX
  8
1
 10
242.792361133
 20
88.896714766
  0
SEQEND
  8
1
  0
LINE
  8
1
 62
4
  6
CONTINUOUS
 10
240.773825014
 20
88.772167842
 11
232.804267429
 21
89.469413783
  0
POLYLINE
  8
1
 62
4
  6
CONTINUOUS
 66
1
  0
VERTEX
  8
1
 10
230.838024756
 20
89.942583678
  0
VERTEX
  8
1
 10
232.804267429
 20
89.469413783
  0
SEQEND
  8
1
  0
POLYLINE
  8
1
 62
4
  6
CONTINUOUS
 66
1
  0
VERTEX
  8
1
 10
229.815683335
 20
89.730881011
  0
VERTEX
  8
1
 10
232.804267429
 20
89.469413783
  0
VERTEX
  8
1
 10
230.785731310
 20
89.344866859
  0
SEQEND
  8
1
  0
LINE
  8
1
 62
4
  6
CONTINUOUS
 10
233.756498877
 20
100.353469032
 11
232.629955944
 21
87.477024387
  0
POLYLINE
  8
1
 62
4
  6
CONTINUOUS
 66
1
  0
VERTEX
  8
1
 10
240.773825014
 20
88.772167842
  0
VERTEX
  8
1
 10
225.654344347
 20
90.094950997
  0
SEQEND
  8
1
  0
ENDBLK
  8
0
  0
BLOCK
  8
0
  2
*D50
 70
65
 10
0.000000000
 20
0.000000000
  3
*D
  0
TEXT
  8
1
 62
4
  6
CONTINUOUS
 72
5
 10
241.962912937
 20
90.857710334
 40
2.800000000
  1
5
 41
0.899996850
 50
357.500000000
 11
243.641313949
 21
90.784429763
  0
TEXT
  8
1
 62
4
  6
CONTINUOUS
 72
5
 10
244.480514455
 20
90.747789478
 40
2.800000000
  1
°
 41
1.270648030
 50
357.500000000
 11
247.837316479
 21
90.601228336
  0
POLYLINE
  8
1
 62
4
  6
CONTINUOUS
 66
1
  0
VERTEX
  8
1
 10
249.144927536
 20
88.193999499
  0
VERTEX
  8
1
 10
247.144927536
 20
88.493999499
  0
SEQEND
  8
1
  0
POLYLINE
  8
1
 62
4
  6
CONTINUOUS
 66
1
  0
VERTEX
  8
1
 10
250.144927536
 20
88.493999499
  0
VERTEX
  8
1
 10
247.144927536
 20
88.493999499
  0
VERTEX
  8
1
 10
249.144927536
 20
88.793999499
  0
SEQEND
  8
1
  0
ARC
  8
1
 62
4
  6
CONTINUOUS
 10
247.144927536
 20
161.594202899
 40
73.100203400
 50
265.000000000
 51
270.000000000
  0
POLYLINE
  8
1
 62
4
  6
CONTINUOUS
 66
1
  0
VERTEX
  8
1
 10
238.807582341
 20
89.245337737
  0
VERTEX
  8
1
 10
240.773825014
 20
88.772167842
  0
SEQEND
  8
1
  0
POLYLINE
  8
1
 62
4
  6
CONTINUOUS
 66
1
  0
VERTEX
  8
1
 10
237.785240920
 20
89.033635070
  0
VERTEX
  8
1
 10
240.773825014
 20
88.772167842
  0
VERTEX
  8
1
 10
238.755288895
 20
88.647620918
  0
SEQEND
  8
1
  0
LINE
  8
1
 62
4
  6
CONTINUOUS
 10
245.671995484
 20
144.758512501
 11
240.599513528
 21
86.779778446
  0
ENDBLK
  8
0
  0
BLOCK
  8
0
  2
*D51
 70
65
 10
0.000000000
 20
0.000000000
  3
*D
  0
TEXT
  8
1
 62
4
  6
CONTINUOUS
 72
5
 10
248.147723615
 20
90.675241713
 40
2.800000000
  1
5
 41
0.899996850
 50
2.500000000
 11
249.826124628
 21
90.748522283
  0
TEXT
  8
1
 62
4
  6
CONTINUOUS
 72
5
 10
250.665325134
 20
90.785162569
 40
2.800000000
  1
°
 41
1.270648030
 50
2.500000000
 11
254.022127158
 21
90.931723710
  0
LINE
  8
1
 62
4
  6
CONTINUOUS
 10
248.617859589
 20
144.758512501
 11
253.690341544
 21
86.779778446
  0
POLYLINE
  8
1
 62
4
  6
CONTINUOUS
 66
1
  0
VERTEX
  8
1
 10
255.534566178
 20
88.647620918
  0
VERTEX
  8
1
 10
253.516030059
 20
88.772167842
  0
SEQEND
  8
1
  0
POLYLINE
  8
1
 62
4
  6
CONTINUOUS
 66
1
  0
VERTEX
  8
1
 10
256.504614153
 20
89.033635070
  0
VERTEX
  8
1
 10
253.516030059
 20
88.772167842
  0
VERTEX
  8
1
 10
255.482272732
 20
89.245337737
  0
SEQEND
  8
1
  0
ARC
  8
1
 62
4
  6
CONTINUOUS
 10
247.144927536
 20
161.594202899
 40
73.100203400
 50
270.000000000
 51
275.000000000
  0
POLYLINE
  8
1
 62
4
  6
CONTINUOUS
 66
1
  0
VERTEX
  8
1
 10
245.144927536
 20
88.793999499
  0
VERTEX
  8
1
 10
247.144927536
 20
88.493999499
  0
SEQEND
  8
1
  0
POLYLINE
  8
1
 62
4
  6
CONTINUOUS
 66
1
  0
VERTEX
  8
1
 10
244.144927536
 20
88.493999499
  0
VERTEX
  8
1
 10
247.144927536
 20
88.493999499
  0
VERTEX
  8
1
 10
245.144927536
 20
88.193999499
  0
SEQEND
  8
1
  0
LINE
  8
1
 62
4
  6
CONTINUOUS
 10
247.144927536
 20
144.694202899
 11
247.144927536
 21
86.493999499
  0
ENDBLK
  8
0
  0
BLOCK
  8
0
  2
*D52
 70
65
 10
0.000000000
 20
0.000000000
  3
*D
  0
TEXT
  8
1
 62
4
  6
CONTINUOUS
 72
5
 10
214.056338889
 20
116.695560004
 40
2.800000000
  1
(
 41
1.650001650
 50
355.000000000
 11
215.590478724
 21
116.561340160
  0
TEXT
  8
1
 62
4
  6
CONTINUOUS
 72
5
 10
216.357548642
 20
116.494230239
 40
2.800000000
  1
φ
 41
1.164760695
 50
355.000000000
 11
219.425828312
 21
116.225790551
  0
TEXT
  8
1
 62
4
  6
CONTINUOUS
 72
5
 10
220.959968147
 20
116.091570707
 40
2.800000000
  1
12
 41
1.031247938
 50
355.000000000
 11
224.795317735
 21
115.756021097
  0
TEXT
  8
1
 62
4
  6
CONTINUOUS
 72
5
 10
225.562387652
 20
115.688911176
 40
2.800000000
  1
)
 41
1.650001650
 50
355.000000000
 11
227.096527487
 21
115.554691332
  0
LINE
  8
1
 62
4
  6
CONTINUOUS
 10
240.865594430
 20
112.768523556
 11
240.636419477
 21
110.149041860
  0
POLYLINE
  8
1
 62
4
  6
CONTINUOUS
 66
1
  0
VERTEX
  8
1
 10
238.792194843
 20
112.016884332
  0
VERTEX
  8
1
 10
240.810730963
 20
112.141431257
  0
VERTEX
  8
1
 10
238.844488289
 20
112.614601151
  0
SEQEND
  8
1
  0
LINE
  8
1
 62
4
  6
CONTINUOUS
 10
240.810730963
 20
112.141431257
 11
228.856394585
 21
113.187300168
  0
POLYLINE
  8
1
 62
4
  6
CONTINUOUS
 66
1
  0
VERTEX
  8
1
 10
230.874930704
 20
113.311847093
  0
VERTEX
  8
1
 10
228.856394585
 20
113.187300168
  0
VERTEX
  8
1
 10
230.822637259
 20
112.714130274
  0
SEQEND
  8
1
  0
LINE
  8
1
 62
4
  6
CONTINUOUS
 10
228.905067459
 20
113.743633665
 11
228.682083100
 21
111.194910772
  0
POLYLINE
  8
1
 62
4
  6
CONTINUOUS
 66
1
  0
VERTEX
  8
1
 10
240.810730963
 20
112.141431257
  0
VERTEX
  8
1
 10
211.871771080
 20
114.673262181
  0
SEQEND
  8
1
  0
ENDBLK
  8
0
  0
BLOCK
  8
0
  2
*D53
 70
65
 10
0.000000000
 20
0.000000000
  3
*D
  0
TEXT
  8
1
 62
4
  6
CONTINUOUS
 72
5
 10
264.425799431
 20
91.940071727
 40
2.800000000
  1
8
 41
0.899996850
 50
4.999999995
 11
266.099406523
 21
92.086493374
  0
LINE
  8
1
 62
4
  6
CONTINUOUS
 10
260.614030216
 20
99.431360764
 11
261.659899128
 21
87.477024389
  0
POLYLINE
  8
1
 62
4
  6
CONTINUOUS
 66
1
  0
VERTEX
  8
1
 10
263.504123761
 20
89.344866861
  0
VERTEX
  8
1
 10
261.485587642
 20
89.469413785
  0
SEQEND
  8
1
  0
POLYLINE
  8
1
 62
4
  6
CONTINUOUS
 66
1
  0
VERTEX
  8
1
 10
264.474171737
 20
89.730881013
  0
VERTEX
  8
1
 10
261.485587642
 20
89.469413785
  0
VERTEX
  8
1
 10
263.451830316
 20
89.942583680
  0
SEQEND
  8
1
  0
LINE
  8
1
 62
4
  6
CONTINUOUS
 10
261.485587642
 20
89.469413785
 11
253.516030059
 21
88.772167842
  0
POLYLINE
  8
1
 62
4
  6
CONTINUOUS
 66
1
  0
VERTEX
  8
1
 10
251.497493940
 20
88.896714766
  0
VERTEX
  8
1
 10
253.516030059
 20
88.772167842
  0
SEQEND
  8
1
  0
POLYLINE
  8
1
 62
4
  6
CONTINUOUS
 66
1
  0
VERTEX
  8
1
 10
250.527445964
 20
88.510700614
  0
VERTEX
  8
1
 10
253.516030059
 20
88.772167842
  0
VERTEX
  8
1
 10
251.549787385
 20
88.298997947
  0
SEQEND
  8
1
  0
LINE
  8
1
 62
4
  6
CONTINUOUS
 10
248.617859589
 20
144.758512501
 11
253.690341544
 21
86.779778446
  0
POLYLINE
  8
1
 62
4
  6
CONTINUOUS
 66
1
  0
VERTEX
  8
1
 10
253.516030059
 20
88.772167842
  0
VERTEX
  8
1
 10
268.267238261
 20
90.062731335
  0
SEQEND
  8
1
  0
ENDBLK
  8
0
  0
BLOCK
  8
0
  2
*D54
 70
65
 10
0.000000000
 20
0.000000000
  3
*D
  0
TEXT
  8
1
 62
4
  6
CONTINUOUS
 72
5
 10
205.064907178
 20
130.444297120
 40
2.800000000
  1
(
 41
1.800001800
 50
85.000000006
 11
205.211328825
 21
132.117904212
  0
TEXT
  8
1
 62
4
  6
CONTINUOUS
 72
5
 10
205.284539649
 20
132.954707759
 40
2.800000000
  1
60
 41
1.000000667
 50
85.000000006
 11
205.650593768
 21
137.138725491
  0
TEXT
  8
1
 62
4
  6
CONTINUOUS
 72
5
 10
205.723804592
 20
137.975529037
 40
2.800000000
  1
)
 41
1.800001800
 50
85.000000006
 11
205.870226240
 21
139.649136130
  0
LINE
  8
1
 62
4
  6
CONTINUOUS
 10
227.953642173
 20
102.868792884
 11
203.048774727
 21
105.047686453
  0
POLYLINE
  8
1
 62
4
  6
CONTINUOUS
 66
1
  0
VERTEX
  8
1
 10
204.916617200
 20
106.891911086
  0
VERTEX
  8
1
 10
205.041164124
 20
104.873374967
  0
VERTEX
  8
1
 10
205.514334018
 20
106.839617640
  0
SEQEND
  8
1
  0
LINE
  8
1
 62
4
  6
CONTINUOUS
 10
205.041164124
 20
104.873374967
 11
210.285723707
 21
164.818965376
  0
POLYLINE
  8
1
 62
4
  6
CONTINUOUS
 66
1
  0
VERTEX
  8
1
 10
210.410270631
 20
162.800429257
  0
VERTEX
  8
1
 10
210.285723707
 20
164.818965376
  0
VERTEX
  8
1
 10
209.812553812
 20
162.852722703
  0
SEQEND
  8
1
  0
LINE
  8
1
 62
4
  6
CONTINUOUS
 10
247.144927536
 20
161.594202899
 11
208.293334310
 21
164.993276862
  0
ENDBLK
  8
0
  0
BLOCK
  8
0
  2
*D63
 70
65
 10
0.000000000
 20
0.000000000
  3
*D
  0
TEXT
  8
1
 62
4
  6
CONTINUOUS
 72
5
 10
288.461430053
 20
139.171345919
 40
2.800000000
  1
(
 41
1.800001800
 50
275.000000005
 11
288.607851701
 21
137.497738827
  0
TEXT
  8
1
 62
4
  6
CONTINUOUS
 72
5
 10
288.681062525
 20
136.660935280
 40
2.800000000
  1
61
 41
1.125000281
 50
275.000000005
 11
289.047116645
 21
132.476917548
  0
TEXT
  8
1
 62
4
  6
CONTINUOUS
 72
5
 10
289.120327469
 20
131.640114002
 40
2.800000000
  1
)
 41
1.800001800
 50
275.000000005
 11
289.266749117
 21
129.966506909
  0
LINE
  8
1
 62
4
  6
CONTINUOUS
 10
247.144927536
 20
161.594202899
 11
285.996520762
 21
164.993276869
  0
POLYLINE
  8
1
 62
4
  6
CONTINUOUS
 66
1
  0
VERTEX
  8
1
 10
284.477301260
 20
162.852722710
  0
VERTEX
  8
1
 10
284.004131365
 20
164.818965383
  0
VERTEX
  8
1
 10
283.879584442
 20
162.800429264
  0
SEQEND
  8
1
  0
LINE
  8
1
 62
4
  6
CONTINUOUS
 10
284.004131365
 20
164.818965383
 11
289.329364981
 21
103.951266699
  0
POLYLINE
  8
1
 62
4
  6
CONTINUOUS
 66
1
  0
VERTEX
  8
1
 10
288.856195085
 20
105.917509372
  0
VERTEX
  8
1
 10
289.329364981
 20
103.951266699
  0
VERTEX
  8
1
 10
289.453911904
 20
105.969802818
  0
SEQEND
  8
1
  0
LINE
  8
1
 62
4
  6
CONTINUOUS
 10
266.416886920
 20
101.946684617
 11
291.321754377
 21
104.125578184
  0
ENDBLK
  8
0
  0
BLOCK
  8
0
  2
*D68
 70
65
 10
0.000000000
 20
0.000000000
  3
*D
  0
TEXT
  8
1
 62
4
  6
CONTINUOUS
 72
5
 10
122.263327536
 20
202.799202899
 40
2.800000000
  1
(
 41
1.800001800
 11
123.943327536
 21
202.799202899
  0
TEXT
  8
1
 62
4
  6
CONTINUOUS
 72
5
 10
124.783327536
 20
202.799202899
 40
2.800000000
  1
88.5
 41
1.099999267
 11
134.023327536
 21
202.799202899
  0
TEXT
  8
1
 62
4
  6
CONTINUOUS
 72
5
 10
134.863327536
 20
202.799202899
 40
2.800000000
  1
)
 41
1.800001800
 11
136.543327536
 21
202.799202899
  0
LINE
  8
1
 62
4
  6
CONTINUOUS
 10
85.144927536
 20
176.494202899
 11
85.144927536
 21
202.594202899
  0
POLYLINE
  8
1
 62
4
  6
CONTINUOUS
 66
1
  0
VERTEX
  8
1
 10
87.144927536
 20
200.894202899
  0
VERTEX
  8
1
 10
85.144927536
 20
200.594202899
  0
VERTEX
  8
1
 10
87.144927536
 20
200.294202899
  0
SEQEND
  8
1
  0
LINE
  8
1
 62
4
  6
CONTINUOUS
 10
85.144927536
 20
200.594202899
 11
173.644927536
 21
200.594202899
  0
POLYLINE
  8
1
 62
4
  6
CONTINUOUS
 66
1
  0
VERTEX
  8
1
 10
171.644927536
 20
200.294202899
  0
VERTEX
  8
1
 10
173.644927536
 20
200.594202899
  0
VERTEX
  8
1
 10
171.644927536
 20
200.894202899
  0
SEQEND
  8
1
  0
LINE
  8
1
 62
4
  6
CONTINUOUS
 10
173.644927536
 20
175.994202899
 11
173.644927536
 21
202.594202899
  0
ENDBLK
  8
0
  0
BLOCK
  8
0
  2
*D75
 70
65
 10
0.000000000
 20
0.000000000
  3
*D
  0
TEXT
  8
1
 62
4
  6
CONTINUOUS
 72
5
 10
160.105408350
 20
194.799202899
 40
2.800000000
  1
(
 41
1.650001650
 11
161.645408350
 21
194.799202899
  0
TEXT
  8
1
 62
4
  6
CONTINUOUS
 72
5
 10
162.415408350
 20
194.799202899
 40
2.800000000
  1
13.5
 41
1.134374007
 11
170.885408350
 21
194.799202899
  0
TEXT
  8
1
 62
4
  6
CONTINUOUS
 72
5
 10
171.655408350
 20
194.799202899
 40
2.800000000
  1
)
 41
1.650001650
 11
173.195408350
 21
194.799202899
  0
POLYLINE
  8
1
 62
4
  6
CONTINUOUS
 66
1
  0
VERTEX
  8
1
 10
162.144927536
 20
192.894202899
  0
VERTEX
  8
1
 10
160.144927536
 20
192.594202899
  0
VERTEX
  8
1
 10
162.144927536
 20
192.294202899
  0
SEQEND
  8
1
  0
LINE
  8
1
 62
4
  6
CONTINUOUS
 10
160.144927536
 20
192.594202899
 11
173.644927536
 21
192.594202899
  0
POLYLINE
  8
1
 62
4
  6
CONTINUOUS
 66
1
  0
VERTEX
  8
1
 10
171.644927536
 20
192.294202899
  0
VERTEX
  8
1
 10
173.644927536
 20
192.594202899
  0
VERTEX
  8
1
 10
171.644927536
 20
192.894202899
  0
SEQEND
  8
1
  0
LINE
  8
1
 62
4
  6
CONTINUOUS
 10
173.644927536
 20
175.994202899
 11
173.644927536
 21
194.594202899
  0
ENDBLK
  8
0
  0
BLOCK
  8
0
  2
*D78
 70
65
 10
0.000000000
 20
0.000000000
  3
*D
  0
TEXT
  8
1
 62
4
  6
CONTINUOUS
 72
5
 10
70.939927536
 20
153.631002899
 40
2.800000000
  1
φ
 41
1.270648030
 50
90.000000000
 11
70.939927536
 21
156.991002899
  0
TEXT
  8
1
 62
4
  6
CONTINUOUS
 72
5
 10
70.939927536
 20
158.671002899
 40
2.800000000
  1
30
 41
1.000000667
 50
90.000000000
 11
70.939927536
 21
162.871002899
  0
TEXT
  8
1
 62
4
  6
CONTINUOUS
 72
5
 10
69.175927536
 20
163.711002899
 40
1.400000000
  1
-0.02
 41
1.554544889
 50
90.000000000
 11
69.175927536
 21
171.691002899
  0
TEXT
  8
1
 62
4
  6
CONTINUOUS
 72
5
 10
71.317927536
 20
163.711002899
 40
1.400000000
  1
-0.03
 41
1.554544889
 50
90.000000000
 11
71.317927536
 21
171.691002899
  0
LINE
  8
1
 62
4
  6
CONTINUOUS
 10
85.244927536
 20
176.594202899
 11
71.144927536
 21
176.594202899
  0
POLYLINE
  8
1
 62
4
  6
CONTINUOUS
 66
1
  0
VERTEX
  8
1
 10
73.444927536
 20
174.594202899
  0
VERTEX
  8
1
 10
73.144927536
 20
176.594202899
  0
VERTEX
  8
1
 10
72.844927536
 20
174.594202899
  0
SEQEND
  8
1
  0
LINE
  8
1
 62
4
  6
CONTINUOUS
 10
73.144927536
 20
176.594202899
 11
73.144927536
 21
146.594202899
  0
POLYLINE
  8
1
 62
4
  6
CONTINUOUS
 66
1
  0
VERTEX
  8
1
 10
72.844927536
 20
148.594202899
  0
VERTEX
  8
1
 10
73.144927536
 20
146.594202899
  0
VERTEX
  8
1
 10
73.444927536
 20
148.594202899
  0
SEQEND
  8
1
  0
LINE
  8
1
 62
4
  6
CONTINUOUS
 10
85.244927536
 20
146.594202899
 11
71.144927536
 21
146.594202899
  0
ENDBLK
  8
0
  0
BLOCK
  8
0
  2
*D80
 70
65
 10
0.000000000
 20
0.000000000
  3
*D
  0
TEXT
  8
1
 62
4
  6
CONTINUOUS
 72
5
 10
120.553327536
 20
194.799202899
 40
2.800000000
  1
75
 41
0.899998740
 11
124.753327536
 21
194.799202899
  0
LINE
  8
1
 62
4
  6
CONTINUOUS
 10
85.144927536
 20
176.494202899
 11
85.144927536
 21
194.594202899
  0
POLYLINE
  8
1
 62
4
  6
CONTINUOUS
 66
1
  0
VERTEX
  8
1
 10
87.144927536
 20
192.894202899
  0
VERTEX
  8
1
 10
85.144927536
 20
192.594202899
  0
VERTEX
  8
1
 10
87.144927536
 20
192.294202899
  0
SEQEND
  8
1
  0
LINE
  8
1
 62
4
  6
CONTINUOUS
 10
85.144927536
 20
192.594202899
 11
160.144927536
 21
192.594202899
  0
POLYLINE
  8
1
 62
4
  6
CONTINUOUS
 66
1
  0
VERTEX
  8
1
 10
158.144927536
 20
192.294202899
  0
VERTEX
  8
1
 10
160.144927536
 20
192.594202899
  0
VERTEX
  8
1
 10
158.144927536
 20
192.894202899
  0
SEQEND
  8
1
  0
LINE
  8
1
 62
4
  6
CONTINUOUS
 10
160.144927536
 20
176.494202899
 11
160.144927536
 21
194.594202899
  0
ENDBLK
  8
0
  0
BLOCK
  8
0
  2
*D92
 70
65
 10
0.000000000
 20
0.000000000
  3
*D
  0
TEXT
  8
1
 62
4
  6
CONTINUOUS
 72
5
 10
270.065417353
 20
116.524406479
 40
2.800000000
  1
(
 41
1.650001650
 50
4.999999995
 11
271.599557188
 21
116.658626322
  0
TEXT
  8
1
 62
4
  6
CONTINUOUS
 72
5
 10
272.366627105
 20
116.725736244
 40
2.800000000
  1
φ
 41
1.164760695
 50
4.999999995
 11
275.434906776
 21
116.994175932
  0
TEXT
  8
1
 62
4
  6
CONTINUOUS
 72
5
 10
276.969046611
 20
117.128395775
 40
2.800000000
  1
14
 41
1.031247938
 50
4.999999995
 11
280.804396198
 21
117.463945385
  0
TEXT
  8
1
 62
4
  6
CONTINUOUS
 72
5
 10
281.571466116
 20
117.531055306
 40
2.800000000
  1
)
 41
1.650001650
 50
4.999999995
 11
283.105605951
 21
117.665275150
  0
LINE
  8
1
 62
4
  6
CONTINUOUS
 10
252.577097617
 20
110.977928020
 11
252.246240042
 21
114.759647406
  0
POLYLINE
  8
1
 62
4
  6
CONTINUOUS
 66
1
  0
VERTEX
  8
1
 10
254.386794201
 20
113.240427904
  0
VERTEX
  8
1
 10
252.420551528
 20
112.767258009
  0
VERTEX
  8
1
 10
254.439087647
 20
112.642711086
  0
SEQEND
  8
1
  0
LINE
  8
1
 62
4
  6
CONTINUOUS
 10
252.420551528
 20
112.767258009
 11
266.367277301
 21
113.987438409
  0
POLYLINE
  8
1
 62
4
  6
CONTINUOUS
 66
1
  0
VERTEX
  8
1
 10
264.401034628
 20
113.514268514
  0
VERTEX
  8
1
 10
266.367277301
 20
113.987438409
  0
VERTEX
  8
1
 10
264.348741182
 20
114.111985333
  0
SEQEND
  8
1
  0
LINE
  8
1
 62
4
  6
CONTINUOUS
 10
266.545256955
 20
111.953121652
 11
266.192965816
 21
115.979827805
  0
POLYLINE
  8
1
 62
4
  6
CONTINUOUS
 66
1
  0
VERTEX
  8
1
 10
266.367277301
 20
113.987438409
  0
VERTEX
  8
1
 10
285.274832361
 20
115.641635126
  0
SEQEND
  8
1
  0
ENDBLK
  8
0
  0
BLOCK
  8
0
  2
*D159
 70
65
 10
0.000000000
 20
0.000000000
  3
*D
  0
TEXT
  8
1
 62
4
  6
CONTINUOUS
 72
5
 10
183.439927536
 20
154.462602899
 40
2.800000000
  1
φ
 41
1.270648030
 50
90.000000000
 11
183.439927536
 21
157.822602899
  0
TEXT
  8
1
 62
4
  6
CONTINUOUS
 72
5
 10
183.439927536
 20
159.502602899
 40
2.800000000
  1
29.8
 41
1.099999267
 50
90.000000000
 11
183.439927536
 21
168.742602899
  0
LINE
  8
1
 62
4
  6
CONTINUOUS
 10
173.144927536
 20
146.694202899
 11
187.644927536
 21
146.694202899
  0
POLYLINE
  8
1
 62
4
  6
CONTINUOUS
 66
1
  0
VERTEX
  8
1
 10
185.344927536
 20
148.694202899
  0
VERTEX
  8
1
 10
185.644927536
 20
146.694202899
  0
VERTEX
  8
1
 10
185.944927536
 20
148.694202899
  0
SEQEND
  8
1
  0
LINE
  8
1
 62
4
  6
CONTINUOUS
 10
185.644927536
 20
146.694202899
 11
185.644927536
 21
176.494202899
  0
POLYLINE
  8
1
 62
4
  6
CONTINUOUS
 66
1
  0
VERTEX
  8
1
 10
185.944927536
 20
174.494202899
  0
VERTEX
  8
1
 10
185.644927536
 20
176.494202899
  0
VERTEX
  8
1
 10
185.344927536
 20
174.494202899
  0
SEQEND
  8
1
  0
LINE
  8
1
 62
4
  6
CONTINUOUS
 10
173.144927536
 20
176.494202899
 11
187.644927536
 21
176.494202899
  0
ENDBLK
  8
0
  0
ENDSEC
  0
SECTION
  2
ENTITIES
  0
LINE
  8
1
 62
7
  6
CONTINUOUS
 10
251.911035469
 20
118.591053207
 11
253.161310746
 21
104.300341405
  0
ARC
  8
1
 62
7
  6
CONTINUOUS
 10
264.315454111
 20
128.834599853
 40
2.031250000
 50
95.000000000
 51
154.489762594
  0
LINE
  8
1
 62
7
  6
CONTINUOUS
 10
254.314366472
 20
119.805137262
 11
253.516481747
 21
128.925001401
  0
LINE
  8
1
 62
1
  6
CENTER
 10
167.144927536
 20
155.223515939
 11
167.144927536
 21
100.345858428
  0
LINE
  8
1
 62
4
  6
CONTINUOUS
 10
97.144927536
 20
168.132551314
 11
100.544927536
 21
155.055854483
  0
LINE
  8
1
 62
4
  6
CONTINUOUS
 10
100.544927536
 20
168.132551314
 11
97.144927536
 21
155.055854483
  0
LINE
  8
1
 62
7
  6
CONTINUOUS
 10
85.244927536
 20
176.594202899
 11
85.144927536
 21
176.494202899
  0
LINE
  8
1
 62
7
  6
CONTINUOUS
 10
85.144927536
 20
146.694202899
 11
85.244927536
 21
146.594202899
  0
LINE
  8
1
 62
7
  6
CONTINUOUS
 10
85.144927536
 20
176.494202899
 11
85.144927536
 21
146.694202899
  0
LINE
  8
1
 62
7
  6
CONTINUOUS
 10
160.144927536
 20
146.694202899
 11
160.144927536
 21
161.594202899
  0
LINE
  8
1
 62
7
  6
CONTINUOUS
 10
254.462550543
 20
100.900815704
 11
254.375394801
 21
101.897010402
  0
LINE
  8
1
 62
7
  6
CONTINUOUS
 10
160.144927536
 20
176.494202899
 11
160.144927536
 21
161.594202899
  0
LINE
  8
1
 62
7
  6
CONTINUOUS
 10
160.044927536
 20
176.594202899
 11
160.144927536
 21
176.494202899
  0
LINE
  8
1
 62
1
  6
CENTER
 10
83.144927536
 20
161.594202899
 11
175.644927536
 21
161.594202899
  0
LINE
  8
1
 62
7
  6
CONTINUOUS
 10
266.329731178
 20
102.942879315
 11
266.416886920
 21
101.946684617
  0
LINE
  8
1
 62
7
  6
CONTINUOUS
 10
160.044927536
 20
176.594202899
 11
85.244927536
 21
176.594202899
  0
LINE
  8
1
 62
7
  6
CONTINUOUS
 10
160.044927536
 20
146.594202899
 11
85.244927536
 21
146.594202899
  0
ARC
  8
1
 62
7
  6
CONTINUOUS
 10
76.296216230
 20
161.594202899
 40
25.114736710
 50
344.909814821
 51
15.090185179
  0
ARC
  8
1
 62
7
  6
CONTINUOUS
 10
121.393638842
 20
161.594202899
 40
25.114736710
 50
164.909814821
 51
195.090185179
  0
LINE
  8
3
 62
7
  6
CONTINUOUS
 10
160.344927536
 20
176.394202899
 11
160.444927536
 21
176.494202899
  0
LINE
  8
1
 62
4
  6
CONTINUOUS
 10
165.744927536
 20
167.899756007
 11
169.144927536
 21
155.288649790
  0
LINE
  8
1
 62
7
  6
CONTINUOUS
 10
97.144927536
 20
168.132551314
 11
100.544927536
 21
168.132551314
  0
LINE
  8
1
 62
7
  6
CONTINUOUS
 10
97.144927536
 20
155.055854483
 11
100.544927536
 21
155.055854483
  0
LINE
  8
1
 62
7
  6
CONTINUOUS
 10
97.144927536
 20
168.132551314
 11
97.144927536
 21
155.055854483
  0
LINE
  8
1
 62
7
  6
CONTINUOUS
 10
100.544927536
 20
168.132551314
 11
100.544927536
 21
155.055854483
  0
LINE
  8
3
 62
7
  6
CONTINUOUS
 10
173.144927536
 20
176.494202899
 11
173.644927536
 21
175.994202899
  0
LINE
  8
1
 62
7
  6
CONTINUOUS
 10
251.685985282
 20
129.768673549
 11
250.029800303
 21
128.619956301
  0
LINE
  8
3
 62
7
  6
CONTINUOUS
 10
160.444927536
 20
176.494202899
 11
173.144927536
 21
176.494202899
  0
LINE
  8
1
 62
7
  6
CONTINUOUS
 10
266.416886920
 20
101.946684617
 11
254.462550543
 21
100.900815704
  0
LINE
  8
1
 62
7
  6
CONTINUOUS
 10
264.138419008
 20
130.858120334
 11
265.968915473
 21
130.014448185
  0
LINE
  8
1
 62
7
  6
CONTINUOUS
 10
250.029800303
 20
128.619956301
 11
250.814201988
 21
119.654204019
  0
LINE
  8
1
 62
7
  6
CONTINUOUS
 10
255.695375362
 20
104.020133412
 11
255.869686848
 21
102.027744016
  0
LINE
  8
1
 62
7
  6
CONTINUOUS
 10
160.044927536
 20
146.594202899
 11
160.144927536
 21
146.694202899
  0
LINE
  8
1
 62
7
  6
CONTINUOUS
 10
254.375394801
 20
101.897010402
 11
266.329731178
 21
102.942879315
  0
LINE
  8
1
 62
7
  6
CONTINUOUS
 10
266.751242280
 20
121.072411864
 11
265.857681685
 21
119.811226645
  0
LINE
  8
1
 62
7
  6
CONTINUOUS
 10
250.814201988
 20
119.654204019
 11
251.911035469
 21
118.591053207
  0
ARC
  8
1
 62
7
  6
CONTINUOUS
 10
264.843108014
 20
121.579832721
 40
1.850301917
 50
212.357922712
 51
324.682099538
  0
LINE
  8
1
 62
7
  6
CONTINUOUS
 10
263.280118755
 20
120.589538947
 11
262.482234029
 21
129.709403086
  0
LINE
  8
1
 62
7
  6
CONTINUOUS
 10
264.138419008
 20
130.858120334
 11
251.685985282
 21
129.768673549
  0
LINE
  8
1
 62
7
  6
CONTINUOUS
 10
265.968915473
 20
130.014448185
 11
266.751242280
 21
121.072411864
  0
LINE
  8
1
 62
7
  6
CONTINUOUS
 10
229.709401449
 20
105.726643365
 11
229.535089963
 21
103.734253968
  0
LINE
  8
3
 62
7
  6
CONTINUOUS
 10
160.344927536
 20
146.794202899
 11
160.344927536
 21
176.394202899
  0
LINE
  8
1
 62
7
  6
CONTINUOUS
 10
171.394927536
 20
138.450228395
 11
171.394927536
 21
133.450228395
  0
ARC
  8
1
 62
7
  6
CONTINUOUS
 10
159.444927536
 20
174.494202899
 40
0.900000000
 50
0.000000000
 51
38.942441269
  0
LINE
  8
1
 62
7
  6
CONTINUOUS
 10
162.894927536
 20
138.450228395
 11
162.894927536
 21
133.450228395
  0
ARC
  8
1
 62
7
  6
CONTINUOUS
 10
159.444927536
 20
148.694202899
 40
0.900000000
 50
321.057558731
 51
0.000000000
  0
LINE
  8
1
 62
1
  6
CENTER
 10
245.671995484
 20
144.758512501
 11
247.144927536
 21
161.594202899
  0
LINE
  8
1
 62
1
  6
CENTER
 10
248.617859589
 20
144.758512501
 11
247.144927536
 21
161.594202899
  0
DIMENSION
  8
1
 62
4
  6
CONTINUOUS
  2
*D49
 70
0
 10
232.804267430
 20
89.469413783
 11
228.475169254
 21
89.848160796
 14
233.756498877
 24
100.353469032
 13
245.671995484
 23
144.758512501
 50
355.000000006
  0
DIMENSION
  8
1
 62
4
  6
CONTINUOUS
  2
*D50
 70
5
 10
240.773825014
 20
88.772167842
 11
243.956341448
 21
88.563574695
 13
245.671995484
 23
144.758512501
 14
247.144927536
 24
144.694202899
 15
247.144927536
 25
161.594202899
  0
DIMENSION
  8
1
 62
4
  6
CONTINUOUS
  2
*D51
 70
5
 10
247.144927536
 20
88.493999499
 11
250.333513625
 21
88.563574695
 13
247.144927536
 23
144.694202899
 14
248.617859589
 24
144.758512501
 15
247.144927536
 25
161.594202899
  0
DIMENSION
  8
1
 62
4
  6
CONTINUOUS
  2
*D52
 70
0
 10
228.856394585
 20
113.187300168
 11
220.376584076
 21
113.929187458
 14
228.905067459
 24
113.743633665
 13
240.865594430
 23
112.768523556
 50
355.000000005
  0
DIMENSION
  8
1
 62
4
  6
CONTINUOUS
  2
*D53
 70
0
 10
253.516030063
 20
88.772167843
 11
265.446413354
 21
89.815941133
 14
248.617859589
 24
144.758512501
 13
260.614030216
 23
99.431360764
 50
5.000000005
  0
DIMENSION
  8
1
 62
4
  6
CONTINUOUS
  2
*D54
 70
0
 10
210.285723707
 20
164.818965376
 11
207.663443910
 21
134.846170177
 14
247.144927536
 24
161.594202899
 13
227.953642173
 23
102.868792884
 50
265.000000006
  0
LINE
  8
1
 62
1
  6
CENTER
 10
233.756498877
 20
100.353469032
 11
238.293372782
 21
152.210175062
  0
LINE
  8
1
 62
1
  6
CENTER
 10
260.614030216
 20
99.431360764
 11
255.996482290
 21
152.210175062
  0
ARC
  8
1
 62
7
  6
CONTINUOUS
 10
144.953951257
 20
161.594202899
 40
24.999266656
 50
345.390516808
 51
14.609483192
  0
ARC
  8
1
 62
7
  6
CONTINUOUS
 10
189.935903815
 20
161.594202899
 40
24.999266656
 50
165.390516808
 51
194.609483192
  0
LINE
  8
1
 62
7
  6
CONTINUOUS
 10
169.144927536
 20
167.899756007
 11
169.144927536
 21
155.288649790
  0
LINE
  8
1
 62
7
  6
CONTINUOUS
 10
165.744927536
 20
167.899756007
 11
165.744927536
 21
155.288649790
  0
LINE
  8
1
 62
7
  6
CONTINUOUS
 10
165.744927536
 20
155.288649790
 11
169.144927536
 21
155.288649790
  0
LINE
  8
1
 62
7
  6
CONTINUOUS
 10
165.744927536
 20
167.899756007
 11
169.144927536
 21
167.899756007
  0
DIMENSION
  8
1
 62
4
  6
CONTINUOUS
  2
*D63
 70
0
 10
289.329364980
 20
103.951266703
 11
286.666748167
 21
134.385116037
 14
266.416886920
 24
101.946684617
 13
247.144927536
 23
161.594202899
 50
95.000000005
  0
LINE
  8
1
 62
1
  6
DASHED
 10
233.644927536
 20
155.288649790
 11
233.644927536
 21
167.899756007
  0
CIRCLE
  8
1
 62
7
  6
CONTINUOUS
 10
247.144927536
 20
161.594202899
 40
14.900000000
  0
LINE
  8
1
 62
1
  6
DASHED
 10
260.644927536
 20
167.899756007
 11
260.644927536
 21
155.288649790
  0
LINE
  8
1
 62
7
  6
CONTINUOUS
 10
242.553810151
 20
129.196489233
 11
230.101376425
 21
130.285936018
  0
DIMENSION
  8
1
 62
4
  6
CONTINUOUS
  2
*D68
 70
0
 10
173.644927536
 20
200.594202899
 11
129.394927536
 21
200.594202899
 14
173.644927536
 24
175.994202899
 13
85.144927536
 23
176.494202899
 50
0.000000000
  0
LINE
  8
3
 62
7
  6
CONTINUOUS
 10
160.444927536
 20
146.694202899
 11
163.594927536
 21
146.694202899
  0
LINE
  8
3
 62
7
  6
CONTINUOUS
 10
173.144927536
 20
146.694202899
 11
173.644927536
 21
147.194202899
  0
LINE
  8
3
 62
7
  6
CONTINUOUS
 10
160.344927536
 20
146.794202899
 11
160.444927536
 21
146.694202899
  0
LINE
  8
3
 62
7
  6
CONTINUOUS
 10
173.644927536
 20
175.994202899
 11
173.644927536
 21
147.194202899
  0
LINE
  8
1
 62
7
  6
CONTINUOUS
 10
228.040797916
 20
103.864987582
 11
239.995134293
 21
102.819118670
  0
LINE
  8
1
 62
1
  6
CENTER
 10
230.244927536
 20
161.594202899
 11
264.044927536
 21
161.594202899
  0
DIMENSION
  8
1
 62
4
  6
CONTINUOUS
  2
*D75
 70
0
 10
173.644927536
 20
192.594202899
 11
166.642708350
 21
192.594202899
 14
173.644927536
 24
175.994202899
 13
160.144927536
 23
176.494202899
 50
0.000000000
  0
LINE
  8
1
 62
1
  6
CENTER
 10
247.144927536
 20
178.494202899
 11
247.144927536
 21
144.694202899
  0
LINE
  8
1
 62
4
  6
CONTINUOUS
 10
169.144927536
 20
167.899756007
 11
165.744927536
 21
155.288649790
  0
DIMENSION
  8
1
 62
4
  6
CONTINUOUS
  2
*D78
 70
1
 10
73.144927536
 20
146.594202899
 11
73.144927536
 21
161.594202899
 14
85.244927536
 24
146.594202899
 13
85.244927536
 23
176.594202899
 50
90.000000000
  0
TEXT
  8
1
 62
3
  6
CONTINUOUS
 72
5
 10
104.844927536
 20
99.439750160
 40
4.000000000
  1
ＡＭ－３０２０ＬＡ
 41
0.834566215
 11
140.044927536
 21
99.439750160
  0
DIMENSION
  8
1
 62
4
  6
CONTINUOUS
  2
*D80
 70
1
 10
160.144927536
 20
192.594202899
 11
122.644927536
 21
192.594202899
 14
160.144927536
 24
176.494202899
 13
85.144927536
 23
176.494202899
 50
0.000000000
  0
LINE
  8
1
 62
7
  6
CONTINUOUS
 10
253.702985966
 20
103.845821927
 11
266.653517041
 21
104.978846583
  0
LINE
  8
1
 62
7
  6
CONTINUOUS
 10
265.857041403
 20
119.819461408
 11
267.108036519
 21
105.520521803
  0
ARC
  8
1
 62
7
  6
CONTINUOUS
 10
257.958368589
 20
129.785712074
 40
10.625000000
 50
249.942384582
 51
300.057615418
  0
ARC
  8
1
 62
7
  6
CONTINUOUS
 10
251.863020385
 20
127.745153069
 40
2.031250000
 50
35.510237406
 51
95.000000000
  0
LINE
  8
1
 62
7
  6
CONTINUOUS
 10
251.911035469
 20
118.591053207
 11
265.857681685
 21
119.811226645
  0
ARC
  8
1
 62
7
  6
CONTINUOUS
 10
252.595785490
 20
120.519025597
 40
1.860955976
 50
225.893394649
 51
337.442291768
  0
ARC
  8
1
 62
7
  6
CONTINUOUS
 10
258.838231912
 20
119.728828274
 40
10.625000000
 50
69.942384582
 51
120.057615418
  0
LINE
  8
1
 62
7
  6
CONTINUOUS
 10
264.835439131
 20
102.812145701
 11
264.661127645
 21
104.804535097
  0
LINE
  8
1
 62
7
  6
CONTINUOUS
 10
267.108036519
 20
105.520521803
 11
266.653517041
 21
104.978846583
  0
LINE
  8
1
 62
7
  6
CONTINUOUS
 10
253.702985966
 20
103.845821927
 11
253.161310746
 21
104.300341405
  0
LINE
  8
1
 62
7
  6
CONTINUOUS
 10
253.161310746
 20
104.300341405
 11
267.108036519
 21
105.520521803
  0
DIMENSION
  8
1
 62
4
  6
CONTINUOUS
  2
*D92
 70
0
 10
266.367277301
 20
113.987438409
 11
276.770019365
 21
114.897560406
 14
266.545256955
 24
111.953121652
 13
252.577097617
 23
110.977928020
 50
185.000000005
  0
LINE
  8
1
 62
7
  6
CONTINUOUS
 10
259.648761154
 20
153.490861313
 11
260.904493778
 21
139.137771752
  0
LINE
  8
1
 62
7
  6
CONTINUOUS
 10
252.934936193
 20
138.440525810
 11
261.402591127
 21
139.181349623
  0
LINE
  8
1
 62
7
  6
CONTINUOUS
 10
261.402591127
 20
139.181349623
 11
261.838369840
 21
134.200376133
  0
LINE
  8
1
 62
7
  6
CONTINUOUS
 10
252.934936193
 20
138.440525810
 11
253.370714907
 21
133.459552319
  0
LINE
  8
1
 62
7
  6
CONTINUOUS
 10
259.161153056
 20
138.985249202
 11
259.596931770
 21
134.004275711
  0
LINE
  8
1
 62
7
  6
CONTINUOUS
 10
252.623427812
 20
147.737939523
 11
253.433033542
 21
138.484103681
  0
LINE
  8
1
 62
1
  6
CONTINUOUS
 10
262.178166431
 20
130.686620456
 11
261.988772839
 21
134.074173032
  0
LINE
  8
1
 62
1
  6
CONTINUOUS
 10
253.646237860
 20
129.940173428
 11
253.244511806
 21
133.309149321
  0
LINE
  8
1
 62
7
  6
CONTINUOUS
 10
261.838369840
 20
134.200376133
 11
262.521092212
 21
133.627504042
  0
LINE
  8
1
 62
7
  6
CONTINUOUS
 10
252.797842816
 20
132.776829947
 11
253.370714907
 21
133.459552319
  0
LINE
  8
2
 62
7
  6
CONTINUOUS
 10
262.521092212
 20
133.627504042
 11
252.797842816
 21
132.776829947
  0
LINE
  8
1
 62
7
  6
CONTINUOUS
 10
255.176374264
 20
138.636626231
 11
255.612152977
 21
133.655652740
  0
LINE
  8
2
 62
7
  6
CONTINUOUS
 10
261.838369840
 20
134.200376133
 11
253.370714907
 21
133.459552319
  0
LINE
  8
1
 62
7
  6
CONTINUOUS
 10
262.683043587
 20
130.730791483
 11
262.521092212
 21
133.627504042
  0
LINE
  8
1
 62
7
  6
CONTINUOUS
 10
253.141360704
 20
129.896002400
 11
252.797842816
 21
132.776829947
  0
ARC
  8
1
 62
7
  6
CONTINUOUS
 10
241.758649043
 20
120.107756179
 40
2.031250000
 50
205.510237406
 51
258.548174178
  0
LINE
  8
1
 62
7
  6
CONTINUOUS
 10
227.486478275
 20
120.476511586
 11
229.378228888
 21
119.151893547
  0
LINE
  8
1
 62
7
  6
CONTINUOUS
 10
243.427668323
 20
119.105735664
 11
241.332485708
 21
118.106031594
  0
ARC
  8
1
 62
7
  6
CONTINUOUS
 10
229.924341322
 20
128.262415537
 40
2.031250000
 50
25.510237406
 51
85.000000000
  0
LINE
  8
1
 62
7
  6
CONTINUOUS
 10
163.594927536
 20
146.694202899
 11
163.594927536
 21
153.223515939
  0
LINE
  8
1
 62
7
  6
CONTINUOUS
 10
163.594927536
 20
153.223515939
 11
170.694927536
 21
153.223515939
  0
LINE
  8
1
 62
7
  6
CONTINUOUS
 10
170.694927536
 20
153.223515939
 11
170.694927536
 21
146.694202899
  0
LINE
  8
3
 62
7
  6
CONTINUOUS
 10
170.694927536
 20
146.694202899
 11
173.144927536
 21
146.694202899
  0
LINE
  8
1
 62
7
  6
CONTINUOUS
 10
239.907978551
 20
101.822923971
 11
227.953642173
 21
102.868792884
  0
LINE
  8
1
 62
7
  6
CONTINUOUS
 10
230.959676678
 20
120.017354631
 11
231.757561403
 21
129.137218770
  0
LINE
  8
1
 62
7
  6
CONTINUOUS
 10
239.995134293
 20
102.819118670
 11
239.907978551
 21
101.822923971
  0
LINE
  8
1
 62
7
  6
CONTINUOUS
 10
227.953642173
 20
102.868792884
 11
228.040797916
 21
103.864987582
  0
LINE
  8
1
 62
7
  6
CONTINUOUS
 10
229.378228888
 20
119.151893547
 11
228.258687273
 21
106.355474328
  0
LINE
  8
1
 62
7
  6
CONTINUOUS
 10
228.713206751
 20
105.813799107
 11
239.671348430
 21
104.855085937
  0
LINE
  8
1
 62
7
  6
CONTINUOUS
 10
241.333285105
 20
118.114252436
 11
240.213023650
 21
105.309605415
  0
LINE
  8
1
 62
7
  6
CONTINUOUS
 10
229.378228888
 20
119.151893547
 11
241.332485708
 21
118.106031594
  0
LINE
  8
1
 62
7
  6
CONTINUOUS
 10
242.553810151
 20
129.196489233
 11
244.209995130
 21
128.047771985
  0
LINE
  8
1
 62
7
  6
CONTINUOUS
 10
230.101376425
 20
130.285936018
 11
228.270879960
 21
129.442263869
  0
LINE
  8
1
 62
7
  6
CONTINUOUS
 10
244.209995130
 20
128.047771985
 11
243.427668323
 21
119.105735664
  0
LINE
  8
1
 62
7
  6
CONTINUOUS
 10
238.500842246
 20
102.949852284
 11
238.675153732
 21
104.942241680
  0
LINE
  8
1
 62
7
  6
CONTINUOUS
 10
240.213023650
 20
105.309605415
 11
239.671348430
 21
104.855085937
  0
LINE
  8
1
 62
7
  6
CONTINUOUS
 10
228.713206751
 20
105.813799107
 11
228.258687273
 21
106.355474328
  0
LINE
  8
1
 62
7
  6
CONTINUOUS
 10
228.258687273
 20
106.355474328
 11
240.213023650
 21
105.309605415
  0
LINE
  8
1
 62
7
  6
CONTINUOUS
 10
239.925428961
 20
119.232952946
 11
240.723313686
 21
128.352817085
  0
LINE
  8
1
 62
7
  6
CONTINUOUS
 10
228.270879960
 20
129.442263869
 11
227.486478275
 21
120.476511586
  0
ARC
  8
1
 62
7
  6
CONTINUOUS
 10
242.376775048
 20
127.172968753
 40
2.031250000
 50
85.000000000
 51
144.489762594
  0
ARC
  8
1
 62
7
  6
CONTINUOUS
 10
236.281426844
 20
129.213527758
 40
10.625000000
 50
239.942384582
 51
290.057615418
  0
ARC
  8
1
 62
7
  6
CONTINUOUS
 10
229.306215316
 20
121.197202963
 40
2.031250000
 50
271.439264429
 51
324.489762594
  0
ARC
  8
1
 62
7
  6
CONTINUOUS
 10
235.401563521
 20
119.156643958
 40
10.625000000
 50
59.942384582
 51
110.057615418
  0
LINE
  8
1
 62
7
  6
CONTINUOUS
 10
231.734095195
 20
133.136883242
 11
232.407907362
 21
133.702278783
  0
LINE
  8
1
 62
7
  6
CONTINUOUS
 10
240.875562296
 20
132.961454970
 11
241.448434386
 21
132.278732598
  0
LINE
  8
1
 62
7
  6
CONTINUOUS
 10
240.875562296
 20
132.961454970
 11
240.606651439
 21
132.984981621
  0
LINE
  8
1
 62
7
  6
CONTINUOUS
 10
239.069902939
 20
138.138528882
 11
238.634124225
 21
133.157555391
  0
LINE
  8
1
 62
7
  6
CONTINUOUS
 10
241.311341010
 20
137.942428460
 11
232.843686076
 21
138.683252274
  0
LINE
  8
1
 62
7
  6
CONTINUOUS
 10
231.559080123
 20
130.158403469
 11
231.725184991
 21
133.129406693
  0
LINE
  8
1
 62
7
  6
CONTINUOUS
 10
241.096106452
 20
129.324021782
 11
241.448434386
 21
132.278732598
  0
LINE
  8
2
 62
7
  6
CONTINUOUS
 10
240.875562296
 20
132.961454970
 11
232.407907362
 21
133.702278783
  0
LINE
  8
1
 62
7
  6
CONTINUOUS
 10
241.448434386
 20
132.278732598
 11
231.725184991
 21
133.129406693
  0
LINE
  8
1
 62
1
  6
CONTINUOUS
 10
232.063957279
 20
130.114232442
 11
232.257504364
 21
133.576075683
  0
LINE
  8
1
 62
1
  6
CONTINUOUS
 10
240.591229296
 20
129.368192809
 11
241.001765396
 21
132.811051972
  0
LINE
  8
1
 62
7
  6
CONTINUOUS
 10
234.862959712
 20
153.158370612
 11
233.590832100
 21
138.617885467
  0
LINE
  8
1
 62
7
  6
CONTINUOUS
 10
232.843686076
 20
138.683252274
 11
232.407907362
 21
133.702278783
  0
LINE
  8
1
 62
7
  6
CONTINUOUS
 10
241.311341010
 20
137.942428460
 11
240.875562296
 21
132.961454970
  0
LINE
  8
1
 62
7
  6
CONTINUOUS
 10
241.424071639
 20
147.836230381
 11
240.564194986
 21
138.007795267
  0
LINE
  8
1
 62
7
  6
CONTINUOUS
 10
235.085124147
 20
138.487151853
 11
234.649345433
 21
133.506178362
  0
LINE
  8
1
 62
7
  6
CONTINUOUS
 10
163.644927536
 20
153.223515939
 11
163.644927536
 21
138.450228395
  0
LINE
  8
1
 62
1
  6
CONTINUOUS
 10
171.424849942
 20
129.845858428
 11
171.533758881
 21
133.311397051
  0
LINE
  8
1
 62
1
  6
CONTINUOUS
 10
162.865005130
 20
129.845858428
 11
162.756096192
 21
133.311397051
  0
LINE
  8
1
 62
7
  6
CONTINUOUS
 10
172.025122851
 20
132.820033081
 11
162.264732222
 21
132.820033081
  0
LINE
  8
1
 62
7
  6
CONTINUOUS
 10
165.144927536
 20
138.450228395
 11
165.144927536
 21
133.450228395
  0
LINE
  8
1
 62
7
  6
CONTINUOUS
 10
170.644927536
 20
153.223515939
 11
170.644927536
 21
138.450228395
  0
DIMENSION
  8
1
 62
4
  6
CONTINUOUS
  2
*D159
 70
1
 10
185.644927536
 20
176.494202899
 11
185.644927536
 21
161.594202899
 14
173.144927536
 24
176.494202899
 13
173.144927536
 23
146.694202899
 50
90.000000000
  0
TEXT
  8
1
 62
4
  6
CONTINUOUS
 72
5
 10
275.953364969
 20
93.888413783
 40
3.200000000
  1
（排気）
 41
0.722783070
 11
286.464134200
 21
93.888413783
  0
TEXT
  8
1
 62
4
  6
CONTINUOUS
 72
5
 10
207.665164112
 20
93.888413783
 40
3.200000000
  1
（給気）
 41
0.722783070
 11
218.175933343
 21
93.888413783
  0
LINE
  8
2
 62
7
  6
CONTINUOUS
 10
171.394927536
 20
133.450228395
 11
162.894927536
 21
133.450228395
  0
LINE
  8
1
 62
7
  6
CONTINUOUS
 10
171.931655647
 20
129.845858428
 11
172.025122851
 21
132.820033081
  0
LINE
  8
1
 62
7
  6
CONTINUOUS
 10
162.358199426
 20
129.845858428
 11
162.264732222
 21
132.820033081
  0
LINE
  8
1
 62
7
  6
CONTINUOUS
 10
171.394927536
 20
138.450228395
 11
162.894927536
 21
138.450228395
  0
LINE
  8
1
 62
7
  6
CONTINUOUS
 10
169.144927536
 20
138.450228395
 11
169.144927536
 21
133.450228395
  0
LINE
  8
1
 62
7
  6
CONTINUOUS
 10
171.394927536
 20
133.450228395
 11
171.124989484
 21
133.450228395
  0
LINE
  8
1
 62
7
  6
CONTINUOUS
 10
171.394927536
 20
133.450228395
 11
172.025122851
 21
132.820033081
  0
LINE
  8
1
 62
7
  6
CONTINUOUS
 10
162.272956896
 20
132.828257755
 11
162.894927536
 21
133.450228395
  0
ARC
  8
1
 62
7
  6
CONTINUOUS
 10
167.144927536
 20
119.220858428
 40
10.625000000
 50
64.942384582
 51
115.057615418
  0
ARC
  8
1
 62
7
  6
CONTINUOUS
 10
160.894927536
 20
120.722407890
 40
2.031250000
 50
276.439264429
 51
329.489762594
  0
ARC
  8
1
 62
7
  6
CONTINUOUS
 10
167.144927536
 20
129.316157890
 40
10.625000000
 50
244.942384582
 51
295.057615418
  0
ARC
  8
1
 62
7
  6
CONTINUOUS
 10
173.394927536
 20
127.814608428
 40
2.031250000
 50
90.000000000
 51
149.489762594
  0
LINE
  8
1
 62
7
  6
CONTINUOUS
 10
159.144927536
 20
128.845858428
 11
159.144927536
 21
119.845858428
  0
LINE
  8
1
 62
7
  6
CONTINUOUS
 10
171.644927536
 20
119.691157890
 11
171.644927536
 21
128.845858428
  0
LINE
  8
1
 62
7
  6
CONTINUOUS
 10
161.144927536
 20
105.845858428
 11
173.144927536
 21
105.845858428
  0
LINE
  8
1
 62
7
  6
CONTINUOUS
 10
161.644927536
 20
105.345858428
 11
161.144927536
 21
105.845858428
  0
LINE
  8
1
 62
7
  6
CONTINUOUS
 10
173.144927536
 20
105.845858428
 11
172.644927536
 21
105.345858428
  0
LINE
  8
1
 62
7
  6
CONTINUOUS
 10
171.644927536
 20
103.345858428
 11
171.644927536
 21
105.345858428
  0
LINE
  8
1
 62
7
  6
CONTINUOUS
 10
175.144927536
 20
128.845858428
 11
175.144927536
 21
119.869664981
  0
LINE
  8
1
 62
7
  6
CONTINUOUS
 10
160.894927536
 20
129.845858428
 11
159.144927536
 21
128.845858428
  0
LINE
  8
1
 62
7
  6
CONTINUOUS
 10
173.394927536
 20
129.845858428
 11
175.144927536
 21
128.845858428
  0
LINE
  8
1
 62
7
  6
CONTINUOUS
 10
161.144927536
 20
118.691157890
 11
173.144847675
 21
118.691157890
  0
LINE
  8
1
 62
7
  6
CONTINUOUS
 10
173.144927536
 20
118.699417121
 11
173.144927536
 21
105.845858428
  0
LINE
  8
1
 62
7
  6
CONTINUOUS
 10
161.644927536
 20
105.345858428
 11
172.644927536
 21
105.345858428
  0
LINE
  8
1
 62
7
  6
CONTINUOUS
 10
161.144927536
 20
118.691157890
 11
161.144927536
 21
105.845858428
  0
LINE
  8
1
 62
7
  6
CONTINUOUS
 10
161.144927536
 20
102.345858428
 11
161.144927536
 21
103.345858428
  0
LINE
  8
1
 62
7
  6
CONTINUOUS
 10
173.144927536
 20
103.345858428
 11
173.144927536
 21
102.345858428
  0
LINE
  8
1
 62
7
  6
CONTINUOUS
 10
162.644927536
 20
119.691157890
 11
162.644927536
 21
128.845858428
  0
LINE
  8
1
 62
7
  6
CONTINUOUS
 10
173.144927536
 20
102.345858428
 11
161.144927536
 21
102.345858428
  0
ARC
  8
1
 62
7
  6
CONTINUOUS
 10
160.894927536
 20
127.814608428
 40
2.031250000
 50
30.510237406
 51
90.000000000
  0
LINE
  8
1
 62
7
  6
CONTINUOUS
 10
175.144927536
 20
119.869664981
 11
173.144847675
 21
118.691157890
  0
LINE
  8
1
 62
7
  6
CONTINUOUS
 10
159.144927536
 20
119.845858428
 11
161.144927536
 21
118.691157890
  0
ARC
  8
1
 62
7
  6
CONTINUOUS
 10
173.394927536
 20
120.722407890
 40
2.031250000
 50
210.510237406
 51
263.548174178
  0
LINE
  8
1
 62
7
  6
CONTINUOUS
 10
161.144927536
 20
103.345858428
 11
173.144927536
 21
103.345858428
  0
LINE
  8
1
 62
7
  6
CONTINUOUS
 10
173.394927536
 20
129.845858428
 11
160.894927536
 21
129.845858428
  0
LINE
  8
1
 62
7
  6
CONTINUOUS
 10
162.644927536
 20
105.345858428
 11
162.644927536
 21
103.345858428
  0
ENDSEC
  0
EOF
