  0
SECTION
  2
HEADER
  9
$ACADVER
  1
AC1009
  9
$INSBASE
 10
0.000000000
 20
0.000000000
  9
$EXTMIN
 10
-21.721903531
 20
-18.859420290
  9
$EXTMAX
 10
238.940938844
 20
207.453623188
  9
$LIMMIN
 10
-21.721903531
 20
-18.859420290
  9
$LIMMAX
 10
238.940938844
 20
207.453623188
  9
$SNAPBASE
 10
0.000000000
 20
0.000000000
  9
$SNAPANG
 50
0.000000000
  9
$SNAPSTYLE
 70
0
  9
$GRIDMODE
 70
0
  9
$GRIDUNIT
 10
0.000000000
 20
0.000000000
  9
$DIMEXO
 40
0.000000000
  9
$DIMDLI
 40
8.000000000
  9
$DIMDLE
 40
0.000000000
  9
$DIMEXE
 40
1.000000000
  9
$DIMTIH
 70
1
  9
$DIMTOH
 70
1
  9
$DIMTAD
 70
2
  9
$DIMZIN
 70
0
  9
$FILLETRAD
 40
1.000000000
  9
$CHAMFERA
 40
1.000000000
  9
$CHAMFERB
 40
1.000000000
  9
$TDCREATE
 40
2454152.715960648
  9
$TDUPDATE
 40
2454152.715960648
  9
$ANGBASE
 50
0.000000000
  9
$ANGDIR
 70
0
  0
ENDSEC
  0
SECTION
  2
TABLES
  0
TABLE
  2
LTYPE
 70
3
  0
LTYPE
  2
CENTER
 70
64
  3
___ _ ___ _ __
 72
65
 73
4
 40
13.000000000
 49
8.500000000
 49
-1.500000000
 49
1.500000000
 49
-1.500000000
  0
LTYPE
  2
CONTINUOUS
 70
64
  3
______________
 72
65
 73
0
 40
0.000000000
  0
LTYPE
  2
DIVIDE
 70
64
  3
___ . . ___ . 
 72
65
 73
6
 40
12.999999523
 49
5.199999809
 49
-2.599999905
 49
0.000000000
 49
-2.599999905
 49
0.000000000
 49
-2.599999905
  0
ENDTAB
  0
TABLE
  2
LAYER
 70
2
  0
LAYER
  2
1
 70
0
 62
7
  6
CONTINUOUS
  0
LAYER
  2
5
 70
0
 62
7
  6
CONTINUOUS
999
Comment
  0
LAYER
  2
_CONSTR
 70
0
 62
5
  6
CONTINUOUS
  0
ENDTAB
  0
TABLE
  2
STYLE
 70
1
  0
STYLE
  2
STANDARD
 70
64
 40
0.000000000
 41
1.000000000
 50
0.000000000
 71
0
 42
3.200000000
  3
TXT
  4
EXTFONT
  0
ENDTAB
  0
TABLE
  2
VIEW
 70
0
  0
ENDTAB
  0
ENDSEC
  0
SECTION
  2
BLOCKS
  0
BLOCK
  8
0
  2
*D73
 70
65
 10
0.000000000
 20
0.000000000
  3
*D
  0
TEXT
  8
1
 62
4
  6
CONTINUOUS
 72
5
 10
161.533327536
 20
128.799202899
 40
2.800000000
  1
(
 41
1.800001800
 11
163.213327536
 21
128.799202899
  0
TEXT
  8
1
 62
4
  6
CONTINUOUS
 72
5
 10
164.053327536
 20
128.799202899
 40
2.800000000
  1
12
 41
1.124997750
 11
168.253327536
 21
128.799202899
  0
TEXT
  8
1
 62
4
  6
CONTINUOUS
 72
5
 10
169.093327536
 20
128.799202899
 40
2.800000000
  1
)
 41
1.800001800
 11
170.773327536
 21
128.799202899
  0
POLYLINE
  8
1
 62
4
  6
CONTINUOUS
 66
1
  0
VERTEX
  8
1
 10
162.144927536
 20
126.894202899
  0
VERTEX
  8
1
 10
160.144927536
 20
126.594202899
  0
VERTEX
  8
1
 10
162.144927536
 20
126.294202899
  0
SEQEND
  8
1
  0
LINE
  8
1
 62
4
  6
CONTINUOUS
 10
160.144927536
 20
126.594202899
 11
172.144927536
 21
126.594202899
  0
POLYLINE
  8
1
 62
4
  6
CONTINUOUS
 66
1
  0
VERTEX
  8
1
 10
170.144927536
 20
126.294202899
  0
VERTEX
  8
1
 10
172.144927536
 20
126.594202899
  0
VERTEX
  8
1
 10
170.144927536
 20
126.894202899
  0
SEQEND
  8
1
  0
LINE
  8
1
 62
4
  6
CONTINUOUS
 10
172.144927536
 20
146.994202899
 11
172.144927536
 21
124.594202899
  0
ENDBLK
  8
0
  0
BLOCK
  8
0
  2
*D74
 70
65
 10
0.000000000
 20
0.000000000
  3
*D
  0
TEXT
  8
1
 62
4
  6
CONTINUOUS
 72
5
 10
120.553327536
 20
128.799202899
 40
2.800000000
  1
75
 41
0.899998740
 11
124.753327536
 21
128.799202899
  0
LINE
  8
1
 62
4
  6
CONTINUOUS
 10
85.144927536
 20
146.694202899
 11
85.144927536
 21
124.594202899
  0
POLYLINE
  8
1
 62
4
  6
CONTINUOUS
 66
1
  0
VERTEX
  8
1
 10
87.144927536
 20
126.894202899
  0
VERTEX
  8
1
 10
85.144927536
 20
126.594202899
  0
VERTEX
  8
1
 10
87.144927536
 20
126.294202899
  0
SEQEND
  8
1
  0
LINE
  8
1
 62
4
  6
CONTINUOUS
 10
85.144927536
 20
126.594202899
 11
160.144927536
 21
126.594202899
  0
POLYLINE
  8
1
 62
4
  6
CONTINUOUS
 66
1
  0
VERTEX
  8
1
 10
158.144927536
 20
126.294202899
  0
VERTEX
  8
1
 10
160.144927536
 20
126.594202899
  0
VERTEX
  8
1
 10
158.144927536
 20
126.894202899
  0
SEQEND
  8
1
  0
LINE
  8
1
 62
4
  6
CONTINUOUS
 10
160.144927536
 20
146.694202899
 11
160.144927536
 21
124.594202899
  0
ENDBLK
  8
0
  0
BLOCK
  8
0
  2
*D75
 70
65
 10
0.000000000
 20
0.000000000
  3
*D
  0
TEXT
  8
1
 62
4
  6
CONTINUOUS
 72
5
 10
179.533327536
 20
128.799202899
 40
2.800000000
  1
(
 41
1.800001800
 11
181.213327536
 21
128.799202899
  0
TEXT
  8
1
 62
4
  6
CONTINUOUS
 72
5
 10
182.053327536
 20
128.799202899
 40
2.800000000
  1
24
 41
0.899998740
 11
186.253327536
 21
128.799202899
  0
TEXT
  8
1
 62
4
  6
CONTINUOUS
 72
5
 10
187.093327536
 20
128.799202899
 40
2.800000000
  1
)
 41
1.800001800
 11
188.773327536
 21
128.799202899
  0
POLYLINE
  8
1
 62
4
  6
CONTINUOUS
 66
1
  0
VERTEX
  8
1
 10
174.144927536
 20
126.894202899
  0
VERTEX
  8
1
 10
172.144927536
 20
126.594202899
  0
VERTEX
  8
1
 10
174.144927536
 20
126.294202899
  0
SEQEND
  8
1
  0
LINE
  8
1
 62
4
  6
CONTINUOUS
 10
172.144927536
 20
126.594202899
 11
196.144927536
 21
126.594202899
  0
POLYLINE
  8
1
 62
4
  6
CONTINUOUS
 66
1
  0
VERTEX
  8
1
 10
194.144927536
 20
126.294202899
  0
VERTEX
  8
1
 10
196.144927536
 20
126.594202899
  0
VERTEX
  8
1
 10
194.144927536
 20
126.894202899
  0
SEQEND
  8
1
  0
LINE
  8
1
 62
4
  6
CONTINUOUS
 10
196.144927536
 20
147.044202899
 11
196.144927536
 21
124.594202899
  0
ENDBLK
  8
0
  0
BLOCK
  8
0
  2
*D76
 70
65
 10
0.000000000
 20
0.000000000
  3
*D
  0
TEXT
  8
1
 62
4
  6
CONTINUOUS
 72
5
 10
134.773327536
 20
120.799202899
 40
2.800000000
  1
(
 41
1.800001800
 11
136.453327536
 21
120.799202899
  0
TEXT
  8
1
 62
4
  6
CONTINUOUS
 72
5
 10
137.293327536
 20
120.799202899
 40
2.800000000
  1
111
 41
1.439999712
 11
144.013327536
 21
120.799202899
  0
TEXT
  8
1
 62
4
  6
CONTINUOUS
 72
5
 10
144.853327536
 20
120.799202899
 40
2.800000000
  1
)
 41
1.800001800
 11
146.533327536
 21
120.799202899
  0
LINE
  8
1
 62
4
  6
CONTINUOUS
 10
85.144927536
 20
146.694202899
 11
85.144927536
 21
116.594202899
  0
POLYLINE
  8
1
 62
4
  6
CONTINUOUS
 66
1
  0
VERTEX
  8
1
 10
87.144927536
 20
118.894202899
  0
VERTEX
  8
1
 10
85.144927536
 20
118.594202899
  0
VERTEX
  8
1
 10
87.144927536
 20
118.294202899
  0
SEQEND
  8
1
  0
LINE
  8
1
 62
4
  6
CONTINUOUS
 10
85.144927536
 20
118.594202899
 11
196.144927536
 21
118.594202899
  0
POLYLINE
  8
1
 62
4
  6
CONTINUOUS
 66
1
  0
VERTEX
  8
1
 10
194.144927536
 20
118.294202899
  0
VERTEX
  8
1
 10
196.144927536
 20
118.594202899
  0
VERTEX
  8
1
 10
194.144927536
 20
118.894202899
  0
SEQEND
  8
1
  0
LINE
  8
1
 62
4
  6
CONTINUOUS
 10
196.144927536
 20
147.044202899
 11
196.144927536
 21
116.594202899
  0
ENDBLK
  8
0
  0
BLOCK
  8
0
  2
*D77
 70
65
 10
0.000000000
 20
0.000000000
  3
*D
  0
TEXT
  8
1
 62
4
  6
CONTINUOUS
 72
5
 10
177.533327536
 20
190.799202899
 40
2.800000000
  1
(
 41
1.800001800
 11
179.213327536
 21
190.799202899
  0
TEXT
  8
1
 62
4
  6
CONTINUOUS
 72
5
 10
180.053327536
 20
190.799202899
 40
2.800000000
  1
20
 41
1.000000667
 11
184.253327536
 21
190.799202899
  0
TEXT
  8
1
 62
4
  6
CONTINUOUS
 72
5
 10
185.093327536
 20
190.799202899
 40
2.800000000
  1
)
 41
1.800001800
 11
186.773327536
 21
190.799202899
  0
LINE
  8
1
 62
4
  6
CONTINUOUS
 10
172.144927536
 20
176.194202899
 11
172.144927536
 21
190.594202899
  0
POLYLINE
  8
1
 62
4
  6
CONTINUOUS
 66
1
  0
VERTEX
  8
1
 10
174.144927536
 20
188.894202899
  0
VERTEX
  8
1
 10
172.144927536
 20
188.594202899
  0
VERTEX
  8
1
 10
174.144927536
 20
188.294202899
  0
SEQEND
  8
1
  0
LINE
  8
1
 62
4
  6
CONTINUOUS
 10
172.144927536
 20
188.594202899
 11
192.144927536
 21
188.594202899
  0
POLYLINE
  8
1
 62
4
  6
CONTINUOUS
 66
1
  0
VERTEX
  8
1
 10
190.144927536
 20
188.294202899
  0
VERTEX
  8
1
 10
192.144927536
 20
188.594202899
  0
VERTEX
  8
1
 10
190.144927536
 20
188.894202899
  0
SEQEND
  8
1
  0
LINE
  8
1
 62
4
  6
CONTINUOUS
 10
192.144927536
 20
175.344202899
 11
192.144927536
 21
190.594202899
  0
ENDBLK
  8
0
  0
BLOCK
  8
0
  2
*D78
 70
65
 10
0.000000000
 20
0.000000000
  3
*D
  0
TEXT
  8
1
 62
4
  6
CONTINUOUS
 72
5
 10
70.939927536
 20
153.631002899
 40
2.800000000
  1
φ
 41
1.270648030
 50
90.000000000
 11
70.939927536
 21
156.991002899
  0
TEXT
  8
1
 62
4
  6
CONTINUOUS
 72
5
 10
70.939927536
 20
158.671002899
 40
2.800000000
  1
30
 41
1.000000667
 50
90.000000000
 11
70.939927536
 21
162.871002899
  0
TEXT
  8
1
 62
4
  6
CONTINUOUS
 72
5
 10
69.175927536
 20
163.711002899
 40
1.400000000
  1
-0.02
 41
1.554544889
 50
90.000000000
 11
69.175927536
 21
171.691002899
  0
TEXT
  8
1
 62
4
  6
CONTINUOUS
 72
5
 10
71.317927536
 20
163.711002899
 40
1.400000000
  1
-0.03
 41
1.554544889
 50
90.000000000
 11
71.317927536
 21
171.691002899
  0
LINE
  8
1
 62
4
  6
CONTINUOUS
 10
85.244927536
 20
176.594202899
 11
71.144927536
 21
176.594202899
  0
POLYLINE
  8
1
 62
4
  6
CONTINUOUS
 66
1
  0
VERTEX
  8
1
 10
73.444927536
 20
174.594202899
  0
VERTEX
  8
1
 10
73.144927536
 20
176.594202899
  0
VERTEX
  8
1
 10
72.844927536
 20
174.594202899
  0
SEQEND
  8
1
  0
LINE
  8
1
 62
4
  6
CONTINUOUS
 10
73.144927536
 20
176.594202899
 11
73.144927536
 21
146.594202899
  0
POLYLINE
  8
1
 62
4
  6
CONTINUOUS
 66
1
  0
VERTEX
  8
1
 10
72.844927536
 20
148.594202899
  0
VERTEX
  8
1
 10
73.144927536
 20
146.594202899
  0
VERTEX
  8
1
 10
73.444927536
 20
148.594202899
  0
SEQEND
  8
1
  0
LINE
  8
1
 62
4
  6
CONTINUOUS
 10
85.244927536
 20
146.594202899
 11
71.144927536
 21
146.594202899
  0
ENDBLK
  8
0
  0
ENDSEC
  0
SECTION
  2
ENTITIES
  0
LINE
  8
1
 62
7
  6
CONTINUOUS
 10
188.444927536
 20
163.694202899
 11
176.144927536
 21
163.694202899
  0
LINE
  8
1
 62
1
  6
CENTER
 10
198.144927536
 20
153.794202899
 11
170.144927536
 21
153.794202899
  0
LINE
  8
1
 62
1
  6
CENTER
 10
194.144927536
 20
169.594202899
 11
170.144927536
 21
169.594202899
  0
LINE
  8
1
 62
4
  6
CONTINUOUS
 10
164.244927536
 20
167.899756007
 11
167.644927536
 21
155.288649790
  0
LINE
  8
1
 62
4
  6
CONTINUOUS
 10
97.144927536
 20
168.132551314
 11
100.544927536
 21
155.055854483
  0
LINE
  8
1
 62
4
  6
CONTINUOUS
 10
100.544927536
 20
168.132551314
 11
97.144927536
 21
155.055854483
  0
LINE
  8
1
 62
7
  6
CONTINUOUS
 10
85.244927536
 20
176.594202899
 11
85.144927536
 21
176.494202899
  0
LINE
  8
1
 62
7
  6
CONTINUOUS
 10
85.144927536
 20
146.694202899
 11
85.244927536
 21
146.594202899
  0
LINE
  8
1
 62
7
  6
CONTINUOUS
 10
85.144927536
 20
176.494202899
 11
85.144927536
 21
146.694202899
  0
LINE
  8
1
 62
7
  6
CONTINUOUS
 10
160.144927536
 20
146.694202899
 11
160.144927536
 21
161.594202899
  0
LINE
  8
1
 62
7
  6
CONTINUOUS
 10
160.044927536
 20
146.594202899
 11
160.144927536
 21
146.694202899
  0
LINE
  8
1
 62
7
  6
CONTINUOUS
 10
160.144927536
 20
176.494202899
 11
160.144927536
 21
161.594202899
  0
LINE
  8
1
 62
7
  6
CONTINUOUS
 10
160.044927536
 20
176.594202899
 11
160.144927536
 21
176.494202899
  0
LINE
  8
1
 62
1
  6
CENTER
 10
83.144927536
 20
161.594202899
 11
174.144927536
 21
161.594202899
  0
LINE
  8
1
 62
7
  6
CONTINUOUS
 10
188.444927536
 20
175.494202899
 11
176.144927536
 21
175.494202899
  0
LINE
  8
1
 62
7
  6
CONTINUOUS
 10
160.044927536
 20
176.594202899
 11
85.244927536
 21
176.594202899
  0
LINE
  8
1
 62
7
  6
CONTINUOUS
 10
160.044927536
 20
146.594202899
 11
85.244927536
 21
146.594202899
  0
ARC
  8
1
 62
7
  6
CONTINUOUS
 10
76.296216230
 20
161.594202899
 40
25.114736710
 50
344.909814821
 51
15.090185179
  0
ARC
  8
1
 62
7
  6
CONTINUOUS
 10
121.393638842
 20
161.594202899
 40
25.114736710
 50
164.909814821
 51
195.090185179
  0
ARC
  8
1
 62
7
  6
CONTINUOUS
 10
159.444927536
 20
148.694202899
 40
0.900000000
 50
321.057558731
 51
0.000000000
  0
ARC
  8
1
 62
7
  6
CONTINUOUS
 10
159.444927536
 20
174.494202899
 40
0.900000000
 50
0.000000000
 51
38.942441269
  0
LINE
  8
1
 62
7
  6
CONTINUOUS
 10
97.144927536
 20
168.132551314
 11
100.544927536
 21
168.132551314
  0
LINE
  8
1
 62
7
  6
CONTINUOUS
 10
97.144927536
 20
155.055854483
 11
100.544927536
 21
155.055854483
  0
LINE
  8
1
 62
7
  6
CONTINUOUS
 10
97.144927536
 20
168.132551314
 11
97.144927536
 21
155.055854483
  0
LINE
  8
1
 62
7
  6
CONTINUOUS
 10
100.544927536
 20
168.132551314
 11
100.544927536
 21
155.055854483
  0
LINE
  8
1
 62
4
  6
CONTINUOUS
 10
167.644927536
 20
167.899756007
 11
164.244927536
 21
155.288649790
  0
LINE
  8
5
 62
7
  6
CONTINUOUS
 10
171.844927536
 20
176.494202899
 11
172.144927536
 21
176.194202899
  0
LINE
  8
5
 62
7
  6
CONTINUOUS
 10
160.344927536
 20
176.394202899
 11
160.444927536
 21
176.494202899
  0
LINE
  8
5
 62
7
  6
CONTINUOUS
 10
172.144927536
 20
176.194202899
 11
172.144927536
 21
146.994202899
  0
LINE
  8
5
 62
7
  6
CONTINUOUS
 10
160.444927536
 20
176.494202899
 11
171.844927536
 21
176.494202899
  0
LINE
  8
5
 62
7
  6
CONTINUOUS
 10
160.344927536
 20
146.794202899
 11
160.344927536
 21
176.394202899
  0
LINE
  8
5
 62
7
  6
CONTINUOUS
 10
171.844927536
 20
146.694202899
 11
172.144927536
 21
146.994202899
  0
LINE
  8
5
 62
7
  6
CONTINUOUS
 10
160.344927536
 20
146.794202899
 11
160.444927536
 21
146.694202899
  0
LINE
  8
5
 62
7
  6
CONTINUOUS
 10
160.444927536
 20
146.694202899
 11
171.844927536
 21
146.694202899
  0
LINE
  8
1
 62
7
  6
CONTINUOUS
 10
176.144927536
 20
175.494202899
 11
176.144927536
 21
163.694202899
  0
LINE
  8
1
 62
7
  6
CONTINUOUS
 10
176.144927536
 20
174.584202899
 11
172.144927536
 21
174.459202899
  0
LINE
  8
1
 62
7
  6
CONTINUOUS
 10
174.312927536
 20
164.661202899
 11
174.312927536
 21
174.527202899
  0
LINE
  8
1
 62
7
  6
CONTINUOUS
 10
176.144927536
 20
164.604202899
 11
172.144927536
 21
164.729202899
  0
LINE
  8
1
 62
1
  6
CONTINUOUS
 10
174.312927536
 20
149.442202899
 11
172.144927536
 21
149.510040771
  0
LINE
  8
1
 62
1
  6
CONTINUOUS
 10
174.312927536
 20
173.946202899
 11
172.144927536
 21
173.878365026
  0
LINE
  8
1
 62
1
  6
CONTINUOUS
 10
174.312927536
 20
165.242202899
 11
172.144927536
 21
165.310040771
  0
LINE
  8
1
 62
7
  6
CONTINUOUS
 10
164.244927536
 20
167.899756007
 11
167.644927536
 21
167.899756007
  0
LINE
  8
1
 62
7
  6
CONTINUOUS
 10
164.244927536
 20
155.288649790
 11
167.644927536
 21
155.288649790
  0
LINE
  8
1
 62
7
  6
CONTINUOUS
 10
164.244927536
 20
167.899756007
 11
164.244927536
 21
155.288649790
  0
LINE
  8
1
 62
7
  6
CONTINUOUS
 10
167.644927536
 20
167.899756007
 11
167.644927536
 21
155.288649790
  0
ARC
  8
1
 62
7
  6
CONTINUOUS
 10
190.356703749
 20
161.594202899
 40
26.862331563
 50
166.423945526
 51
193.576054474
  0
ARC
  8
1
 62
7
  6
CONTINUOUS
 10
141.533151323
 20
161.594202899
 40
26.862331563
 50
346.423945526
 51
13.576054474
  0
LINE
  8
1
 62
7
  6
CONTINUOUS
 10
188.444927536
 20
175.494202899
 11
188.444927536
 21
163.694202899
  0
LINE
  8
1
 62
7
  6
CONTINUOUS
 10
188.944927536
 20
175.094202899
 11
188.444927536
 21
175.094202899
  0
LINE
  8
1
 62
7
  6
CONTINUOUS
 10
188.944927536
 20
164.094202899
 11
188.444927536
 21
164.094202899
  0
LINE
  8
1
 62
7
  6
CONTINUOUS
 10
190.644927536
 20
173.094202899
 11
188.944927536
 21
173.094202899
  0
LINE
  8
1
 62
7
  6
CONTINUOUS
 10
190.644927536
 20
166.094202899
 11
188.944927536
 21
166.094202899
  0
LINE
  8
1
 62
7
  6
CONTINUOUS
 10
192.144927536
 20
175.344202899
 11
190.644927536
 21
175.344202899
  0
LINE
  8
1
 62
7
  6
CONTINUOUS
 10
192.144927536
 20
163.844202899
 11
190.644927536
 21
163.844202899
  0
LINE
  8
1
 62
7
  6
CONTINUOUS
 10
188.944927536
 20
175.094202899
 11
188.944927536
 21
164.094202899
  0
LINE
  8
1
 62
7
  6
CONTINUOUS
 10
190.644927536
 20
175.344202899
 11
190.644927536
 21
163.844202899
  0
LINE
  8
1
 62
7
  6
CONTINUOUS
 10
192.144927536
 20
175.344202899
 11
192.144927536
 21
163.844202899
  0
LINE
  8
1
 62
1
  6
CONTINUOUS
 10
174.312927536
 20
158.146202899
 11
172.144927536
 21
158.078365026
  0
LINE
  8
1
 62
7
  6
CONTINUOUS
 10
176.144927536
 20
148.804202899
 11
172.144927536
 21
148.929202899
  0
LINE
  8
1
 62
7
  6
CONTINUOUS
 10
176.144927536
 20
158.784202899
 11
172.144927536
 21
158.659202899
  0
LINE
  8
1
 62
7
  6
CONTINUOUS
 10
174.312927536
 20
148.861202899
 11
174.312927536
 21
158.727202899
  0
LINE
  8
1
 62
7
  6
CONTINUOUS
 10
196.144927536
 20
147.044202899
 11
194.644927536
 21
147.044202899
  0
LINE
  8
1
 62
7
  6
CONTINUOUS
 10
196.144927536
 20
160.544202899
 11
194.644927536
 21
160.544202899
  0
LINE
  8
1
 62
7
  6
CONTINUOUS
 10
194.644927536
 20
158.294202899
 11
193.344927536
 21
158.294202899
  0
LINE
  8
1
 62
7
  6
CONTINUOUS
 10
194.644927536
 20
149.294202899
 11
193.344927536
 21
149.294202899
  0
LINE
  8
1
 62
7
  6
CONTINUOUS
 10
193.344927536
 20
160.794202899
 11
193.344927536
 21
146.794202899
  0
LINE
  8
1
 62
7
  6
CONTINUOUS
 10
193.344927536
 20
146.794202899
 11
176.144927536
 21
146.794202899
  0
LINE
  8
1
 62
7
  6
CONTINUOUS
 10
193.344927536
 20
160.794202899
 11
176.144927536
 21
160.794202899
  0
LINE
  8
1
 62
7
  6
CONTINUOUS
 10
194.644927536
 20
160.544202899
 11
194.644927536
 21
147.044202899
  0
LINE
  8
1
 62
7
  6
CONTINUOUS
 10
196.144927536
 20
160.544202899
 11
196.144927536
 21
147.044202899
  0
LINE
  8
1
 62
7
  6
CONTINUOUS
 10
191.444927536
 20
160.794202899
 11
191.444927536
 21
146.794202899
  0
LINE
  8
1
 62
7
  6
CONTINUOUS
 10
176.144927536
 20
160.794202899
 11
176.144927536
 21
146.794202899
  0
DIMENSION
  8
1
 62
4
  6
CONTINUOUS
  2
*D73
 70
0
 10
172.144927536
 20
126.594202899
 11
166.144927536
 21
126.594202899
 14
172.144927536
 24
146.994202899
 13
160.144927536
 23
146.694202899
 50
0.000000000
  0
DIMENSION
  8
1
 62
4
  6
CONTINUOUS
  2
*D74
 70
1
 10
160.144927536
 20
126.594202899
 11
122.644927536
 21
126.594202899
 14
160.144927536
 24
146.694202899
 13
85.144927536
 23
146.694202899
 50
0.000000000
  0
DIMENSION
  8
1
 62
4
  6
CONTINUOUS
  2
*D75
 70
0
 10
196.144927536
 20
126.594202899
 11
184.144927536
 21
126.594202899
 14
196.144927536
 24
147.044202899
 13
172.144927536
 23
146.994202899
 50
0.000000000
  0
DIMENSION
  8
1
 62
4
  6
CONTINUOUS
  2
*D76
 70
0
 10
196.144927536
 20
118.594202899
 11
140.644927536
 21
118.594202899
 14
196.144927536
 24
147.044202899
 13
85.144927536
 23
146.694202899
 50
0.000000000
  0
DIMENSION
  8
1
 62
4
  6
CONTINUOUS
  2
*D77
 70
0
 10
192.144927536
 20
188.594202899
 11
182.144927536
 21
188.594202899
 14
192.144927536
 24
175.344202899
 13
172.144927536
 23
176.194202899
 50
0.000000000
  0
DIMENSION
  8
1
 62
4
  6
CONTINUOUS
  2
*D78
 70
1
 10
73.144927536
 20
146.594202899
 11
73.144927536
 21
161.594202899
 14
85.244927536
 24
146.594202899
 13
85.244927536
 23
176.594202899
 50
90.000000000
  0
TEXT
  8
1
 62
3
  6
CONTINUOUS
 72
5
 10
124.844927536
 20
104.610202899
 40
4.000000000
  1
ＡＭ－３０２０Ｒ
 41
0.834724541
 11
156.044927536
 21
104.610202899
  0
TEXT
  8
1
 62
3
  6
CONTINUOUS
 72
5
 10
124.844927536
 20
98.210202899
 40
4.000000000
  1
ＡＭ－３０２０Ｌ
 41
0.834724541
 11
156.044927536
 21
98.210202899
  0
ENDSEC
  0
EOF
