  0
SECTION
  2
HEADER
  9
$ACADVER
  1
AC1009
  9
$INSBASE
 10
0.000000000
 20
0.000000000
  9
$EXTMIN
 10
-31.767648373
 20
-20.000289855
  9
$EXTMAX
 10
349.444132104
 20
220.003188406
  9
$LIMMIN
 10
-31.767648373
 20
-20.000289855
  9
$LIMMAX
 10
349.444132104
 20
220.003188406
  9
$SNAPBASE
 10
0.000000000
 20
0.000000000
  9
$SNAPANG
 50
0.000000000
  9
$SNAPSTYLE
 70
0
  9
$GRIDMODE
 70
0
  9
$GRIDUNIT
 10
0.000000000
 20
0.000000000
  9
$DIMEXO
 40
0.000000000
  9
$DIMDLI
 40
8.000000000
  9
$DIMDLE
 40
0.000000000
  9
$DIMEXE
 40
1.000000000
  9
$DIMTIH
 70
1
  9
$DIMTOH
 70
1
  9
$DIMTAD
 70
2
  9
$DIMZIN
 70
0
  9
$FILLETRAD
 40
1.000000000
  9
$CHAMFERA
 40
1.000000000
  9
$CHAMFERB
 40
1.000000000
  9
$TDCREATE
 40
2454634.373541667
  9
$TDUPDATE
 40
2454634.373541667
  9
$ANGBASE
 50
0.000000000
  9
$ANGDIR
 70
0
  0
ENDSEC
  0
SECTION
  2
TABLES
  0
TABLE
  2
LTYPE
 70
3
  0
LTYPE
  2
CENTER
 70
64
  3
___ _ ___ _ __
 72
65
 73
4
 40
13.000000000
 49
8.500000000
 49
-1.500000000
 49
1.500000000
 49
-1.500000000
  0
LTYPE
  2
CONTINUOUS
 70
64
  3
______________
 72
65
 73
0
 40
0.000000000
  0
LTYPE
  2
DIVIDE
 70
64
  3
___ . . ___ . 
 72
65
 73
6
 40
12.999999523
 49
5.199999809
 49
-2.599999905
 49
0.000000000
 49
-2.599999905
 49
0.000000000
 49
-2.599999905
  0
ENDTAB
  0
TABLE
  2
LAYER
 70
1
  0
LAYER
  2
1
 70
0
 62
7
  6
CONTINUOUS
  0
LAYER
  2
_CONSTR
 70
0
 62
5
  6
CONTINUOUS
  0
ENDTAB
  0
TABLE
  2
STYLE
 70
1
  0
STYLE
  2
STANDARD
 70
64
 40
0.000000000
 41
1.000000000
 50
0.000000000
 71
0
 42
3.200000000
  3
TXT
  4
EXTFONT
  0
ENDTAB
  0
TABLE
  2
VIEW
 70
0
  0
ENDTAB
  0
ENDSEC
  0
SECTION
  2
BLOCKS
  0
BLOCK
  8
0
  2
*D80
 70
65
 10
0.000000000
 20
0.000000000
  3
*D
  0
TEXT
  8
1
 62
4
  6
CONTINUOUS
 72
5
 10
187.664883732
 20
103.036395936
 40
2.800000000
  1
27.8
 41
1.099999267
 11
196.904883732
 21
103.036395936
  0
POLYLINE
  8
1
 62
4
  6
CONTINUOUS
 66
1
  0
VERTEX
  8
1
 10
180.376483732
 20
101.131395936
  0
VERTEX
  8
1
 10
178.376483732
 20
100.831395936
  0
VERTEX
  8
1
 10
180.376483732
 20
100.531395936
  0
SEQEND
  8
1
  0
LINE
  8
1
 62
4
  6
CONTINUOUS
 10
178.376483732
 20
100.831395936
 11
206.176483732
 21
100.831395936
  0
POLYLINE
  8
1
 62
4
  6
CONTINUOUS
 66
1
  0
VERTEX
  8
1
 10
204.176483732
 20
100.531395936
  0
VERTEX
  8
1
 10
206.176483732
 20
100.831395936
  0
VERTEX
  8
1
 10
204.176483732
 20
101.131395936
  0
SEQEND
  8
1
  0
LINE
  8
1
 62
4
  6
CONTINUOUS
 10
206.176483732
 20
154.552898551
 11
206.176483732
 21
98.831395936
  0
ENDBLK
  8
0
  0
BLOCK
  8
0
  2
*D157
 70
65
 10
0.000000000
 20
0.000000000
  3
*D
  0
TEXT
  8
1
 62
4
  6
CONTINUOUS
 72
5
 10
207.064883732
 20
103.036395936
 40
2.800000000
  1
(
 41
1.800001800
 11
208.744883732
 21
103.036395936
  0
TEXT
  8
1
 62
4
  6
CONTINUOUS
 72
5
 10
209.584883732
 20
103.036395936
 40
2.800000000
  1
11
 41
1.500000000
 11
213.784883732
 21
103.036395936
  0
TEXT
  8
1
 62
4
  6
CONTINUOUS
 72
5
 10
214.624883732
 20
103.036395936
 40
2.800000000
  1
)
 41
1.800001800
 11
216.304883732
 21
103.036395936
  0
POLYLINE
  8
1
 62
4
  6
CONTINUOUS
 66
1
  0
VERTEX
  8
1
 10
208.176483732
 20
101.131395936
  0
VERTEX
  8
1
 10
206.176483732
 20
100.831395936
  0
VERTEX
  8
1
 10
208.176483732
 20
100.531395936
  0
SEQEND
  8
1
  0
LINE
  8
1
 62
4
  6
CONTINUOUS
 10
206.176483732
 20
100.831395936
 11
217.176483731
 21
100.831395936
  0
POLYLINE
  8
1
 62
4
  6
CONTINUOUS
 66
1
  0
VERTEX
  8
1
 10
215.176483731
 20
100.531395936
  0
VERTEX
  8
1
 10
217.176483731
 20
100.831395936
  0
VERTEX
  8
1
 10
215.176483731
 20
101.131395936
  0
SEQEND
  8
1
  0
LINE
  8
1
 62
4
  6
CONTINUOUS
 10
217.176483731
 20
163.452898551
 11
217.176483731
 21
98.831395936
  0
ENDBLK
  8
0
  0
BLOCK
  8
0
  2
*D158
 70
65
 10
0.000000000
 20
0.000000000
  3
*D
  0
TEXT
  8
1
 62
4
  6
CONTINUOUS
 72
5
 10
246.104883732
 20
95.036395936
 40
2.800000000
  1
(300)
 41
1.145454754
 11
257.864883732
 21
95.036395936
  0
LINE
  8
1
 62
4
  6
CONTINUOUS
 10
206.176483732
 20
154.552898551
 11
206.176483732
 21
90.831395936
  0
POLYLINE
  8
1
 62
4
  6
CONTINUOUS
 66
1
  0
VERTEX
  8
1
 10
208.176483732
 20
93.131395936
  0
VERTEX
  8
1
 10
206.176483732
 20
92.831395936
  0
VERTEX
  8
1
 10
208.176483732
 20
92.531395936
  0
SEQEND
  8
1
  0
LINE
  8
1
 62
4
  6
CONTINUOUS
 10
206.176483732
 20
92.831395936
 11
297.776483731
 21
92.831395936
  0
POLYLINE
  8
1
 62
4
  6
CONTINUOUS
 66
1
  0
VERTEX
  8
1
 10
295.776483731
 20
92.531395936
  0
VERTEX
  8
1
 10
297.776483731
 20
92.831395936
  0
VERTEX
  8
1
 10
295.776483731
 20
93.131395936
  0
SEQEND
  8
1
  0
LINE
  8
1
 62
4
  6
CONTINUOUS
 10
297.776483731
 20
159.952898633
 11
297.776483731
 21
90.831395936
  0
ENDBLK
  8
0
  0
BLOCK
  8
0
  2
*D161
 70
65
 10
0.000000000
 20
0.000000000
  3
*D
  0
TEXT
  8
1
 62
4
  6
CONTINUOUS
 72
5
 10
187.930707123
 20
159.688930516
 40
2.800000000
  1
φ
 41
1.270648030
 50
90.000000000
 11
187.930707123
 21
163.048930516
  0
TEXT
  8
1
 62
4
  6
CONTINUOUS
 72
5
 10
187.930707123
 20
164.728930516
 40
2.800000000
  1
29.9
 41
1.099999267
 50
90.000000000
 11
187.930707123
 21
173.968930516
  0
POLYLINE
  8
1
 62
4
  6
CONTINUOUS
 66
1
  0
VERTEX
  8
1
 10
190.435707123
 20
182.152898551
  0
VERTEX
  8
1
 10
190.135707123
 20
184.152898551
  0
VERTEX
  8
1
 10
189.835707123
 20
182.152898551
  0
SEQEND
  8
1
  0
LINE
  8
1
 62
4
  6
CONTINUOUS
 10
190.135707123
 20
184.152898551
 11
190.135707123
 21
154.252898551
  0
POLYLINE
  8
1
 62
4
  6
CONTINUOUS
 66
1
  0
VERTEX
  8
1
 10
189.835707123
 20
156.252898551
  0
VERTEX
  8
1
 10
190.135707123
 20
154.252898551
  0
VERTEX
  8
1
 10
190.435707123
 20
156.252898551
  0
SEQEND
  8
1
  0
ENDBLK
  8
0
  0
BLOCK
  8
0
  2
*D244
 70
65
 10
0.000000000
 20
0.000000000
  3
*D
  0
TEXT
  8
1
 62
4
  6
CONTINUOUS
 72
5
 10
315.471483731
 20
162.071298633
 40
2.800000000
  1
φ
 41
1.270648030
 50
90.000000000
 11
315.471483731
 21
165.431298633
  0
TEXT
  8
1
 62
4
  6
CONTINUOUS
 72
5
 10
315.471483731
 20
167.111298633
 40
2.800000000
  1
18.5
 41
1.237498917
 50
90.000000000
 11
315.471483731
 21
176.351298633
  0
LINE
  8
1
 62
4
  6
CONTINUOUS
 10
297.776483731
 20
178.452898633
 11
319.676483731
 21
178.452898633
  0
POLYLINE
  8
1
 62
4
  6
CONTINUOUS
 66
1
  0
VERTEX
  8
1
 10
317.976483731
 20
176.452898633
  0
VERTEX
  8
1
 10
317.676483731
 20
178.452898633
  0
VERTEX
  8
1
 10
317.376483731
 20
176.452898633
  0
SEQEND
  8
1
  0
LINE
  8
1
 62
4
  6
CONTINUOUS
 10
317.676483731
 20
178.452898633
 11
317.676483731
 21
159.952898633
  0
POLYLINE
  8
1
 62
4
  6
CONTINUOUS
 66
1
  0
VERTEX
  8
1
 10
317.376483731
 20
161.952898633
  0
VERTEX
  8
1
 10
317.676483731
 20
159.952898633
  0
VERTEX
  8
1
 10
317.976483731
 20
161.952898633
  0
SEQEND
  8
1
  0
LINE
  8
1
 62
4
  6
CONTINUOUS
 10
297.776483731
 20
159.952898633
 11
319.676483731
 21
159.952898633
  0
ENDBLK
  8
0
  0
BLOCK
  8
0
  2
*D246
 70
65
 10
0.000000000
 20
0.000000000
  3
*D
  0
TEXT
  8
1
 62
4
  6
CONTINUOUS
 72
5
 10
113.184883733
 20
103.036395936
 40
2.800000000
  1
(
 41
1.800001800
 11
114.864883733
 21
103.036395936
  0
TEXT
  8
1
 62
4
  6
CONTINUOUS
 72
5
 10
115.704883733
 20
103.036395936
 40
2.800000000
  1
113.6
 41
1.259998992
 11
127.464883733
 21
103.036395936
  0
TEXT
  8
1
 62
4
  6
CONTINUOUS
 72
5
 10
128.304883733
 20
103.036395936
 40
2.800000000
  1
)
 41
1.800001800
 11
129.984883733
 21
103.036395936
  0
LINE
  8
1
 62
4
  6
CONTINUOUS
 10
64.776483733
 20
117.831395936
 11
64.776483733
 21
98.831395936
  0
POLYLINE
  8
1
 62
4
  6
CONTINUOUS
 66
1
  0
VERTEX
  8
1
 10
66.776483733
 20
101.131395936
  0
VERTEX
  8
1
 10
64.776483733
 20
100.831395936
  0
VERTEX
  8
1
 10
66.776483733
 20
100.531395936
  0
SEQEND
  8
1
  0
LINE
  8
1
 62
4
  6
CONTINUOUS
 10
64.776483733
 20
100.831395936
 11
178.376483732
 21
100.831395936
  0
POLYLINE
  8
1
 62
4
  6
CONTINUOUS
 66
1
  0
VERTEX
  8
1
 10
176.376483732
 20
100.531395936
  0
VERTEX
  8
1
 10
178.376483732
 20
100.831395936
  0
VERTEX
  8
1
 10
176.376483732
 20
101.131395936
  0
SEQEND
  8
1
  0
LINE
  8
1
 62
4
  6
CONTINUOUS
 10
178.376483732
 20
154.252898551
 11
178.376483732
 21
98.831395936
  0
ENDBLK
  8
0
  0
BLOCK
  8
0
  2
*D247
 70
65
 10
0.000000000
 20
0.000000000
  3
*D
  0
TEXT
  8
1
 62
4
  6
CONTINUOUS
 72
5
 10
127.084883733
 20
95.036395936
 40
2.800000000
  1
(
 41
1.800001800
 11
128.764883733
 21
95.036395936
  0
TEXT
  8
1
 62
4
  6
CONTINUOUS
 72
5
 10
129.604883733
 20
95.036395936
 40
2.800000000
  1
141.4
 41
1.259998992
 11
141.364883733
 21
95.036395936
  0
TEXT
  8
1
 62
4
  6
CONTINUOUS
 72
5
 10
142.204883733
 20
95.036395936
 40
2.800000000
  1
)
 41
1.800001800
 11
143.884883733
 21
95.036395936
  0
LINE
  8
1
 62
4
  6
CONTINUOUS
 10
64.776483733
 20
117.831395936
 11
64.776483733
 21
90.831395936
  0
POLYLINE
  8
1
 62
4
  6
CONTINUOUS
 66
1
  0
VERTEX
  8
1
 10
66.776483733
 20
93.131395936
  0
VERTEX
  8
1
 10
64.776483733
 20
92.831395936
  0
VERTEX
  8
1
 10
66.776483733
 20
92.531395936
  0
SEQEND
  8
1
  0
LINE
  8
1
 62
4
  6
CONTINUOUS
 10
64.776483733
 20
92.831395936
 11
206.176483732
 21
92.831395936
  0
POLYLINE
  8
1
 62
4
  6
CONTINUOUS
 66
1
  0
VERTEX
  8
1
 10
204.176483732
 20
92.531395936
  0
VERTEX
  8
1
 10
206.176483732
 20
92.831395936
  0
VERTEX
  8
1
 10
204.176483732
 20
93.131395936
  0
SEQEND
  8
1
  0
LINE
  8
1
 62
4
  6
CONTINUOUS
 10
206.176483732
 20
154.552898551
 11
206.176483732
 21
90.831395936
  0
ENDBLK
  8
0
  0
BLOCK
  8
0
  2
*D263
 70
65
 10
0.000000000
 20
0.000000000
  3
*D
  0
TEXT
  8
1
 62
4
  6
CONTINUOUS
 72
5
 10
39.550821233
 20
111.036395936
 40
2.800000000
  1
φ
 41
1.270648030
 11
42.910821233
 21
111.036395936
  0
TEXT
  8
1
 62
4
  6
CONTINUOUS
 72
5
 10
44.590821233
 20
111.036395936
 40
2.800000000
  1
15.9
 41
1.237498917
 11
53.830821233
 21
111.036395936
  0
LINE
  8
1
 62
4
  6
CONTINUOUS
 10
56.826483733
 20
124.996459446
 11
56.826483733
 21
106.831395936
  0
POLYLINE
  8
1
 62
4
  6
CONTINUOUS
 66
1
  0
VERTEX
  8
1
 10
58.826483733
 20
109.131395936
  0
VERTEX
  8
1
 10
56.826483733
 20
108.831395936
  0
VERTEX
  8
1
 10
58.826483733
 20
108.531395936
  0
SEQEND
  8
1
  0
LINE
  8
1
 62
4
  6
CONTINUOUS
 10
56.826483733
 20
108.831395936
 11
72.726483733
 21
108.831395936
  0
POLYLINE
  8
1
 62
4
  6
CONTINUOUS
 66
1
  0
VERTEX
  8
1
 10
70.726483733
 20
108.531395936
  0
VERTEX
  8
1
 10
72.726483733
 20
108.831395936
  0
VERTEX
  8
1
 10
70.726483733
 20
109.131395936
  0
SEQEND
  8
1
  0
LINE
  8
1
 62
4
  6
CONTINUOUS
 10
72.726483733
 20
124.996459446
 11
72.726483733
 21
106.831395936
  0
POLYLINE
  8
1
 62
4
  6
CONTINUOUS
 66
1
  0
VERTEX
  8
1
 10
56.826483733
 20
108.831395936
  0
VERTEX
  8
1
 10
37.550821233
 20
108.831395936
  0
SEQEND
  8
1
  0
ENDBLK
  8
0
  0
BLOCK
  8
0
  2
*D266
 70
65
 10
0.000000000
 20
0.000000000
  3
*D
  0
TEXT
  8
1
 62
4
  6
CONTINUOUS
 72
5
 10
129.364883733
 20
111.036395936
 40
2.800000000
  1
88.8
 41
1.099999267
 11
138.604883733
 21
111.036395936
  0
LINE
  8
1
 62
4
  6
CONTINUOUS
 10
89.576483733
 20
154.202898551
 11
89.576483733
 21
106.831395936
  0
POLYLINE
  8
1
 62
4
  6
CONTINUOUS
 66
1
  0
VERTEX
  8
1
 10
91.576483733
 20
109.131395936
  0
VERTEX
  8
1
 10
89.576483733
 20
108.831395936
  0
VERTEX
  8
1
 10
91.576483733
 20
108.531395936
  0
SEQEND
  8
1
  0
LINE
  8
1
 62
4
  6
CONTINUOUS
 10
89.576483733
 20
108.831395936
 11
178.376483732
 21
108.831395936
  0
POLYLINE
  8
1
 62
4
  6
CONTINUOUS
 66
1
  0
VERTEX
  8
1
 10
176.376483732
 20
108.531395936
  0
VERTEX
  8
1
 10
178.376483732
 20
108.831395936
  0
VERTEX
  8
1
 10
176.376483732
 20
109.131395936
  0
SEQEND
  8
1
  0
LINE
  8
1
 62
4
  6
CONTINUOUS
 10
178.376483732
 20
154.252898551
 11
178.376483732
 21
106.831395936
  0
ENDBLK
  8
0
  0
BLOCK
  8
0
  2
*D267
 70
65
 10
0.000000000
 20
0.000000000
  3
*D
  0
TEXT
  8
1
 62
4
  6
CONTINUOUS
 72
5
 10
27.571483733
 20
122.385547244
 40
2.800000000
  1
(
 41
1.800001800
 50
90.000000000
 11
27.571483733
 21
124.065547244
  0
TEXT
  8
1
 62
4
  6
CONTINUOUS
 72
5
 10
27.571483733
 20
124.905547244
 40
2.800000000
  1
17.4
 41
1.237498917
 50
90.000000000
 11
27.571483733
 21
134.145547244
  0
TEXT
  8
1
 62
4
  6
CONTINUOUS
 72
5
 10
27.571483733
 20
134.985547244
 40
2.800000000
  1
)
 41
1.800001800
 50
90.000000000
 11
27.571483733
 21
136.665547244
  0
LINE
  8
1
 62
4
  6
CONTINUOUS
 10
59.653834003
 20
120.831395936
 11
27.776483733
 21
120.831395936
  0
POLYLINE
  8
1
 62
4
  6
CONTINUOUS
 66
1
  0
VERTEX
  8
1
 10
29.476483733
 20
122.831395936
  0
VERTEX
  8
1
 10
29.776483733
 20
120.831395936
  0
VERTEX
  8
1
 10
30.076483733
 20
122.831395936
  0
SEQEND
  8
1
  0
LINE
  8
1
 62
4
  6
CONTINUOUS
 10
29.776483733
 20
120.831395936
 11
29.776483733
 21
138.202898551
  0
POLYLINE
  8
1
 62
4
  6
CONTINUOUS
 66
1
  0
VERTEX
  8
1
 10
30.076483733
 20
136.202898551
  0
VERTEX
  8
1
 10
29.776483733
 20
138.202898551
  0
VERTEX
  8
1
 10
29.476483733
 20
136.202898551
  0
SEQEND
  8
1
  0
LINE
  8
1
 62
4
  6
CONTINUOUS
 10
50.276483733
 20
138.202898551
 11
27.776483733
 21
138.202898551
  0
ENDBLK
  8
0
  0
BLOCK
  8
0
  2
*D268
 70
65
 10
0.000000000
 20
0.000000000
  3
*D
  0
TEXT
  8
1
 62
4
  6
CONTINUOUS
 72
5
 10
35.571483733
 20
151.611298551
 40
2.800000000
  1
31
 41
1.125000281
 50
90.000000000
 11
35.571483733
 21
155.811298551
  0
POLYLINE
  8
1
 62
4
  6
CONTINUOUS
 66
1
  0
VERTEX
  8
1
 10
37.476483733
 20
140.202898551
  0
VERTEX
  8
1
 10
37.776483733
 20
138.202898551
  0
VERTEX
  8
1
 10
38.076483733
 20
140.202898551
  0
SEQEND
  8
1
  0
LINE
  8
1
 62
4
  6
CONTINUOUS
 10
37.776483733
 20
138.202898551
 11
37.776483733
 21
169.202898551
  0
POLYLINE
  8
1
 62
4
  6
CONTINUOUS
 66
1
  0
VERTEX
  8
1
 10
38.076483733
 20
167.202898551
  0
VERTEX
  8
1
 10
37.776483733
 20
169.202898551
  0
VERTEX
  8
1
 10
37.476483733
 20
167.202898551
  0
SEQEND
  8
1
  0
LINE
  8
1
 62
4
  6
CONTINUOUS
 10
46.776483733
 20
169.202898551
 11
35.776483733
 21
169.202898551
  0
ENDBLK
  8
0
  0
BLOCK
  8
0
  2
*D269
 70
65
 10
0.000000000
 20
0.000000000
  3
*D
  0
TEXT
  8
1
 62
4
  6
CONTINUOUS
 72
5
 10
27.571483733
 20
160.471298551
 40
2.800000000
  1
(
 41
1.800001800
 50
90.000000000
 11
27.571483733
 21
162.151298551
  0
TEXT
  8
1
 62
4
  6
CONTINUOUS
 72
5
 10
27.571483733
 20
162.991298551
 40
2.800000000
  1
58.8
 41
1.099999267
 50
90.000000000
 11
27.571483733
 21
172.231298551
  0
TEXT
  8
1
 62
4
  6
CONTINUOUS
 72
5
 10
27.571483733
 20
173.071298551
 40
2.800000000
  1
)
 41
1.800001800
 50
90.000000000
 11
27.571483733
 21
174.751298551
  0
LINE
  8
1
 62
4
  6
CONTINUOUS
 10
50.276483733
 20
138.202898551
 11
27.776483733
 21
138.202898551
  0
POLYLINE
  8
1
 62
4
  6
CONTINUOUS
 66
1
  0
VERTEX
  8
1
 10
29.476483733
 20
140.202898551
  0
VERTEX
  8
1
 10
29.776483733
 20
138.202898551
  0
VERTEX
  8
1
 10
30.076483733
 20
140.202898551
  0
SEQEND
  8
1
  0
LINE
  8
1
 62
4
  6
CONTINUOUS
 10
29.776483733
 20
138.202898551
 11
29.776483733
 21
197.002898551
  0
POLYLINE
  8
1
 62
4
  6
CONTINUOUS
 66
1
  0
VERTEX
  8
1
 10
30.076483733
 20
195.002898551
  0
VERTEX
  8
1
 10
29.776483733
 20
197.002898551
  0
VERTEX
  8
1
 10
29.476483733
 20
195.002898551
  0
SEQEND
  8
1
  0
LINE
  8
1
 62
4
  6
CONTINUOUS
 10
51.876483733
 20
197.002898551
 11
27.776483733
 21
197.002898551
  0
ENDBLK
  8
0
  0
BLOCK
  8
0
  2
*D270
 70
65
 10
0.000000000
 20
0.000000000
  3
*D
  0
TEXT
  8
1
 62
4
  6
CONTINUOUS
 72
5
 10
61.368575012
 20
151.007898551
 40
2.800000000
  1
φ
 41
1.270648030
 11
64.728575012
 21
151.007898551
  0
TEXT
  8
1
 62
4
  6
CONTINUOUS
 72
5
 10
66.408575012
 20
151.007898551
 40
2.800000000
  1
30
 41
1.000000667
 11
70.608575012
 21
151.007898551
  0
POLYLINE
  8
1
 62
4
  6
CONTINUOUS
 66
1
  0
VERTEX
  8
1
 10
51.776483733
 20
149.102898551
  0
VERTEX
  8
1
 10
49.776483733
 20
148.802898551
  0
VERTEX
  8
1
 10
51.776483733
 20
148.502898551
  0
SEQEND
  8
1
  0
LINE
  8
1
 62
4
  6
CONTINUOUS
 10
49.776483733
 20
148.802898551
 11
79.776483733
 21
148.802898551
  0
POLYLINE
  8
1
 62
4
  6
CONTINUOUS
 66
1
  0
VERTEX
  8
1
 10
77.776483733
 20
148.502898551
  0
VERTEX
  8
1
 10
79.776483733
 20
148.802898551
  0
VERTEX
  8
1
 10
77.776483733
 20
149.102898551
  0
SEQEND
  8
1
  0
ENDBLK
  8
0
  0
BLOCK
  8
0
  2
blk272
 70
64
 10
0.000000000
 20
0.000000000
  3
blk272
  0
ARC
  8
1
 62
4
  6
CONTINUOUS
 10
0.000000000
 20
0.000000000
 40
1.000000000
 50
126.869897646
 51
233.130102354
  0
ENDBLK
  8
0
  0
BLOCK
  8
0
  2
blk273
 70
64
 10
0.000000000
 20
0.000000000
  3
blk273
  0
ARC
  8
1
 62
4
  6
CONTINUOUS
 10
0.000000000
 20
0.000000000
 40
1.000000000
 50
306.869897646
 51
413.130102354
  0
ENDBLK
  8
0
  0
BLOCK
  8
0
  2
*D274
 70
65
 10
0.000000000
 20
0.000000000
  3
*D
  0
TEXT
  8
1
 62
4
  6
CONTINUOUS
 72
5
 10
107.371483733
 20
161.033243649
 40
2.800000000
  1
φ
 41
1.270648030
 50
90.000000000
 11
107.371483733
 21
164.393243649
  0
TEXT
  8
1
 62
4
  6
CONTINUOUS
 72
5
 10
107.371483733
 20
166.073243649
 40
2.800000000
  1
30
 41
1.000000667
 50
90.000000000
 11
107.371483733
 21
170.273243649
  0
TEXT
  8
1
 62
4
  6
CONTINUOUS
 72
5
 10
105.607483733
 20
171.113243649
 40
1.400000000
  1
 0
 41
2.333335926
 50
90.000000000
 11
105.607483733
 21
174.053243649
  0
TEXT
  8
1
 62
4
  6
CONTINUOUS
 72
5
 10
107.749483733
 20
171.113243649
 40
1.400000000
  1
-0.01
 41
1.710000684
 50
90.000000000
 11
107.749483733
 21
179.093243649
  0
POLYLINE
  8
1
 62
4
  6
CONTINUOUS
 66
1
  0
VERTEX
  8
1
 10
109.876483733
 20
182.202898551
  0
VERTEX
  8
1
 10
109.576483733
 20
184.202898551
  0
VERTEX
  8
1
 10
109.276483733
 20
182.202898551
  0
SEQEND
  8
1
  0
LINE
  8
1
 62
4
  6
CONTINUOUS
 10
109.576483733
 20
184.202898551
 11
109.576483733
 21
154.202898551
  0
POLYLINE
  8
1
 62
4
  6
CONTINUOUS
 66
1
  0
VERTEX
  8
1
 10
109.276483733
 20
156.202898551
  0
VERTEX
  8
1
 10
109.576483733
 20
154.202898551
  0
VERTEX
  8
1
 10
109.876483733
 20
156.202898551
  0
SEQEND
  8
1
  0
ENDBLK
  8
0
  0
BLOCK
  8
0
  2
blk275
 70
64
 10
0.000000000
 20
0.000000000
  3
blk275
  0
ARC
  8
1
 62
4
  6
CONTINUOUS
 10
0.000000000
 20
0.000000000
 40
1.000000000
 50
306.869897646
 51
413.130102354
  0
ENDBLK
  8
0
  0
ENDSEC
  0
SECTION
  2
ENTITIES
  0
LINE
  8
1
 62
7
  6
CONTINUOUS
 10
88.776483733
 20
155.002898551
 11
89.576483733
 21
154.202898551
  0
LINE
  8
1
 62
7
  6
CONTINUOUS
 10
178.276483732
 20
154.202898551
 11
89.576483733
 21
154.202898551
  0
LINE
  8
1
 62
7
  6
CONTINUOUS
 10
178.376483732
 20
154.302898551
 11
178.376483732
 21
184.102898551
  0
LINE
  8
1
 62
7
  6
CONTINUOUS
 10
88.776483733
 20
183.402898551
 11
89.576483733
 21
184.202898551
  0
LINE
  8
1
 62
7
  6
CONTINUOUS
 10
178.276483732
 20
154.202898551
 11
178.376483732
 21
154.302898551
  0
LINE
  8
1
 62
7
  6
CONTINUOUS
 10
88.776483733
 20
183.402898551
 11
88.776483733
 21
155.002898551
  0
LINE
  8
1
 62
7
  6
CONTINUOUS
 10
49.876483733
 20
195.002898551
 11
79.676483733
 21
195.002898551
  0
LINE
  8
1
 62
7
  6
CONTINUOUS
 10
49.876483733
 20
195.002898551
 11
51.876483733
 21
197.002898551
  0
LINE
  8
1
 62
7
  6
CONTINUOUS
 10
77.676483733
 20
197.002898551
 11
79.676483733
 21
195.002898551
  0
LINE
  8
1
 62
7
  6
CONTINUOUS
 10
49.876483733
 20
188.002898551
 11
49.876483733
 21
195.002898551
  0
LINE
  8
1
 62
7
  6
CONTINUOUS
 10
77.676483733
 20
197.002898551
 11
51.876483733
 21
197.002898551
  0
LINE
  8
1
 62
7
  6
CONTINUOUS
 10
79.676483733
 20
188.002898551
 11
79.676483733
 21
195.002898551
  0
LINE
  8
1
 62
7
  6
CONTINUOUS
 10
61.794873430
 20
137.402898551
 11
61.794873430
 21
134.402898551
  0
LINE
  8
1
 62
7
  6
CONTINUOUS
 10
67.758094037
 20
137.402898551
 11
67.758094037
 21
134.402898551
  0
LINE
  8
1
 62
7
  6
CONTINUOUS
 10
61.794873430
 20
137.402898551
 11
67.758094037
 21
137.402898551
  0
LINE
  8
1
 62
7
  6
CONTINUOUS
 10
57.326483733
 20
133.331395936
 11
72.226483733
 21
133.331395936
  0
LINE
  8
1
 62
7
  6
CONTINUOUS
 10
72.726483733
 20
132.831395936
 11
72.726483733
 21
128.781395936
  0
LINE
  8
1
 62
7
  6
CONTINUOUS
 10
72.726483733
 20
125.281395936
 11
72.476483733
 21
125.531395936
  0
LINE
  8
1
 62
7
  6
CONTINUOUS
 10
72.726483733
 20
124.996459446
 11
72.726483733
 21
125.281395936
  0
LINE
  8
1
 62
7
  6
CONTINUOUS
 10
70.765158868
 20
121.331395936
 11
72.592509137
 21
124.496459446
  0
ARC
  8
1
 62
7
  6
CONTINUOUS
 10
71.726483733
 20
124.996459446
 40
1.000000000
 50
330.000000000
 51
0.000000000
  0
LINE
  8
1
 62
7
  6
CONTINUOUS
 10
57.776483733
 20
125.531395936
 11
57.776483733
 21
128.531395936
  0
LINE
  8
1
 62
7
  6
CONTINUOUS
 10
57.076483733
 20
125.531395936
 11
72.476483733
 21
125.531395936
  0
LINE
  8
1
 62
7
  6
CONTINUOUS
 10
71.776483733
 20
125.531395936
 11
71.776483733
 21
128.531395936
  0
LINE
  8
1
 62
7
  6
CONTINUOUS
 10
72.476483733
 20
128.531395936
 11
72.726483733
 21
128.781395936
  0
ARC
  8
1
 62
7
  6
CONTINUOUS
 10
69.899133464
 20
121.831395936
 40
1.000000000
 50
270.000000000
 51
330.000000000
  0
ARC
  8
1
 62
7
  6
CONTINUOUS
 10
72.226483733
 20
132.831395936
 40
0.500000000
 50
0.000000000
 51
90.000000000
  0
LINE
  8
1
 62
7
  6
CONTINUOUS
 10
57.076483733
 20
128.531395936
 11
72.476483733
 21
128.531395936
  0
LINE
  8
1
 62
7
  6
CONTINUOUS
 10
59.653834003
 20
120.831395936
 11
69.899133464
 21
120.831395936
  0
LINE
  8
1
 62
7
  6
CONTINUOUS
 10
56.826483733
 20
132.831395936
 11
56.826483733
 21
128.781395936
  0
LINE
  8
1
 62
7
  6
CONTINUOUS
 10
56.826483733
 20
125.281395936
 11
57.076483733
 21
125.531395936
  0
LINE
  8
1
 62
7
  6
CONTINUOUS
 10
57.660458330
 20
124.496459446
 11
71.892509137
 21
124.496459446
  0
LINE
  8
1
 62
7
  6
CONTINUOUS
 10
68.545104171
 20
125.781395936
 11
68.545104171
 21
128.281395936
  0
LINE
  8
1
 62
7
  6
CONTINUOUS
 10
61.007863296
 20
125.781395936
 11
61.007863296
 21
128.281395936
  0
LINE
  8
1
 62
7
  6
CONTINUOUS
 10
56.826483733
 20
124.996459446
 11
56.826483733
 21
125.281395936
  0
LINE
  8
1
 62
7
  6
CONTINUOUS
 10
58.787808599
 20
121.331395936
 11
56.960458330
 21
124.496459446
  0
ARC
  8
1
 62
7
  6
CONTINUOUS
 10
57.826483733
 20
124.996459446
 40
1.000000000
 50
180.000000000
 51
210.000000000
  0
LINE
  8
1
 62
7
  6
CONTINUOUS
 10
57.076483733
 20
128.531395936
 11
56.826483733
 21
128.781395936
  0
LINE
  8
1
 62
7
  6
CONTINUOUS
 10
61.794873430
 20
134.402898551
 11
67.758094037
 21
134.402898551
  0
LINE
  8
1
 62
7
  6
CONTINUOUS
 10
50.076483733
 20
142.502898551
 11
49.976483733
 21
142.402898551
  0
LINE
  8
1
 62
7
  6
CONTINUOUS
 10
79.576483733
 20
142.402898551
 11
79.576483733
 21
138.502898551
  0
LINE
  8
1
 62
7
  6
CONTINUOUS
 10
79.276483733
 20
138.202898551
 11
79.576483733
 21
138.502898551
  0
LINE
  8
1
 62
7
  6
CONTINUOUS
 10
49.976483733
 20
142.402898551
 11
49.976483733
 21
138.502898551
  0
LINE
  8
1
 62
7
  6
CONTINUOUS
 10
50.276483733
 20
138.202898551
 11
79.276483733
 21
138.202898551
  0
LINE
  8
1
 62
7
  6
CONTINUOUS
 10
50.276483733
 20
138.202898551
 11
49.976483733
 21
138.502898551
  0
LINE
  8
1
 62
7
  6
CONTINUOUS
 10
50.076483733
 20
142.502898551
 11
79.476483733
 21
142.502898551
  0
LINE
  8
1
 62
7
  6
CONTINUOUS
 10
79.476483733
 20
142.502898551
 11
79.576483733
 21
142.402898551
  0
LINE
  8
1
 62
7
  6
CONTINUOUS
 10
71.376483733
 20
137.702898551
 11
71.376483733
 21
138.202898551
  0
ARC
  8
1
 62
7
  6
CONTINUOUS
 10
59.653834003
 20
121.831395936
 40
1.000000000
 50
210.000000000
 51
270.000000000
  0
LINE
  8
1
 62
7
  6
CONTINUOUS
 10
71.376483733
 20
138.202898551
 11
71.476483733
 21
138.202898551
  0
LINE
  8
1
 62
7
  6
CONTINUOUS
 10
71.476483733
 20
137.702898551
 11
58.076483733
 21
137.702898551
  0
LINE
  8
1
 62
7
  6
CONTINUOUS
 10
71.476483733
 20
133.331395936
 11
71.476483733
 21
137.702898551
  0
LINE
  8
1
 62
7
  6
CONTINUOUS
 10
58.076483733
 20
133.331395936
 11
58.076483733
 21
137.702898551
  0
LINE
  8
1
 62
7
  6
CONTINUOUS
 10
58.176483733
 20
138.202898551
 11
58.076483733
 21
138.202898551
  0
LINE
  8
1
 62
7
  6
CONTINUOUS
 10
58.176483733
 20
137.702898551
 11
58.176483733
 21
138.202898551
  0
ARC
  8
1
 62
7
  6
CONTINUOUS
 10
57.326483733
 20
132.831395936
 40
0.500000000
 50
90.000000000
 51
180.000000000
  0
LINE
  8
1
 62
7
  6
CONTINUOUS
 10
88.776483733
 20
155.052898551
 11
88.676483733
 21
154.952898551
  0
LINE
  8
1
 62
7
  6
CONTINUOUS
 10
88.676483733
 20
183.452898551
 11
88.776483733
 21
183.352898551
  0
LINE
  8
1
 62
7
  6
CONTINUOUS
 10
206.176483732
 20
183.852898551
 11
205.876483732
 21
184.152898551
  0
LINE
  8
1
 62
7
  6
CONTINUOUS
 10
79.776483733
 20
154.952898551
 11
79.776483733
 21
142.902898551
  0
LINE
  8
1
 62
7
  6
CONTINUOUS
 10
205.876483732
 20
154.252898551
 11
206.176483732
 21
154.552898551
  0
LINE
  8
1
 62
7
  6
CONTINUOUS
 10
215.776483732
 20
184.102898551
 11
206.276483732
 21
184.102898551
  0
LINE
  8
1
 62
7
  6
CONTINUOUS
 10
206.276483732
 20
177.102898551
 11
215.776483732
 21
177.102898551
  0
LINE
  8
1
 62
7
  6
CONTINUOUS
 10
217.276483732
 20
184.102898551
 11
216.176483732
 21
184.102898551
  0
LINE
  8
1
 62
7
  6
CONTINUOUS
 10
216.176483732
 20
177.102898551
 11
217.276483732
 21
177.102898551
  0
ARC
  8
1
 62
7
  6
CONTINUOUS
 10
217.276483732
 20
177.602898551
 40
0.500000000
 50
270.000000000
 51
0.000000000
  0
LINE
  8
1
 62
7
  6
CONTINUOUS
 10
79.776483733
 20
154.952898551
 11
88.676483733
 21
154.952898551
  0
ARC
  8
1
 62
7
  6
CONTINUOUS
 10
217.276483732
 20
183.602898551
 40
0.500000000
 50
0.000000000
 51
90.000000000
  0
LINE
  8
1
 62
7
  6
CONTINUOUS
 10
213.176483302
 20
162.952898458
 11
213.176483302
 21
175.452898644
  0
LINE
  8
1
 62
7
  6
CONTINUOUS
 10
213.376483731
 20
162.823266090
 11
213.376483731
 21
162.752898551
  0
LINE
  8
1
 62
7
  6
CONTINUOUS
 10
213.376483731
 20
175.652898551
 11
213.376483731
 21
175.582531011
  0
LINE
  8
1
 62
7
  6
CONTINUOUS
 10
78.776483733
 20
142.802898551
 11
78.776483733
 21
142.502898551
  0
LINE
  8
1
 62
7
  6
CONTINUOUS
 10
79.776483733
 20
142.902898551
 11
79.676483733
 21
142.802898551
  0
ARC
  8
1
 62
7
  6
CONTINUOUS
 10
207.176483731
 20
161.702898551
 40
1.000000000
 50
90.000000000
 51
180.000000000
  0
LINE
  8
1
 62
1
  6
CENTER
 10
203.176483732
 20
180.602898551
 11
300.776483732
 21
180.602898551
  0
LINE
  8
1
 62
7
  6
CONTINUOUS
 10
49.776483733
 20
188.002898551
 11
79.776483733
 21
188.002898551
  0
LINE
  8
1
 62
7
  6
CONTINUOUS
 10
297.776483731
 20
159.952898633
 11
275.176483731
 21
159.952898633
  0
LINE
  8
1
 62
7
  6
CONTINUOUS
 10
275.176483731
 20
159.952898633
 11
275.176483731
 21
178.452898633
  0
LINE
  8
1
 62
7
  6
CONTINUOUS
 10
199.676483732
 20
162.780087640
 11
203.176483732
 21
162.780087640
  0
DIMENSION
  8
1
 62
4
  6
CONTINUOUS
  2
*D80
 70
0
 10
206.176483732
 20
100.831395936
 11
192.276483732
 21
100.831395936
 14
206.176483732
 24
154.552898551
 13
178.376483732
 23
154.252898551
 50
0.000000000
  0
LINE
  8
1
 62
7
  6
CONTINUOUS
 10
178.376483732
 20
184.152898551
 11
178.376483732
 21
154.252898551
  0
LINE
  8
1
 62
7
  6
CONTINUOUS
 10
199.676483732
 20
175.625709462
 11
203.176483732
 21
175.625709462
  0
LINE
  8
1
 62
7
  6
CONTINUOUS
 10
199.676483732
 20
175.625709462
 11
199.676483732
 21
162.780087640
  0
LINE
  8
1
 62
7
  6
CONTINUOUS
 10
203.176483732
 20
175.625709462
 11
203.176483732
 21
162.780087640
  0
LINE
  8
1
 62
7
  6
CONTINUOUS
 10
215.776483732
 20
177.102898551
 11
215.776483732
 21
184.102898551
  0
LINE
  8
1
 62
7
  6
CONTINUOUS
 10
275.176483731
 20
178.452898633
 11
297.776483731
 21
178.452898633
  0
LINE
  8
1
 62
7
  6
CONTINUOUS
 10
206.276483732
 20
177.102898551
 11
206.276483732
 21
184.102898551
  0
LINE
  8
1
 62
7
  6
CONTINUOUS
 10
206.176483732
 20
183.852898551
 11
206.176483732
 21
154.552898551
  0
LINE
  8
1
 62
7
  6
CONTINUOUS
 10
79.776483733
 20
188.002898551
 11
79.776483733
 21
183.452898551
  0
LINE
  8
1
 62
4
  6
CONTINUOUS
 10
293.776483731
 20
177.702898633
 11
293.026483731
 21
178.452898633
  0
LINE
  8
1
 62
7
  6
CONTINUOUS
 10
216.176483732
 20
177.102898551
 11
216.176483732
 21
184.102898551
  0
LINE
  8
1
 62
4
  6
CONTINUOUS
 10
287.776483731
 20
173.202898633
 11
293.026483731
 21
178.452898633
  0
LINE
  8
1
 62
7
  6
CONTINUOUS
 10
217.776483732
 20
183.602898551
 11
217.776483732
 21
177.602898551
  0
ARC
  8
1
 62
7
  6
CONTINUOUS
 10
207.176483731
 20
176.702898551
 40
1.000000000
 50
180.000000000
 51
270.000000000
  0
LINE
  8
1
 62
7
  6
CONTINUOUS
 10
212.976483731
 20
162.702898551
 11
213.176483731
 21
162.902898551
  0
LINE
  8
1
 62
7
  6
CONTINUOUS
 10
213.176483731
 20
175.502898551
 11
212.976483731
 21
175.702898551
  0
LINE
  8
1
 62
7
  6
CONTINUOUS
 10
212.976483731
 20
175.702898551
 11
207.176483731
 21
175.702898551
  0
LINE
  8
1
 62
7
  6
CONTINUOUS
 10
207.176483731
 20
162.702898551
 11
212.976483731
 21
162.702898551
  0
LINE
  8
1
 62
7
  6
CONTINUOUS
 10
213.376483731
 20
166.835938475
 11
213.176483302
 21
167.452898497
  0
LINE
  8
1
 62
7
  6
CONTINUOUS
 10
216.476483731
 20
175.582531011
 11
216.476483731
 21
175.652898551
  0
ARC
  8
1
 62
7
  6
CONTINUOUS
 10
215.095547064
 20
174.399050806
 40
1.818683538
 50
319.403001152
 51
40.596998848
  0
LINE
  8
1
 62
7
  6
CONTINUOUS
 10
216.476483731
 20
171.569858626
 11
216.476483731
 21
173.215570936
  0
ARC
  8
1
 62
7
  6
CONTINUOUS
 10
210.260920713
 20
169.202898551
 40
6.650993756
 50
339.152572343
 51
20.847427657
  0
LINE
  8
1
 62
1
  6
CENTER
 10
46.776483733
 20
169.202898551
 11
308.676483731
 21
169.202898551
  0
LINE
  8
1
 62
1
  6
CENTER
 10
64.776483733
 20
117.831395936
 11
64.776483733
 21
200.002898551
  0
LINE
  8
1
 62
7
  6
CONTINUOUS
 10
216.476483731
 20
165.190226166
 11
216.476483731
 21
166.835938475
  0
ARC
  8
1
 62
7
  6
CONTINUOUS
 10
215.095546771
 20
164.006746296
 40
1.818683760
 50
319.403007145
 51
40.596992855
  0
LINE
  8
1
 62
7
  6
CONTINUOUS
 10
216.476483731
 20
162.752898551
 11
216.476483731
 21
162.823266090
  0
LINE
  8
1
 62
7
  6
CONTINUOUS
 10
217.176483731
 20
174.952898551
 11
217.176483731
 21
163.452898551
  0
LINE
  8
1
 62
7
  6
CONTINUOUS
 10
213.376483731
 20
162.752898551
 11
216.476483731
 21
162.752898551
  0
LINE
  8
1
 62
7
  6
CONTINUOUS
 10
216.476483731
 20
175.652898551
 11
213.376483731
 21
175.652898551
  0
LINE
  8
1
 62
7
  6
CONTINUOUS
 10
213.176483302
 20
162.952898458
 11
213.376483731
 21
162.752898551
  0
LINE
  8
1
 62
7
  6
CONTINUOUS
 10
50.776483733
 20
142.802898551
 11
50.776483733
 21
142.502898551
  0
LINE
  8
1
 62
7
  6
CONTINUOUS
 10
49.776483733
 20
142.902898551
 11
49.876483733
 21
142.802898551
  0
LINE
  8
1
 62
7
  6
CONTINUOUS
 10
49.876483733
 20
142.802898551
 11
79.676483733
 21
142.802898551
  0
LINE
  8
1
 62
7
  6
CONTINUOUS
 10
213.376483731
 20
175.652898551
 11
213.176483302
 21
175.452898644
  0
LINE
  8
1
 62
7
  6
CONTINUOUS
 10
217.176483731
 20
174.952898551
 11
216.476483731
 21
175.652898551
  0
LINE
  8
1
 62
7
  6
CONTINUOUS
 10
216.476483731
 20
162.752898551
 11
217.176483731
 21
163.452898551
  0
LINE
  8
1
 62
7
  6
CONTINUOUS
 10
213.176483302
 20
170.952898605
 11
213.376483731
 21
171.569858626
  0
LINE
  8
1
 62
7
  6
CONTINUOUS
 10
213.376483731
 20
171.569858626
 11
216.476483731
 21
171.569858626
  0
LINE
  8
1
 62
7
  6
CONTINUOUS
 10
216.476483731
 20
166.835938475
 11
213.376483731
 21
166.835938475
  0
LINE
  8
1
 62
7
  6
CONTINUOUS
 10
213.376483731
 20
173.215570936
 11
213.176483302
 21
173.524050895
  0
LINE
  8
1
 62
7
  6
CONTINUOUS
 10
213.376483731
 20
173.215570936
 11
213.376483731
 21
171.569858626
  0
LINE
  8
1
 62
7
  6
CONTINUOUS
 10
213.376483731
 20
166.835938475
 11
213.376483731
 21
165.190226166
  0
LINE
  8
1
 62
7
  6
CONTINUOUS
 10
213.176483302
 20
164.881746206
 11
213.376483731
 21
165.190226166
  0
LINE
  8
1
 62
7
  6
CONTINUOUS
 10
216.476483731
 20
173.215570936
 11
213.376483731
 21
173.215570936
  0
LINE
  8
1
 62
7
  6
CONTINUOUS
 10
213.376483731
 20
165.190226166
 11
216.476483731
 21
165.190226166
  0
LINE
  8
1
 62
7
  6
CONTINUOUS
 10
284.776483731
 20
178.452898633
 11
284.776483731
 21
159.952898633
  0
LINE
  8
1
 62
7
  6
CONTINUOUS
 10
217.176483958
 20
165.202898361
 11
237.776483759
 21
165.202898510
  0
LINE
  8
1
 62
7
  6
CONTINUOUS
 10
213.376483731
 20
162.823266090
 11
213.176483302
 21
163.131745920
  0
LINE
  8
1
 62
7
  6
CONTINUOUS
 10
216.476483731
 20
162.823266090
 11
213.376483731
 21
162.823266090
  0
LINE
  8
1
 62
7
  6
CONTINUOUS
 10
213.176483731
 20
162.902898551
 11
213.176483731
 21
175.502898551
  0
LINE
  8
1
 62
7
  6
CONTINUOUS
 10
213.176483302
 20
175.274051182
 11
213.376483731
 21
175.582531011
  0
LINE
  8
1
 62
7
  6
CONTINUOUS
 10
213.376483731
 20
175.582531011
 11
216.476483731
 21
175.582531011
  0
LINE
  8
1
 62
7
  6
CONTINUOUS
 10
207.176483731
 20
175.702898551
 11
207.176483731
 21
162.702898551
  0
LINE
  8
1
 62
7
  6
CONTINUOUS
 10
178.376483732
 20
154.252898551
 11
205.876483732
 21
154.252898551
  0
LINE
  8
1
 62
7
  6
CONTINUOUS
 10
205.876483732
 20
184.152898551
 11
178.376483732
 21
184.152898551
  0
LINE
  8
1
 62
7
  6
CONTINUOUS
 10
79.776483733
 20
183.452898551
 11
88.676483733
 21
183.452898551
  0
LINE
  8
1
 62
7
  6
CONTINUOUS
 10
49.776483733
 20
188.002898551
 11
49.776483733
 21
142.902898551
  0
LINE
  8
1
 62
7
  6
CONTINUOUS
 10
178.276483732
 20
184.202898551
 11
89.576483733
 21
184.202898551
  0
LINE
  8
1
 62
7
  6
CONTINUOUS
 10
178.276483732
 20
184.202898551
 11
178.376483732
 21
184.102898551
  0
POLYLINE
  8
1
 62
7
  6
CONTINUOUS
 66
1
  0
VERTEX
  8
1
 10
79.773277805
 20
154.952898551
  0
VERTEX
  8
1
 10
79.617323977
 20
155.120726075
 42
0.004776416
  0
VERTEX
  8
1
 10
79.302016776
 20
155.453196000
 42
-0.000499157
  0
VERTEX
  8
1
 10
78.987297397
 20
155.786220973
 42
-0.000099384
  0
VERTEX
  8
1
 10
78.672915522
 20
156.119565291
 42
-0.000207272
  0
VERTEX
  8
1
 10
78.359071287
 20
156.453415518
 42
-0.000196915
  0
VERTEX
  8
1
 10
78.045749139
 20
156.787755814
 42
-0.000200251
  0
VERTEX
  8
1
 10
77.732979050
 20
157.122612656
 42
-0.000223675
  0
VERTEX
  8
1
 10
77.420819094
 20
157.458038397
 42
-0.000240472
  0
VERTEX
  8
1
 10
77.109316845
 20
157.794074975
 42
-0.000259219
  0
VERTEX
  8
1
 10
76.798526926
 20
158.130770652
 42
-0.000281182
  0
VERTEX
  8
1
 10
76.488511681
 20
158.468180439
 42
-0.000307257
  0
VERTEX
  8
1
 10
76.179345792
 20
158.806369003
 42
-0.000335671
  0
VERTEX
  8
1
 10
75.871108208
 20
159.145404348
 42
-0.000364087
  0
VERTEX
  8
1
 10
75.563882762
 20
159.485358263
 42
-0.000401342
  0
VERTEX
  8
1
 10
75.257778940
 20
159.826322451
 42
-0.000443177
  0
VERTEX
  8
1
 10
74.952914638
 20
160.168395140
 42
-0.000485017
  0
VERTEX
  8
1
 10
74.649412055
 20
160.511677820
 42
-0.000537440
  0
VERTEX
  8
1
 10
74.347431704
 20
160.856301013
 42
-0.000600766
  0
VERTEX
  8
1
 10
74.047154215
 20
161.202410490
 42
-0.000664098
  0
VERTEX
  8
1
 10
73.748762865
 20
161.550153756
 42
-0.000737351
  0
VERTEX
  8
1
 10
73.452503361
 20
161.899718760
 42
-0.000843818
  0
VERTEX
  8
1
 10
73.158687145
 20
162.251336039
 42
-0.000950350
  0
VERTEX
  8
1
 10
72.867628835
 20
162.605238184
 42
-0.001057150
  0
VERTEX
  8
1
 10
72.579691612
 20
162.961687990
 42
-0.001222189
  0
VERTEX
  8
1
 10
72.295379048
 20
163.321035550
 42
-0.001397189
  0
VERTEX
  8
1
 10
72.015226347
 20
163.683649621
 42
-0.001595986
  0
VERTEX
  8
1
 10
71.739936173
 20
164.049976788
 42
-0.001877625
  0
VERTEX
  8
1
 10
71.470390488
 20
164.420546961
 42
-0.002159695
  0
VERTEX
  8
1
 10
71.207538254
 20
164.795917763
 42
-0.002549701
  0
VERTEX
  8
1
 10
70.952759530
 20
165.176821785
 42
-0.003029356
  0
VERTEX
  8
1
 10
70.707628517
 20
165.564070235
 42
-0.003511334
  0
VERTEX
  8
1
 10
70.474062797
 20
165.958506909
 42
-0.004298995
  0
VERTEX
  8
1
 10
70.254898315
 20
166.361061983
 42
-0.005137461
  0
VERTEX
  8
1
 10
70.053156386
 20
166.772673851
 42
-0.006072890
  0
VERTEX
  8
1
 10
69.872758495
 20
167.194114219
 42
-0.007372330
  0
VERTEX
  8
1
 10
69.718614293
 20
167.625962303
 42
-0.008679406
  0
VERTEX
  8
1
 10
69.595868544
 20
168.067954371
 42
-0.009968665
  0
VERTEX
  8
1
 10
69.509986065
 20
168.518372914
 42
-0.011325169
  0
VERTEX
  8
1
 10
69.465714594
 20
168.974767464
 42
-0.011978134
  0
VERTEX
  8
1
 10
69.465822600
 20
169.433222322
 42
-0.012302906
  0
VERTEX
  8
1
 10
69.510300781
 20
169.889597055
 42
-0.011677024
  0
VERTEX
  8
1
 10
69.596372635
 20
170.339979828
 42
-0.010638553
  0
VERTEX
  8
1
 10
69.719281611
 20
170.781927079
 42
-0.009306348
  0
VERTEX
  8
1
 10
69.873563377
 20
171.213724403
 42
-0.008022452
  0
VERTEX
  8
1
 10
70.054074997
 20
171.635116302
 42
-0.006713071
  0
VERTEX
  8
1
 10
70.255908285
 20
172.046682729
 42
-0.005553892
  0
VERTEX
  8
1
 10
70.475148813
 20
172.449196696
 42
-0.004713428
  0
VERTEX
  8
1
 10
70.708776278
 20
172.843596783
 42
-0.003878884
  0
VERTEX
  8
1
 10
70.953957275
 20
173.230812929
 42
-0.003267047
  0
VERTEX
  8
1
 10
71.208778388
 20
173.611688536
 42
-0.002787101
  0
VERTEX
  8
1
 10
71.471665541
 20
173.987034779
 42
-0.002312662
  0
VERTEX
  8
1
 10
71.741240843
 20
174.357583372
 42
-0.002017283
  0
VERTEX
  8
1
 10
72.016556370
 20
174.723891514
 42
-0.001735380
  0
VERTEX
  8
1
 10
72.296730404
 20
175.086489004
 42
-0.001483862
  0
VERTEX
  8
1
 10
72.581061577
 20
175.445821822
 42
-0.001308841
  0
VERTEX
  8
1
 10
72.869014876
 20
175.802258638
 42
-0.001133896
  0
VERTEX
  8
1
 10
73.160087140
 20
176.156149292
 42
-0.001003119
  0
VERTEX
  8
1
 10
73.453915798
 20
176.507756196
 42
-0.000896568
  0
VERTEX
  8
1
 10
73.750186241
 20
176.857311935
 42
-0.000790067
  0
VERTEX
  8
1
 10
74.048587117
 20
177.205046988
 42
-0.000695462
  0
VERTEX
  8
1
 10
74.348873195
 20
177.551148997
 42
-0.000632126
  0
VERTEX
  8
1
 10
74.650861261
 20
177.895765427
 42
-0.000568793
  0
VERTEX
  8
1
 10
74.954370686
 20
178.239042051
 42
-0.000506501
  0
VERTEX
  8
1
 10
75.259241173
 20
178.581109228
 42
-0.000463901
  0
VERTEX
  8
1
 10
75.565350637
 20
178.922068354
 42
-0.000422077
  0
VERTEX
  8
1
 10
75.872581221
 20
179.262017620
 42
-0.000380291
  0
VERTEX
  8
1
 10
76.180823542
 20
179.601048649
 42
-0.000349730
  0
VERTEX
  8
1
 10
76.489993720
 20
179.939233291
 42
-0.000321258
  0
VERTEX
  8
1
 10
76.800012653
 20
180.276639691
 42
-0.000292819
  0
VERTEX
  8
1
 10
77.110805876
 20
180.613332319
 42
-0.000270352
  0
VERTEX
  8
1
 10
77.422312083
 20
180.949365221
 42
-0.000249172
  0
VERTEX
  8
1
 10
77.734475352
 20
181.284787877
 42
-0.000230557
  0
VERTEX
  8
1
 10
78.047244780
 20
181.619645348
 42
-0.000213354
  0
VERTEX
  8
1
 10
78.360574873
 20
181.953978194
 42
-0.000197792
  0
VERTEX
  8
1
 10
78.674424500
 20
182.287823360
 42
-0.000183948
  0
VERTEX
  8
1
 10
78.988756465
 20
182.621214475
 42
-0.000171386
  0
VERTEX
  8
1
 10
79.303537407
 20
182.954181695
 42
-0.000159625
  0
VERTEX
  8
1
 10
79.618736297
 20
183.286753181
 42
-0.000149216
  0
VERTEX
  8
1
 10
79.776483733
 20
183.452898551
  0
VERTEX
  8
1
 10
79.776483733
 20
183.452898551
  0
VERTEX
  8
1
 10
79.776483733
 20
183.452898551
  0
VERTEX
  8
1
 10
79.776483733
 20
183.452898551
  0
VERTEX
  8
1
 10
79.776483733
 20
183.452898551
  0
VERTEX
  8
1
 10
79.776483733
 20
183.452898551
  0
VERTEX
  8
1
 10
79.776483733
 20
183.452898551
  0
VERTEX
  8
1
 10
79.776483733
 20
183.452898551
  0
VERTEX
  8
1
 10
79.776483733
 20
183.452898551
  0
VERTEX
  8
1
 10
79.776483733
 20
183.452898551
  0
VERTEX
  8
1
 10
79.776483733
 20
183.452898551
  0
VERTEX
  8
1
 10
79.776483733
 20
183.452898551
  0
VERTEX
  8
1
 10
79.776483733
 20
183.452898551
  0
VERTEX
  8
1
 10
79.776483733
 20
183.452898551
  0
VERTEX
  8
1
 10
79.776483733
 20
183.452898551
  0
VERTEX
  8
1
 10
79.776483733
 20
183.452898551
  0
VERTEX
  8
1
 10
79.776483733
 20
183.452898551
  0
VERTEX
  8
1
 10
79.776483733
 20
183.452898551
  0
VERTEX
  8
1
 10
79.776483733
 20
183.452898551
  0
VERTEX
  8
1
 10
79.776483733
 20
183.452898551
  0
VERTEX
  8
1
 10
79.776483733
 20
183.452898551
  0
VERTEX
  8
1
 10
79.776483733
 20
183.452898551
  0
VERTEX
  8
1
 10
79.776483733
 20
183.452898551
  0
VERTEX
  8
1
 10
79.776483733
 20
183.452898551
  0
VERTEX
  8
1
 10
79.776483733
 20
183.452898551
  0
VERTEX
  8
1
 10
79.776483733
 20
183.452898551
  0
VERTEX
  8
1
 10
79.776483733
 20
183.452898551
  0
VERTEX
  8
1
 10
79.776483733
 20
183.452898551
  0
VERTEX
  8
1
 10
79.776483733
 20
183.452898551
  0
VERTEX
  8
1
 10
79.776483733
 20
183.452898551
  0
VERTEX
  8
1
 10
79.776483733
 20
183.452898551
  0
VERTEX
  8
1
 10
79.776483733
 20
183.452898551
  0
SEQEND
  8
1
  0
LINE
  8
1
 62
7
  6
CONTINUOUS
 10
89.576483733
 20
184.202898551
 11
89.576483733
 21
154.202898551
  0
LINE
  8
1
 62
1
  6
CENTER
 10
79.776483733
 20
174.952898551
 11
79.776483734
 21
163.452898551
  0
LINE
  8
1
 62
7
  6
CONTINUOUS
 10
76.299416003
 20
168.802898551
 11
83.253551464
 21
168.802898551
  0
LINE
  8
1
 62
7
  6
CONTINUOUS
 10
76.299416003
 20
169.602898551
 11
83.253551464
 21
169.602898551
  0
CIRCLE
  8
1
 62
7
  6
CONTINUOUS
 10
79.776483733
 20
169.202898551
 40
3.500000000
  0
CIRCLE
  8
1
 62
7
  6
CONTINUOUS
 10
79.776483733
 20
169.202898551
 40
3.750000000
  0
LINE
  8
1
 62
7
  6
CONTINUOUS
 10
206.176484017
 20
177.852898758
 11
206.276483847
 21
177.852898758
  0
LINE
  8
1
 62
7
  6
CONTINUOUS
 10
206.276483847
 20
183.352898728
 11
206.176484017
 21
183.352898728
  0
LINE
  8
1
 62
7
  6
CONTINUOUS
 10
215.776484473
 20
178.527899008
 11
216.176483794
 21
178.527899008
  0
LINE
  8
1
 62
7
  6
CONTINUOUS
 10
216.176483794
 20
182.677898478
 11
215.776484473
 21
182.677898478
  0
LINE
  8
1
 62
7
  6
CONTINUOUS
 10
261.176483731
 20
173.202898423
 11
241.776483697
 21
173.202898563
  0
LINE
  8
1
 62
1
  6
CONTINUOUS
 10
300.532271363
 20
165.428417921
 11
300.604757815
 21
161.906774503
  0
LINE
  8
1
 62
7
  6
CONTINUOUS
 10
217.776483732
 20
179.002898551
 11
247.776483732
 21
179.002898551
  0
LINE
  8
1
 62
7
  6
CONTINUOUS
 10
217.776483732
 20
182.202898551
 11
247.776483732
 21
182.202898551
  0
DIMENSION
  8
1
 62
4
  6
CONTINUOUS
  2
*D157
 70
0
 10
217.176483731
 20
100.831395936
 11
211.676483732
 21
100.831395936
 14
217.176483731
 24
163.452898551
 13
206.176483732
 23
154.552898551
 50
0.000000000
  0
DIMENSION
  8
1
 62
4
  6
CONTINUOUS
  2
*D158
 70
0
 10
297.776483731
 20
92.831395936
 11
251.976483732
 21
92.831395936
 14
297.776483731
 24
159.952898633
 13
206.176483732
 23
154.552898551
 50
0.000000000
  0
LINE
  8
1
 62
4
  6
CONTINUOUS
 10
199.676483732
 20
175.625709462
 11
203.176483732
 21
162.780087640
  0
LINE
  8
1
 62
4
  6
CONTINUOUS
 10
203.176483732
 20
175.625709462
 11
199.676483732
 21
162.780087640
  0
DIMENSION
  8
1
 62
4
  6
CONTINUOUS
  2
*D161
 70
1
 10
190.135707123
 20
154.252898551
 11
190.135707123
 21
166.820530516
 14
190.135707123
 24
154.252898551
 13
190.135707123
 23
184.152898551
 50
90.000000000
  0
ARC
  8
1
 62
7
  6
CONTINUOUS
 10
223.896327525
 20
169.202898551
 40
25.057001683
 50
165.147710869
 51
194.852289131
  0
ARC
  8
1
 62
7
  6
CONTINUOUS
 10
178.956639940
 20
169.202898551
 40
25.057001683
 50
345.147710869
 51
14.852289131
  0
LINE
  8
1
 62
7
  6
CONTINUOUS
 10
278.776483731
 20
178.452898633
 11
278.776483731
 21
159.952898633
  0
LINE
  8
1
 62
4
  6
CONTINUOUS
 10
287.776483731
 20
177.202898633
 11
289.026483731
 21
178.452898633
  0
LINE
  8
1
 62
4
  6
CONTINUOUS
 10
291.526483731
 20
159.952898633
 11
287.776483731
 21
163.702898633
  0
LINE
  8
1
 62
4
  6
CONTINUOUS
 10
290.526483731
 20
159.952898633
 11
293.776483731
 21
163.202898633
  0
LINE
  8
1
 62
4
  6
CONTINUOUS
 10
293.776483731
 20
161.702898633
 11
287.776483731
 21
167.702898633
  0
LINE
  8
1
 62
4
  6
CONTINUOUS
 10
287.776483731
 20
161.202898633
 11
293.776483731
 21
167.202898633
  0
LINE
  8
1
 62
4
  6
CONTINUOUS
 10
293.776483731
 20
165.702898633
 11
287.776483731
 21
171.702898633
  0
LINE
  8
1
 62
4
  6
CONTINUOUS
 10
287.776483731
 20
165.202898633
 11
293.776483731
 21
171.202898633
  0
LINE
  8
1
 62
4
  6
CONTINUOUS
 10
293.776483731
 20
169.702898633
 11
287.776483731
 21
175.702898633
  0
LINE
  8
1
 62
4
  6
CONTINUOUS
 10
287.776483731
 20
169.202898633
 11
293.776483731
 21
175.202898633
  0
LINE
  8
1
 62
4
  6
CONTINUOUS
 10
293.776483731
 20
173.702898633
 11
289.026483731
 21
178.452898633
  0
LINE
  8
1
 62
7
  6
CONTINUOUS
 10
287.776483731
 20
178.452898633
 11
287.776483731
 21
159.952898633
  0
LINE
  8
1
 62
7
  6
CONTINUOUS
 10
293.776483731
 20
178.452898633
 11
293.776483731
 21
159.952898633
  0
LINE
  8
1
 62
1
  6
CONTINUOUS
 10
298.416826594
 20
176.499022763
 11
298.489313046
 21
172.977379345
  0
LINE
  8
1
 62
7
  6
CONTINUOUS
 10
297.776483731
 20
178.452898633
 11
297.776483731
 21
159.952898633
  0
LINE
  8
1
 62
1
  6
CONTINUOUS
 10
298.644694316
 20
165.428417921
 11
298.717180768
 21
161.906774503
  0
LINE
  8
1
 62
4
  6
CONTINUOUS
 10
284.776483731
 20
173.702898633
 11
280.026483731
 21
178.452898633
  0
LINE
  8
1
 62
4
  6
CONTINUOUS
 10
278.776483731
 20
169.202898633
 11
284.776483731
 21
175.202898633
  0
LINE
  8
1
 62
4
  6
CONTINUOUS
 10
284.776483731
 20
169.702898633
 11
278.776483731
 21
175.702898633
  0
LINE
  8
1
 62
4
  6
CONTINUOUS
 10
278.776483731
 20
165.202898633
 11
284.776483731
 21
171.202898633
  0
LINE
  8
1
 62
4
  6
CONTINUOUS
 10
284.776483731
 20
165.702898633
 11
278.776483731
 21
171.702898633
  0
LINE
  8
1
 62
4
  6
CONTINUOUS
 10
278.776483731
 20
161.202898633
 11
284.776483731
 21
167.202898633
  0
LINE
  8
1
 62
4
  6
CONTINUOUS
 10
284.776483731
 20
161.702898633
 11
278.776483731
 21
167.702898633
  0
LINE
  8
1
 62
4
  6
CONTINUOUS
 10
281.526483731
 20
159.952898633
 11
284.776483731
 21
163.202898633
  0
LINE
  8
1
 62
4
  6
CONTINUOUS
 10
282.526483731
 20
159.952898633
 11
278.776483731
 21
163.702898633
  0
LINE
  8
1
 62
4
  6
CONTINUOUS
 10
278.776483731
 20
177.202898633
 11
280.026483731
 21
178.452898633
  0
LINE
  8
1
 62
4
  6
CONTINUOUS
 10
278.776483731
 20
173.202898633
 11
284.026483731
 21
178.452898633
  0
LINE
  8
1
 62
4
  6
CONTINUOUS
 10
284.776483731
 20
177.702898633
 11
284.026483731
 21
178.452898633
  0
LINE
  8
1
 62
7
  6
CONTINUOUS
 10
275.176483731
 20
177.502898633
 11
264.176483731
 21
177.502898633
  0
LINE
  8
1
 62
7
  6
CONTINUOUS
 10
261.176483731
 20
174.502898633
 11
261.176483731
 21
163.902898633
  0
LINE
  8
1
 62
7
  6
CONTINUOUS
 10
264.176483731
 20
160.902898633
 11
275.176483731
 21
160.902898633
  0
LINE
  8
1
 62
7
  6
CONTINUOUS
 10
264.176483731
 20
174.969396704
 11
264.176483731
 21
163.436400562
  0
ARC
  8
1
 62
7
  6
CONTINUOUS
 10
264.176483731
 20
163.902898633
 40
3.000000000
 50
180.000000000
 51
270.000000000
  0
ARC
  8
1
 62
7
  6
CONTINUOUS
 10
264.176483731
 20
174.502898633
 40
3.000000000
 50
90.000000000
 51
180.000000000
  0
ARC
  8
1
 62
7
  6
CONTINUOUS
 10
268.218567064
 20
169.202898633
 40
7.042083333
 50
125.028911263
 51
234.971088737
  0
ARC
  8
1
 62
7
  6
CONTINUOUS
 10
265.400928101
 20
167.076483193
 40
0.724444370
 50
90.000000000
 51
270.000000000
  0
LINE
  8
1
 62
7
  6
CONTINUOUS
 10
275.176483731
 20
167.800927563
 11
265.400928101
 21
167.800927563
  0
LINE
  8
1
 62
7
  6
CONTINUOUS
 10
275.176483731
 20
172.053758442
 11
265.400928101
 21
172.053758442
  0
LINE
  8
1
 62
7
  6
CONTINUOUS
 10
275.176483731
 20
170.604869703
 11
265.400928101
 21
170.604869703
  0
ARC
  8
1
 62
7
  6
CONTINUOUS
 10
265.400928101
 20
171.329314072
 40
0.724444370
 50
90.000000000
 51
270.000000000
  0
LINE
  8
1
 62
7
  6
CONTINUOUS
 10
275.176483731
 20
166.352038823
 11
265.400928101
 21
166.352038823
  0
LINE
  8
1
 62
7
  6
CONTINUOUS
 10
275.176483731
 20
174.482043566
 11
265.206813817
 21
174.482043566
  0
LINE
  8
1
 62
7
  6
CONTINUOUS
 10
275.176483731
 20
175.542703738
 11
265.206813817
 21
175.542703738
  0
ARC
  8
1
 62
7
  6
CONTINUOUS
 10
265.206813817
 20
175.012373652
 40
0.530330086
 50
90.000000000
 51
270.000000000
  0
LINE
  8
1
 62
7
  6
CONTINUOUS
 10
275.176483731
 20
176.944674808
 11
264.870598015
 21
176.944674808
  0
LINE
  8
1
 62
7
  6
CONTINUOUS
 10
275.176483731
 20
177.332903376
 11
264.870598015
 21
177.332903376
  0
ARC
  8
1
 62
7
  6
CONTINUOUS
 10
264.870598015
 20
177.138789092
 40
0.194114284
 50
90.000000000
 51
270.000000000
  0
LINE
  8
1
 62
7
  6
CONTINUOUS
 10
275.176483731
 20
163.923753699
 11
265.206813817
 21
163.923753699
  0
LINE
  8
1
 62
7
  6
CONTINUOUS
 10
275.176483731
 20
162.863093528
 11
265.206813817
 21
162.863093528
  0
ARC
  8
1
 62
7
  6
CONTINUOUS
 10
265.206813817
 20
163.393423613
 40
0.530330086
 50
90.000000000
 51
270.000000000
  0
LINE
  8
1
 62
7
  6
CONTINUOUS
 10
275.176483731
 20
161.461122458
 11
264.870598015
 21
161.461122458
  0
LINE
  8
1
 62
7
  6
CONTINUOUS
 10
275.176483731
 20
161.072893890
 11
264.870598015
 21
161.072893890
  0
ARC
  8
1
 62
7
  6
CONTINUOUS
 10
264.870598015
 20
161.267008174
 40
0.194114284
 50
90.000000000
 51
270.000000000
  0
LINE
  8
1
 62
7
  6
CONTINUOUS
 10
298.150907653
 20
161.252898633
 11
298.339665358
 21
161.252898633
  0
LINE
  8
1
 62
7
  6
CONTINUOUS
 10
301.076483731
 20
162.452898633
 11
305.676483731
 21
162.452898633
  0
LINE
  8
1
 62
7
  6
CONTINUOUS
 10
305.676483731
 20
162.452898633
 11
305.676483731
 21
175.952898633
  0
LINE
  8
1
 62
7
  6
CONTINUOUS
 10
305.676483731
 20
175.952898633
 11
301.076483731
 21
175.952898633
  0
LINE
  8
1
 62
7
  6
CONTINUOUS
 10
300.604757815
 20
161.906774503
 11
300.227242405
 21
161.252898633
  0
LINE
  8
1
 62
1
  6
CONTINUOUS
 10
300.304403641
 20
176.499022763
 11
300.376890093
 21
172.977379345
  0
LINE
  8
1
 62
7
  6
CONTINUOUS
 10
300.809523289
 20
161.552110298
 11
300.604757815
 21
161.906774503
  0
LINE
  8
1
 62
7
  6
CONTINUOUS
 10
300.038484701
 20
161.252898633
 11
299.660969291
 21
161.906774503
  0
LINE
  8
1
 62
7
  6
CONTINUOUS
 10
299.660969291
 20
161.906774503
 11
299.283453882
 21
161.252898633
  0
LINE
  8
1
 62
7
  6
CONTINUOUS
 10
300.038484701
 20
161.252898633
 11
300.227242405
 21
161.252898633
  0
LINE
  8
1
 62
7
  6
CONTINUOUS
 10
298.717180768
 20
161.906774503
 11
298.339665358
 21
161.252898633
  0
LINE
  8
1
 62
7
  6
CONTINUOUS
 10
300.809523289
 20
161.552110298
 11
301.076483731
 21
161.819070740
  0
LINE
  8
1
 62
7
  6
CONTINUOUS
 10
301.076483731
 20
176.586726526
 11
300.619106373
 21
177.044103884
  0
LINE
  8
1
 62
7
  6
CONTINUOUS
 10
299.738130527
 20
177.152898633
 11
299.926888232
 21
177.152898633
  0
LINE
  8
1
 62
7
  6
CONTINUOUS
 10
297.776483731
 20
177.152898633
 11
298.039311184
 21
177.152898633
  0
LINE
  8
1
 62
7
  6
CONTINUOUS
 10
298.794342003
 20
177.152898633
 11
298.983099708
 21
177.152898633
  0
LINE
  8
1
 62
7
  6
CONTINUOUS
 10
299.094696177
 20
161.252898633
 11
298.717180768
 21
161.906774503
  0
LINE
  8
1
 62
7
  6
CONTINUOUS
 10
298.150907653
 20
161.252898633
 11
297.773392244
 21
161.906774503
  0
LINE
  8
1
 62
7
  6
CONTINUOUS
 10
300.304403641
 20
176.499022763
 11
299.926888232
 21
177.152898633
  0
LINE
  8
1
 62
7
  6
CONTINUOUS
 10
300.619106373
 20
177.044103884
 11
300.304403641
 21
176.499022763
  0
LINE
  8
1
 62
7
  6
CONTINUOUS
 10
299.360615117
 20
176.499022763
 11
298.983099708
 21
177.152898633
  0
LINE
  8
1
 62
7
  6
CONTINUOUS
 10
301.076483731
 20
161.819070740
 11
301.076483731
 21
176.586726526
  0
LINE
  8
1
 62
7
  6
CONTINUOUS
 10
299.360615117
 20
176.499022763
 11
299.660969291
 21
161.906774503
  0
LINE
  8
1
 62
7
  6
CONTINUOUS
 10
299.738130527
 20
177.152898633
 11
299.360615117
 21
176.499022763
  0
LINE
  8
1
 62
7
  6
CONTINUOUS
 10
298.416826594
 20
176.499022763
 11
298.039311184
 21
177.152898633
  0
LINE
  8
1
 62
7
  6
CONTINUOUS
 10
298.794342003
 20
177.152898633
 11
298.416826594
 21
176.499022763
  0
LINE
  8
1
 62
7
  6
CONTINUOUS
 10
299.094696177
 20
161.252898633
 11
299.283453882
 21
161.252898633
  0
DIMENSION
  8
1
 62
4
  6
CONTINUOUS
  2
*D244
 70
1
 10
317.676483731
 20
159.952898633
 11
317.676483731
 21
169.202898633
 14
297.776483731
 24
159.952898633
 13
297.776483731
 23
178.452898633
 50
90.000000000
  0
LINE
  8
1
 62
7
  6
CONTINUOUS
 10
297.776483732
 20
182.202898551
 11
297.776483732
 21
179.002898551
  0
DIMENSION
  8
1
 62
4
  6
CONTINUOUS
  2
*D246
 70
0
 10
178.376483732
 20
100.831395936
 11
121.576483733
 21
100.831395936
 14
178.376483732
 24
154.252898551
 13
64.776483733
 23
117.831395936
 50
0.000000000
  0
DIMENSION
  8
1
 62
4
  6
CONTINUOUS
  2
*D247
 70
0
 10
206.176483732
 20
92.831395936
 11
135.476483733
 21
92.831395936
 14
206.176483732
 24
154.552898551
 13
64.776483733
 23
117.831395936
 50
0.000000000
  0
LINE
  8
1
 62
7
  6
CONTINUOUS
 10
56.826483733
 20
125.281395936
 11
72.726483733
 21
125.281395936
  0
LINE
  8
1
 62
7
  6
CONTINUOUS
 10
56.826483733
 20
124.996459446
 11
72.726483733
 21
124.996459446
  0
LINE
  8
1
 62
7
  6
CONTINUOUS
 10
57.776483733
 20
128.281395936
 11
61.007863296
 21
128.281395936
  0
LINE
  8
1
 62
7
  6
CONTINUOUS
 10
57.776483733
 20
125.781395936
 11
61.007863296
 21
125.781395936
  0
LINE
  8
1
 62
7
  6
CONTINUOUS
 10
59.487808599
 20
121.331395936
 11
70.065158868
 21
121.331395936
  0
LINE
  8
1
 62
7
  6
CONTINUOUS
 10
56.826483733
 20
128.781395936
 11
72.726483733
 21
128.781395936
  0
LINE
  8
1
 62
4
  6
CONTINUOUS
 10
61.257863296
 20
125.531395936
 11
68.295104171
 21
128.531395936
  0
LINE
  8
1
 62
7
  6
CONTINUOUS
 10
56.826483733
 20
132.831395936
 11
72.726483733
 21
132.831395936
  0
LINE
  8
1
 62
4
  6
CONTINUOUS
 10
61.257863296
 20
128.531395936
 11
68.295104171
 21
125.531395936
  0
LINE
  8
1
 62
7
  6
CONTINUOUS
 10
68.545104171
 20
128.281395936
 11
68.295104171
 21
128.531395936
  0
LINE
  8
1
 62
7
  6
CONTINUOUS
 10
68.545104171
 20
125.781395936
 11
68.295104171
 21
125.531395936
  0
LINE
  8
1
 62
7
  6
CONTINUOUS
 10
71.776483733
 20
125.781395936
 11
68.545104171
 21
125.781395936
  0
LINE
  8
1
 62
7
  6
CONTINUOUS
 10
71.776483733
 20
128.281395936
 11
68.545104171
 21
128.281395936
  0
LINE
  8
1
 62
7
  6
CONTINUOUS
 10
61.007863296
 20
125.781395936
 11
61.257863296
 21
125.531395936
  0
LINE
  8
1
 62
7
  6
CONTINUOUS
 10
61.007863296
 20
128.281395936
 11
61.257863296
 21
128.531395936
  0
DIMENSION
  8
1
 62
4
  6
CONTINUOUS
  2
*D263
 70
1
 10
72.726483733
 20
108.831395936
 11
46.682421233
 21
108.831395936
 14
72.726483733
 24
124.996459446
 13
56.826483733
 23
124.996459446
 50
0.000000000
  0
LINE
  8
1
 62
4
  6
CONTINUOUS
 10
61.794873430
 20
134.402898551
 11
67.758094037
 21
137.402898551
  0
LINE
  8
1
 62
4
  6
CONTINUOUS
 10
61.794873430
 20
137.402898551
 11
67.758094037
 21
134.402898551
  0
DIMENSION
  8
1
 62
4
  6
CONTINUOUS
  2
*D266
 70
0
 10
178.376483732
 20
108.831395936
 11
133.976483733
 21
108.831395936
 14
178.376483732
 24
154.252898551
 13
89.576483733
 23
154.202898551
 50
0.000000000
  0
DIMENSION
  8
1
 62
4
  6
CONTINUOUS
  2
*D267
 70
0
 10
29.776483733
 20
138.202898551
 11
29.776483733
 21
129.517147244
 14
50.276483733
 24
138.202898551
 13
59.653834003
 23
120.831395936
 50
90.000000000
  0
DIMENSION
  8
1
 62
4
  6
CONTINUOUS
  2
*D268
 70
0
 10
37.776483733
 20
169.202898551
 11
37.776483733
 21
153.702898551
 14
46.776483733
 24
169.202898551
 13
50.276483733
 23
138.202898551
 50
90.000000000
  0
DIMENSION
  8
1
 62
4
  6
CONTINUOUS
  2
*D269
 70
0
 10
29.776483733
 20
197.002898551
 11
29.776483733
 21
167.602898551
 14
51.876483733
 24
197.002898551
 13
50.276483733
 23
138.202898551
 50
90.000000000
  0
DIMENSION
  8
1
 62
4
  6
CONTINUOUS
  2
*D270
 70
1
 10
79.776483733
 20
148.802898551
 11
65.980175012
 21
148.802898551
 14
79.776483733
 24
148.802898551
 13
49.776483733
 23
148.802898551
 50
0.000000000
  0
TEXT
  8
1
 62
3
  6
CONTINUOUS
 72
5
 10
117.676483733
 20
78.847395936
 40
4.000000000
  1
ＥＭＡ－３０２０Ｋ
 41
0.834566215
 11
152.876483733
 21
78.847395936
  0
INSERT
  8
1
 62
4
  6
CONTINUOUS
  2
blk272
 10
240.276483741
 20
167.202898580
 41
2.499999996
 42
2.499999977
 50
179.999999586
  0
INSERT
  8
1
 62
4
  6
CONTINUOUS
  2
blk273
 10
243.276483736
 20
167.202898558
 41
2.499999996
 42
2.499999977
 50
179.999999586
  0
DIMENSION
  8
1
 62
4
  6
CONTINUOUS
  2
*D274
 70
1
 10
109.576483733
 20
154.202898551
 11
109.576483733
 21
168.996443649
 14
109.576483733
 24
154.202898551
 13
109.576483733
 23
184.202898551
 50
90.000000000
  0
INSERT
  8
1
 62
4
  6
CONTINUOUS
  2
blk275
 10
243.276483708
 20
171.202898522
 41
2.499999996
 42
2.499999977
 50
179.999999586
  0
ARC
  8
1
 62
4
  6
CONTINUOUS
 10
236.276483721
 20
171.202898536
 40
2.499999996
 50
306.869898060
 51
53.130102768
  0
ARC
  8
1
 62
4
  6
CONTINUOUS
 10
239.276483716
 20
171.202898558
 40
2.499999996
 50
126.869898060
 51
233.130102768
  0
ARC
  8
1
 62
4
  6
CONTINUOUS
 10
236.276483748
 20
167.202898543
 40
2.499999996
 50
306.869898060
 51
53.130102768
  0
ARC
  8
1
 62
4
  6
CONTINUOUS
 10
249.976483732
 20
181.402898551
 40
1.000000000
 50
126.869897646
 51
233.130102354
  0
ARC
  8
1
 62
4
  6
CONTINUOUS
 10
248.776483732
 20
179.802898551
 40
1.000000000
 50
306.869897646
 51
53.130102354
  0
ARC
  8
1
 62
4
  6
CONTINUOUS
 10
249.976483732
 20
179.802898551
 40
1.000000000
 50
126.869897646
 51
233.130102354
  0
ARC
  8
1
 62
4
  6
CONTINUOUS
 10
247.176483732
 20
179.802898551
 40
1.000000000
 50
306.869897646
 51
53.130102354
  0
ARC
  8
1
 62
4
  6
CONTINUOUS
 10
248.376483732
 20
181.402898551
 40
1.000000000
 50
126.869897646
 51
233.130102354
  0
ARC
  8
1
 62
4
  6
CONTINUOUS
 10
247.176483732
 20
181.402898551
 40
1.000000000
 50
306.869897646
 51
53.130102354
  0
LINE
  8
1
 62
7
  6
CONTINUOUS
 10
249.376483732
 20
182.202898551
 11
297.776483732
 21
182.202898551
  0
LINE
  8
1
 62
7
  6
CONTINUOUS
 10
249.376483732
 20
179.002898551
 11
297.776483732
 21
179.002898551
  0
LINE
  8
1
 62
7
  6
CONTINUOUS
 10
237.776483705
 20
173.202898592
 11
217.176483958
 21
173.202898741
  0
LINE
  8
1
 62
7
  6
CONTINUOUS
 10
241.776483752
 20
165.202898538
 11
261.176483731
 21
165.202898679
  0
ENDSEC
  0
EOF
