  0
SECTION
  2
HEADER
  9
$ACADVER
  1
AC1009
  9
$INSBASE
 10
0.000000000
 20
0.000000000
  9
$EXTMIN
 10
-32.589420290
 20
-20.983961038
  9
$EXTMAX
 10
358.483623187
 20
230.823571416
  9
$LIMMIN
 10
-32.589420290
 20
-20.983961038
  9
$LIMMAX
 10
358.483623187
 20
230.823571416
  9
$SNAPBASE
 10
0.000000000
 20
0.000000000
  9
$SNAPANG
 50
0.000000000
  9
$SNAPSTYLE
 70
0
  9
$GRIDMODE
 70
0
  9
$GRIDUNIT
 10
0.000000000
 20
0.000000000
  9
$DIMEXO
 40
0.000000000
  9
$DIMDLI
 40
8.000000000
  9
$DIMDLE
 40
0.000000000
  9
$DIMEXE
 40
1.000000000
  9
$DIMTIH
 70
1
  9
$DIMTOH
 70
1
  9
$DIMTAD
 70
2
  9
$DIMZIN
 70
0
  9
$FILLETRAD
 40
1.000000000
  9
$CHAMFERA
 40
1.000000000
  9
$CHAMFERB
 40
1.000000000
  9
$TDCREATE
 40
2454634.373518519
  9
$TDUPDATE
 40
2454634.373518519
  9
$ANGBASE
 50
0.000000000
  9
$ANGDIR
 70
0
  0
ENDSEC
  0
SECTION
  2
TABLES
  0
TABLE
  2
LTYPE
 70
3
  0
LTYPE
  2
CENTER
 70
64
  3
___ _ ___ _ __
 72
65
 73
4
 40
13.000000000
 49
8.500000000
 49
-1.500000000
 49
1.500000000
 49
-1.500000000
  0
LTYPE
  2
CONTINUOUS
 70
64
  3
______________
 72
65
 73
0
 40
0.000000000
  0
LTYPE
  2
DIVIDE
 70
64
  3
___ . . ___ . 
 72
65
 73
6
 40
12.999999523
 49
5.199999809
 49
-2.599999905
 49
0.000000000
 49
-2.599999905
 49
0.000000000
 49
-2.599999905
  0
ENDTAB
  0
TABLE
  2
LAYER
 70
1
  0
LAYER
  2
1
 70
0
 62
7
  6
CONTINUOUS
  0
LAYER
  2
_CONSTR
 70
0
 62
5
  6
CONTINUOUS
  0
ENDTAB
  0
TABLE
  2
STYLE
 70
1
  0
STYLE
  2
STANDARD
 70
64
 40
0.000000000
 41
1.000000000
 50
0.000000000
 71
0
 42
3.200000000
  3
TXT
  4
EXTFONT
  0
ENDTAB
  0
TABLE
  2
VIEW
 70
0
  0
ENDTAB
  0
ENDSEC
  0
SECTION
  2
BLOCKS
  0
BLOCK
  8
0
  2
*D147
 70
65
 10
0.000000000
 20
0.000000000
  3
*D
  0
TEXT
  8
1
 62
4
  6
CONTINUOUS
 72
5
 10
57.817700294
 20
176.819408696
 40
2.800000000
  1
φ
 41
1.270648030
 50
90.000000000
 11
57.817700294
 21
180.179408696
  0
TEXT
  8
1
 62
4
  6
CONTINUOUS
 72
5
 10
57.817700294
 20
181.859408696
 40
2.800000000
  1
30
 41
1.000000667
 50
90.000000000
 11
57.817700294
 21
186.059408696
  0
TEXT
  8
1
 62
4
  6
CONTINUOUS
 72
5
 10
56.053700294
 20
186.899408696
 40
1.400000000
  1
 0
 41
2.333335926
 50
90.000000000
 11
56.053700294
 21
189.839408696
  0
TEXT
  8
1
 62
4
  6
CONTINUOUS
 72
5
 10
58.195700294
 20
186.899408696
 40
1.400000000
  1
-0.01
 41
1.710000684
 50
90.000000000
 11
58.195700294
 21
194.879408696
  0
LINE
  8
1
 62
4
  6
CONTINUOUS
 10
94.694202898
 20
199.782608696
 11
58.022700294
 21
199.782608696
  0
POLYLINE
  8
1
 62
4
  6
CONTINUOUS
 66
1
  0
VERTEX
  8
1
 10
60.322700294
 20
197.782608696
  0
VERTEX
  8
1
 10
60.022700294
 20
199.782608696
  0
VERTEX
  8
1
 10
59.722700294
 20
197.782608696
  0
SEQEND
  8
1
  0
LINE
  8
1
 62
4
  6
CONTINUOUS
 10
60.022700294
 20
199.782608696
 11
60.022700294
 21
169.782608696
  0
POLYLINE
  8
1
 62
4
  6
CONTINUOUS
 66
1
  0
VERTEX
  8
1
 10
59.722700294
 20
171.782608696
  0
VERTEX
  8
1
 10
60.022700294
 20
169.782608696
  0
VERTEX
  8
1
 10
60.322700294
 20
171.782608696
  0
SEQEND
  8
1
  0
LINE
  8
1
 62
4
  6
CONTINUOUS
 10
94.694202898
 20
169.782608696
 11
58.022700294
 21
169.782608696
  0
ENDBLK
  8
0
  0
BLOCK
  8
0
  2
*D148
 70
65
 10
0.000000000
 20
0.000000000
  3
*D
  0
TEXT
  8
1
 62
4
  6
CONTINUOUS
 72
5
 10
65.817700294
 20
177.651008696
 40
2.800000000
  1
φ
 41
1.270648030
 50
90.000000000
 11
65.817700294
 21
181.011008696
  0
TEXT
  8
1
 62
4
  6
CONTINUOUS
 72
5
 10
65.817700294
 20
182.691008696
 40
2.800000000
  1
11.8
 41
1.414284098
 50
90.000000000
 11
65.817700294
 21
191.931008696
  0
LINE
  8
1
 62
4
  6
CONTINUOUS
 10
79.581546021
 20
190.682608696
 11
66.022700294
 21
190.682608696
  0
POLYLINE
  8
1
 62
4
  6
CONTINUOUS
 66
1
  0
VERTEX
  8
1
 10
68.322700294
 20
188.682608696
  0
VERTEX
  8
1
 10
68.022700294
 20
190.682608696
  0
VERTEX
  8
1
 10
67.722700294
 20
188.682608696
  0
SEQEND
  8
1
  0
LINE
  8
1
 62
4
  6
CONTINUOUS
 10
68.022700294
 20
190.682608696
 11
68.022700294
 21
178.882608696
  0
POLYLINE
  8
1
 62
4
  6
CONTINUOUS
 66
1
  0
VERTEX
  8
1
 10
67.722700294
 20
180.882608696
  0
VERTEX
  8
1
 10
68.022700294
 20
178.882608696
  0
VERTEX
  8
1
 10
68.322700294
 20
180.882608696
  0
SEQEND
  8
1
  0
LINE
  8
1
 62
4
  6
CONTINUOUS
 10
79.581546021
 20
178.882608696
 11
66.022700294
 21
178.882608696
  0
ENDBLK
  8
0
  0
BLOCK
  8
0
  2
*D149
 70
65
 10
0.000000000
 20
0.000000000
  3
*D
  0
TEXT
  8
1
 62
4
  6
CONTINUOUS
 72
5
 10
76.226851602
 20
143.987608696
 40
2.800000000
  1
(
 41
1.800001800
 11
77.906851602
 21
143.987608696
  0
TEXT
  8
1
 62
4
  6
CONTINUOUS
 72
5
 10
78.746851602
 20
143.987608696
 40
2.800000000
  1
14.7
 41
1.237498917
 11
87.986851602
 21
143.987608696
  0
TEXT
  8
1
 62
4
  6
CONTINUOUS
 72
5
 10
88.826851602
 20
143.987608696
 40
2.800000000
  1
)
 41
1.800001800
 11
90.506851602
 21
143.987608696
  0
LINE
  8
1
 62
4
  6
CONTINUOUS
 10
76.022700294
 20
181.359958965
 11
76.022700294
 21
139.782608696
  0
POLYLINE
  8
1
 62
4
  6
CONTINUOUS
 66
1
  0
VERTEX
  8
1
 10
78.022700294
 20
142.082608696
  0
VERTEX
  8
1
 10
76.022700294
 20
141.782608696
  0
VERTEX
  8
1
 10
78.022700294
 20
141.482608696
  0
SEQEND
  8
1
  0
LINE
  8
1
 62
4
  6
CONTINUOUS
 10
76.022700294
 20
141.782608696
 11
90.694202910
 21
141.782608696
  0
POLYLINE
  8
1
 62
4
  6
CONTINUOUS
 66
1
  0
VERTEX
  8
1
 10
88.694202910
 20
141.482608696
  0
VERTEX
  8
1
 10
90.694202910
 20
141.782608696
  0
VERTEX
  8
1
 10
88.694202910
 20
142.082608696
  0
SEQEND
  8
1
  0
LINE
  8
1
 62
4
  6
CONTINUOUS
 10
90.694202910
 20
170.182608696
 11
90.694202910
 21
139.782608696
  0
ENDBLK
  8
0
  0
BLOCK
  8
0
  2
*D150
 70
65
 10
0.000000000
 20
0.000000000
  3
*D
  0
TEXT
  8
1
 62
4
  6
CONTINUOUS
 72
5
 10
144.152602904
 20
143.987608696
 40
2.800000000
  1
(
 41
1.800001800
 11
145.832602904
 21
143.987608696
  0
TEXT
  8
1
 62
4
  6
CONTINUOUS
 72
5
 10
146.672602904
 20
143.987608696
 40
2.800000000
  1
123.7
 41
1.145453817
 11
158.432602904
 21
143.987608696
  0
TEXT
  8
1
 62
4
  6
CONTINUOUS
 72
5
 10
159.272602904
 20
143.987608696
 40
2.800000000
  1
)
 41
1.800001800
 11
160.952602904
 21
143.987608696
  0
POLYLINE
  8
1
 62
4
  6
CONTINUOUS
 66
1
  0
VERTEX
  8
1
 10
92.694202910
 20
142.082608696
  0
VERTEX
  8
1
 10
90.694202910
 20
141.782608696
  0
VERTEX
  8
1
 10
92.694202910
 20
141.482608696
  0
SEQEND
  8
1
  0
LINE
  8
1
 62
4
  6
CONTINUOUS
 10
90.694202910
 20
141.782608696
 11
214.394202899
 21
141.782608696
  0
POLYLINE
  8
1
 62
4
  6
CONTINUOUS
 66
1
  0
VERTEX
  8
1
 10
212.394202899
 20
141.482608696
  0
VERTEX
  8
1
 10
214.394202899
 20
141.782608696
  0
VERTEX
  8
1
 10
212.394202899
 20
142.082608696
  0
SEQEND
  8
1
  0
LINE
  8
1
 62
4
  6
CONTINUOUS
 10
214.394202899
 20
170.132608696
 11
214.394202899
 21
139.782608696
  0
ENDBLK
  8
0
  0
BLOCK
  8
0
  2
*D151
 70
65
 10
0.000000000
 20
0.000000000
  3
*D
  0
TEXT
  8
1
 62
4
  6
CONTINUOUS
 72
5
 10
215.282602898
 20
151.987608696
 40
2.800000000
  1
(
 41
1.800001800
 11
216.962602898
 21
151.987608696
  0
TEXT
  8
1
 62
4
  6
CONTINUOUS
 72
5
 10
217.802602898
 20
151.987608696
 40
2.800000000
  1
11
 41
1.500000000
 11
222.002602898
 21
151.987608696
  0
TEXT
  8
1
 62
4
  6
CONTINUOUS
 72
5
 10
222.842602898
 20
151.987608696
 40
2.800000000
  1
)
 41
1.800001800
 11
224.522602898
 21
151.987608696
  0
POLYLINE
  8
1
 62
4
  6
CONTINUOUS
 66
1
  0
VERTEX
  8
1
 10
216.394202899
 20
150.082608696
  0
VERTEX
  8
1
 10
214.394202899
 20
149.782608696
  0
VERTEX
  8
1
 10
216.394202899
 20
149.482608696
  0
SEQEND
  8
1
  0
LINE
  8
1
 62
4
  6
CONTINUOUS
 10
214.394202899
 20
149.782608696
 11
225.394202898
 21
149.782608696
  0
POLYLINE
  8
1
 62
4
  6
CONTINUOUS
 66
1
  0
VERTEX
  8
1
 10
223.394202898
 20
149.482608696
  0
VERTEX
  8
1
 10
225.394202898
 20
149.782608696
  0
VERTEX
  8
1
 10
223.394202898
 20
150.082608696
  0
SEQEND
  8
1
  0
LINE
  8
1
 62
4
  6
CONTINUOUS
 10
225.394202898
 20
179.032608696
 11
225.394202898
 21
147.782608696
  0
ENDBLK
  8
0
  0
BLOCK
  8
0
  2
*D152
 70
65
 10
0.000000000
 20
0.000000000
  3
*D
  0
TEXT
  8
1
 62
4
  6
CONTINUOUS
 72
5
 10
131.512602904
 20
151.987608696
 40
2.800000000
  1
(
 41
1.800001800
 11
133.192602904
 21
151.987608696
  0
TEXT
  8
1
 62
4
  6
CONTINUOUS
 72
5
 10
134.032602904
 20
151.987608696
 40
2.800000000
  1
95.9
 41
1.099999267
 11
143.272602904
 21
151.987608696
  0
TEXT
  8
1
 62
4
  6
CONTINUOUS
 72
5
 10
144.112602904
 20
151.987608696
 40
2.800000000
  1
)
 41
1.800001800
 11
145.792602904
 21
151.987608696
  0
LINE
  8
1
 62
4
  6
CONTINUOUS
 10
90.694202910
 20
170.182608696
 11
90.694202910
 21
147.782608696
  0
POLYLINE
  8
1
 62
4
  6
CONTINUOUS
 66
1
  0
VERTEX
  8
1
 10
92.694202910
 20
150.082608696
  0
VERTEX
  8
1
 10
90.694202910
 20
149.782608696
  0
VERTEX
  8
1
 10
92.694202910
 20
149.482608696
  0
SEQEND
  8
1
  0
LINE
  8
1
 62
4
  6
CONTINUOUS
 10
90.694202910
 20
149.782608696
 11
186.594202899
 21
149.782608696
  0
POLYLINE
  8
1
 62
4
  6
CONTINUOUS
 66
1
  0
VERTEX
  8
1
 10
184.594202899
 20
149.482608696
  0
VERTEX
  8
1
 10
186.594202899
 20
149.782608696
  0
VERTEX
  8
1
 10
184.594202899
 20
150.082608696
  0
SEQEND
  8
1
  0
LINE
  8
1
 62
4
  6
CONTINUOUS
 10
186.594202899
 20
169.832608696
 11
186.594202899
 21
147.782608696
  0
ENDBLK
  8
0
  0
BLOCK
  8
0
  2
*D153
 70
65
 10
0.000000000
 20
0.000000000
  3
*D
  0
TEXT
  8
1
 62
4
  6
CONTINUOUS
 72
5
 10
195.882602899
 20
151.987608696
 40
2.800000000
  1
27.8
 41
1.099999267
 11
205.122602899
 21
151.987608696
  0
POLYLINE
  8
1
 62
4
  6
CONTINUOUS
 66
1
  0
VERTEX
  8
1
 10
188.594202899
 20
150.082608696
  0
VERTEX
  8
1
 10
186.594202899
 20
149.782608696
  0
VERTEX
  8
1
 10
188.594202899
 20
149.482608696
  0
SEQEND
  8
1
  0
LINE
  8
1
 62
4
  6
CONTINUOUS
 10
186.594202899
 20
149.782608696
 11
214.394202899
 21
149.782608696
  0
POLYLINE
  8
1
 62
4
  6
CONTINUOUS
 66
1
  0
VERTEX
  8
1
 10
212.394202899
 20
149.482608696
  0
VERTEX
  8
1
 10
214.394202899
 20
149.782608696
  0
VERTEX
  8
1
 10
212.394202899
 20
150.082608696
  0
SEQEND
  8
1
  0
LINE
  8
1
 62
4
  6
CONTINUOUS
 10
214.394202899
 20
170.132608696
 11
214.394202899
 21
147.782608696
  0
ENDBLK
  8
0
  0
BLOCK
  8
0
  2
blk155
 70
64
 10
0.000000000
 20
0.000000000
  3
blk155
  0
ARC
  8
1
 62
4
  6
CONTINUOUS
 10
0.000000000
 20
0.000000000
 40
1.000000000
 50
306.869897646
 51
413.130102354
  0
ENDBLK
  8
0
  0
BLOCK
  8
0
  2
*D237
 70
65
 10
0.000000000
 20
0.000000000
  3
*D
  0
TEXT
  8
1
 62
4
  6
CONTINUOUS
 72
5
 10
323.689202898
 20
177.651008778
 40
2.800000000
  1
φ
 41
1.270648030
 50
90.000000000
 11
323.689202898
 21
181.011008778
  0
TEXT
  8
1
 62
4
  6
CONTINUOUS
 72
5
 10
323.689202898
 20
182.691008778
 40
2.800000000
  1
18.5
 41
1.237498917
 50
90.000000000
 11
323.689202898
 21
191.931008778
  0
LINE
  8
1
 62
4
  6
CONTINUOUS
 10
305.994202898
 20
194.032608778
 11
327.894202898
 21
194.032608778
  0
POLYLINE
  8
1
 62
4
  6
CONTINUOUS
 66
1
  0
VERTEX
  8
1
 10
326.194202898
 20
192.032608778
  0
VERTEX
  8
1
 10
325.894202898
 20
194.032608778
  0
VERTEX
  8
1
 10
325.594202898
 20
192.032608778
  0
SEQEND
  8
1
  0
LINE
  8
1
 62
4
  6
CONTINUOUS
 10
325.894202898
 20
194.032608778
 11
325.894202898
 21
175.532608778
  0
POLYLINE
  8
1
 62
4
  6
CONTINUOUS
 66
1
  0
VERTEX
  8
1
 10
325.594202898
 20
177.532608778
  0
VERTEX
  8
1
 10
325.894202898
 20
175.532608778
  0
VERTEX
  8
1
 10
326.194202898
 20
177.532608778
  0
SEQEND
  8
1
  0
LINE
  8
1
 62
4
  6
CONTINUOUS
 10
305.994202898
 20
175.532608778
 11
327.894202898
 21
175.532608778
  0
ENDBLK
  8
0
  0
BLOCK
  8
0
  2
*D239
 70
65
 10
0.000000000
 20
0.000000000
  3
*D
  0
TEXT
  8
1
 62
4
  6
CONTINUOUS
 72
5
 10
254.322602898
 20
143.987608696
 40
2.800000000
  1
(300)
 41
1.145454754
 11
266.082602898
 21
143.987608696
  0
LINE
  8
1
 62
4
  6
CONTINUOUS
 10
214.394202899
 20
170.132608696
 11
214.394202899
 21
139.782608696
  0
POLYLINE
  8
1
 62
4
  6
CONTINUOUS
 66
1
  0
VERTEX
  8
1
 10
216.394202899
 20
142.082608696
  0
VERTEX
  8
1
 10
214.394202899
 20
141.782608696
  0
VERTEX
  8
1
 10
216.394202899
 20
141.482608696
  0
SEQEND
  8
1
  0
LINE
  8
1
 62
4
  6
CONTINUOUS
 10
214.394202899
 20
141.782608696
 11
305.994202898
 21
141.782608696
  0
POLYLINE
  8
1
 62
4
  6
CONTINUOUS
 66
1
  0
VERTEX
  8
1
 10
303.994202898
 20
141.482608696
  0
VERTEX
  8
1
 10
305.994202898
 20
141.782608696
  0
VERTEX
  8
1
 10
303.994202898
 20
142.082608696
  0
SEQEND
  8
1
  0
LINE
  8
1
 62
4
  6
CONTINUOUS
 10
305.994202898
 20
175.532608778
 11
305.994202898
 21
139.782608696
  0
ENDBLK
  8
0
  0
BLOCK
  8
0
  2
*D240
 70
65
 10
0.000000000
 20
0.000000000
  3
*D
  0
TEXT
  8
1
 62
4
  6
CONTINUOUS
 72
5
 10
196.148426290
 20
175.268640661
 40
2.800000000
  1
φ
 41
1.270648030
 50
90.000000000
 11
196.148426290
 21
178.628640661
  0
TEXT
  8
1
 62
4
  6
CONTINUOUS
 72
5
 10
196.148426290
 20
180.308640661
 40
2.800000000
  1
29.9
 41
1.099999267
 50
90.000000000
 11
196.148426290
 21
189.548640661
  0
POLYLINE
  8
1
 62
4
  6
CONTINUOUS
 66
1
  0
VERTEX
  8
1
 10
198.653426290
 20
197.732608696
  0
VERTEX
  8
1
 10
198.353426290
 20
199.732608696
  0
VERTEX
  8
1
 10
198.053426290
 20
197.732608696
  0
SEQEND
  8
1
  0
LINE
  8
1
 62
4
  6
CONTINUOUS
 10
198.353426290
 20
199.732608696
 11
198.353426290
 21
169.832608696
  0
POLYLINE
  8
1
 62
4
  6
CONTINUOUS
 66
1
  0
VERTEX
  8
1
 10
198.053426290
 20
171.832608696
  0
VERTEX
  8
1
 10
198.353426290
 20
169.832608696
  0
VERTEX
  8
1
 10
198.653426290
 20
171.832608696
  0
SEQEND
  8
1
  0
ENDBLK
  8
0
  0
BLOCK
  8
0
  2
blk241
 70
64
 10
0.000000000
 20
0.000000000
  3
blk241
  0
ARC
  8
1
 62
4
  6
CONTINUOUS
 10
0.000000000
 20
0.000000000
 40
1.000000000
 50
126.869897646
 51
233.130102354
  0
ENDBLK
  8
0
  0
BLOCK
  8
0
  2
blk242
 70
64
 10
0.000000000
 20
0.000000000
  3
blk242
  0
ARC
  8
1
 62
4
  6
CONTINUOUS
 10
0.000000000
 20
0.000000000
 40
1.000000000
 50
306.869897646
 51
413.130102354
  0
ENDBLK
  8
0
  0
ENDSEC
  0
SECTION
  2
ENTITIES
  0
LINE
  8
1
 62
7
  6
CONTINUOUS
 10
83.022700294
 20
190.532608696
 11
83.022700294
 21
179.032608696
  0
LINE
  8
1
 62
7
  6
CONTINUOUS
 10
83.022700294
 20
179.032608696
 11
83.172700294
 21
178.882608696
  0
LINE
  8
1
 62
7
  6
CONTINUOUS
 10
76.022700294
 20
181.359958965
 11
76.022700294
 21
188.205258426
  0
LINE
  8
1
 62
7
  6
CONTINUOUS
 10
86.722700294
 20
190.682608696
 11
86.722700294
 21
178.882608696
  0
LINE
  8
1
 62
7
  6
CONTINUOUS
 10
80.172700294
 20
182.647193045
 11
82.872700294
 21
182.647193045
  0
LINE
  8
1
 62
7
  6
CONTINUOUS
 10
80.172700294
 20
186.918024346
 11
82.872700294
 21
186.918024346
  0
LINE
  8
1
 62
7
  6
CONTINUOUS
 10
83.022700294
 20
186.768024346
 11
82.872700294
 21
186.918024346
  0
LINE
  8
1
 62
7
  6
CONTINUOUS
 10
82.872700294
 20
182.647193045
 11
83.022700294
 21
182.797193045
  0
LINE
  8
1
 62
7
  6
CONTINUOUS
 10
79.081546021
 20
189.848634099
 11
79.081546021
 21
179.716583292
  0
LINE
  8
1
 62
7
  6
CONTINUOUS
 10
90.694202910
 20
199.382608696
 11
90.694202910
 21
170.182608696
  0
LINE
  8
1
 62
7
  6
CONTINUOUS
 10
90.894202910
 20
169.982608696
 11
94.094202910
 21
169.982608696
  0
LINE
  8
1
 62
7
  6
CONTINUOUS
 10
88.094202910
 20
182.511045357
 11
90.594202910
 21
182.511045357
  0
LINE
  8
1
 62
7
  6
CONTINUOUS
 10
90.894202910
 20
169.982608696
 11
90.694202910
 21
170.182608696
  0
LINE
  8
1
 62
7
  6
CONTINUOUS
 10
94.094202910
 20
169.982608696
 11
94.094202910
 21
199.582608696
  0
LINE
  8
1
 62
7
  6
CONTINUOUS
 10
90.894202910
 20
199.582608696
 11
94.094202910
 21
199.582608696
  0
LINE
  8
1
 62
7
  6
CONTINUOUS
 10
94.394202898
 20
171.532608696
 11
94.094202910
 21
171.532608696
  0
LINE
  8
1
 62
7
  6
CONTINUOUS
 10
94.394202898
 20
199.482608696
 11
94.694202898
 21
199.782608696
  0
LINE
  8
1
 62
7
  6
CONTINUOUS
 10
94.394202898
 20
198.032608696
 11
94.094202910
 21
198.032608696
  0
LINE
  8
1
 62
7
  6
CONTINUOUS
 10
94.394202898
 20
170.082608696
 11
94.394202898
 21
199.482608696
  0
LINE
  8
1
 62
7
  6
CONTINUOUS
 10
94.394202898
 20
170.082608696
 11
94.694202898
 21
169.782608696
  0
LINE
  8
1
 62
7
  6
CONTINUOUS
 10
186.494202899
 20
169.782608696
 11
94.694202898
 21
169.782608696
  0
LINE
  8
1
 62
7
  6
CONTINUOUS
 10
186.494202899
 20
169.782608696
 11
186.594202899
 21
169.882608696
  0
LINE
  8
1
 62
7
  6
CONTINUOUS
 10
186.494202899
 20
199.782608696
 11
94.694202898
 21
199.782608696
  0
LINE
  8
1
 62
7
  6
CONTINUOUS
 10
186.594202899
 20
169.882608696
 11
186.594202899
 21
199.682608696
  0
LINE
  8
1
 62
7
  6
CONTINUOUS
 10
186.494202899
 20
199.782608696
 11
186.594202899
 21
199.682608696
  0
LINE
  8
1
 62
7
  6
CONTINUOUS
 10
90.894202910
 20
199.582608696
 11
90.694202910
 21
199.382608696
  0
ARC
  8
1
 62
7
  6
CONTINUOUS
 10
79.581546021
 20
179.882608696
 40
1.000000000
 50
240.000000000
 51
270.000000000
  0
LINE
  8
1
 62
7
  6
CONTINUOUS
 10
87.522700294
 20
189.482608696
 11
87.994202910
 21
189.482608696
  0
LINE
  8
1
 62
7
  6
CONTINUOUS
 10
86.722700294
 20
190.682608696
 11
83.172700294
 21
190.682608696
  0
LINE
  8
1
 62
7
  6
CONTINUOUS
 10
80.022700294
 20
190.282608696
 11
83.022700294
 21
190.282608696
  0
LINE
  8
1
 62
7
  6
CONTINUOUS
 10
87.994202910
 20
189.382608696
 11
90.694202910
 21
189.382608696
  0
LINE
  8
1
 62
7
  6
CONTINUOUS
 10
88.094202910
 20
187.054172034
 11
90.594202910
 21
187.054172034
  0
LINE
  8
1
 62
7
  6
CONTINUOUS
 10
80.022700294
 20
179.032608696
 11
80.022700294
 21
190.532608696
  0
LINE
  8
1
 62
7
  6
CONTINUOUS
 10
76.522700294
 20
180.493933561
 11
79.081546021
 21
179.016583292
  0
LINE
  8
1
 62
7
  6
CONTINUOUS
 10
88.094202910
 20
187.054172034
 11
88.094202910
 21
182.511045357
  0
LINE
  8
1
 62
7
  6
CONTINUOUS
 10
90.594202910
 20
187.054172034
 11
90.594202910
 21
182.511045357
  0
LINE
  8
1
 62
7
  6
CONTINUOUS
 10
87.994202910
 20
180.082608696
 11
87.994202910
 21
189.482608696
  0
LINE
  8
1
 62
7
  6
CONTINUOUS
 10
87.994202910
 20
180.182608696
 11
90.694202910
 21
180.182608696
  0
LINE
  8
1
 62
7
  6
CONTINUOUS
 10
87.522700294
 20
189.882608696
 11
87.522700294
 21
179.682608696
  0
LINE
  8
1
 62
7
  6
CONTINUOUS
 10
87.522700294
 20
180.082608696
 11
87.994202910
 21
180.082608696
  0
LINE
  8
1
 62
7
  6
CONTINUOUS
 10
79.872700294
 20
178.882608696
 11
79.581546021
 21
178.882608696
  0
LINE
  8
1
 62
7
  6
CONTINUOUS
 10
79.872700294
 20
190.682608696
 11
80.022700294
 21
190.532608696
  0
LINE
  8
1
 62
7
  6
CONTINUOUS
 10
80.022700294
 20
182.797193045
 11
80.172700294
 21
182.647193045
  0
LINE
  8
1
 62
7
  6
CONTINUOUS
 10
79.872700294
 20
190.682608696
 11
79.581546021
 21
190.682608696
  0
ARC
  8
1
 62
7
  6
CONTINUOUS
 10
79.581546021
 20
189.682608696
 40
1.000000000
 50
90.000000000
 51
120.000000000
  0
LINE
  8
1
 62
7
  6
CONTINUOUS
 10
83.022700294
 20
190.532608696
 11
83.172700294
 21
190.682608696
  0
LINE
  8
1
 62
7
  6
CONTINUOUS
 10
86.722700294
 20
178.882608696
 11
83.172700294
 21
178.882608696
  0
LINE
  8
1
 62
7
  6
CONTINUOUS
 10
80.022700294
 20
179.282608696
 11
83.022700294
 21
179.282608696
  0
LINE
  8
1
 62
7
  6
CONTINUOUS
 10
76.522700294
 20
189.071283830
 11
79.081546021
 21
190.548634099
  0
LINE
  8
1
 62
7
  6
CONTINUOUS
 10
80.172700294
 20
186.918024346
 11
80.022700294
 21
186.768024346
  0
LINE
  8
1
 62
7
  6
CONTINUOUS
 10
79.872700294
 20
178.882608696
 11
80.022700294
 21
179.032608696
  0
ARC
  8
1
 62
7
  6
CONTINUOUS
 10
86.722700294
 20
189.882608696
 40
0.800000000
 50
0.000000000
 51
90.000000000
  0
ARC
  8
1
 62
7
  6
CONTINUOUS
 10
77.022700294
 20
188.205258426
 40
1.000000000
 50
120.000000000
 51
180.000000000
  0
ARC
  8
1
 62
7
  6
CONTINUOUS
 10
77.022700294
 20
181.359958965
 40
1.000000000
 50
180.000000000
 51
240.000000000
  0
ARC
  8
1
 62
7
  6
CONTINUOUS
 10
86.722700294
 20
179.682608696
 40
0.800000000
 50
270.000000000
 51
0.000000000
  0
LINE
  8
1
 62
7
  6
CONTINUOUS
 10
214.394202899
 20
199.432608696
 11
214.094202899
 21
199.732608696
  0
LINE
  8
1
 62
7
  6
CONTINUOUS
 10
214.094202899
 20
169.832608696
 11
214.394202899
 21
170.132608696
  0
LINE
  8
1
 62
7
  6
CONTINUOUS
 10
225.994202899
 20
194.582608696
 11
255.994202899
 21
194.582608696
  0
LINE
  8
1
 62
1
  6
CONTINUOUS
 10
308.749990530
 20
181.008128066
 11
308.822476981
 21
177.486484647
  0
LINE
  8
1
 62
7
  6
CONTINUOUS
 10
269.394202898
 20
188.782608568
 11
249.994202864
 21
188.782608708
  0
LINE
  8
1
 62
7
  6
CONTINUOUS
 10
224.394202960
 20
198.257608623
 11
223.994203640
 21
198.257608623
  0
LINE
  8
1
 62
7
  6
CONTINUOUS
 10
223.994203640
 20
194.107609153
 11
224.394202960
 21
194.107609153
  0
LINE
  8
1
 62
7
  6
CONTINUOUS
 10
214.494203014
 20
198.932608873
 11
214.394203184
 21
198.932608873
  0
LINE
  8
1
 62
7
  6
CONTINUOUS
 10
214.394203184
 20
193.432608903
 11
214.494203014
 21
193.432608903
  0
LINE
  8
1
 62
7
  6
CONTINUOUS
 10
223.994202899
 20
199.682608696
 11
214.494202899
 21
199.682608696
  0
LINE
  8
1
 62
7
  6
CONTINUOUS
 10
214.494202899
 20
192.682608696
 11
223.994202899
 21
192.682608696
  0
LINE
  8
1
 62
7
  6
CONTINUOUS
 10
225.494202899
 20
199.682608696
 11
224.394202899
 21
199.682608696
  0
LINE
  8
1
 62
7
  6
CONTINUOUS
 10
224.394202899
 20
192.682608696
 11
225.494202899
 21
192.682608696
  0
ARC
  8
1
 62
7
  6
CONTINUOUS
 10
225.494202899
 20
193.182608696
 40
0.500000000
 50
270.000000000
 51
0.000000000
  0
ARC
  8
1
 62
7
  6
CONTINUOUS
 10
225.494202899
 20
199.182608696
 40
0.500000000
 50
0.000000000
 51
90.000000000
  0
LINE
  8
1
 62
7
  6
CONTINUOUS
 10
221.394202468
 20
178.532608603
 11
221.394202468
 21
191.032608789
  0
LINE
  8
1
 62
7
  6
CONTINUOUS
 10
221.594202898
 20
178.402976235
 11
221.594202898
 21
178.332608696
  0
LINE
  8
1
 62
7
  6
CONTINUOUS
 10
186.594202899
 20
199.732608696
 11
186.594202899
 21
169.832608696
  0
LINE
  8
1
 62
7
  6
CONTINUOUS
 10
221.594202898
 20
191.232608696
 11
221.594202898
 21
191.162241156
  0
ARC
  8
1
 62
7
  6
CONTINUOUS
 10
215.394202898
 20
177.282608696
 40
1.000000000
 50
90.000000000
 51
180.000000000
  0
LINE
  8
1
 62
1
  6
CENTER
 10
211.394202899
 20
196.182608696
 11
308.994202899
 21
196.182608696
  0
LINE
  8
1
 62
7
  6
CONTINUOUS
 10
207.894202899
 20
178.359797785
 11
211.394202899
 21
178.359797785
  0
LINE
  8
1
 62
7
  6
CONTINUOUS
 10
207.894202899
 20
191.205419607
 11
211.394202899
 21
191.205419607
  0
LINE
  8
1
 62
7
  6
CONTINUOUS
 10
207.894202899
 20
191.205419607
 11
207.894202899
 21
178.359797785
  0
LINE
  8
1
 62
7
  6
CONTINUOUS
 10
214.394202899
 20
199.432608696
 11
214.394202899
 21
170.132608696
  0
LINE
  8
1
 62
7
  6
CONTINUOUS
 10
211.394202899
 20
191.205419607
 11
211.394202899
 21
178.359797785
  0
LINE
  8
1
 62
7
  6
CONTINUOUS
 10
305.994202898
 20
175.532608778
 11
283.394202898
 21
175.532608778
  0
LINE
  8
1
 62
7
  6
CONTINUOUS
 10
283.394202898
 20
175.532608778
 11
283.394202898
 21
194.032608778
  0
LINE
  8
1
 62
7
  6
CONTINUOUS
 10
223.994202899
 20
192.682608696
 11
223.994202899
 21
199.682608696
  0
LINE
  8
1
 62
7
  6
CONTINUOUS
 10
283.394202898
 20
194.032608778
 11
305.994202898
 21
194.032608778
  0
LINE
  8
1
 62
7
  6
CONTINUOUS
 10
214.494202899
 20
192.682608696
 11
214.494202899
 21
199.682608696
  0
LINE
  8
1
 62
4
  6
CONTINUOUS
 10
301.994202898
 20
193.282608778
 11
301.244202898
 21
194.032608778
  0
LINE
  8
1
 62
7
  6
CONTINUOUS
 10
224.394202899
 20
192.682608696
 11
224.394202899
 21
199.682608696
  0
LINE
  8
1
 62
4
  6
CONTINUOUS
 10
295.994202898
 20
188.782608778
 11
301.244202898
 21
194.032608778
  0
LINE
  8
1
 62
7
  6
CONTINUOUS
 10
225.994202899
 20
199.182608696
 11
225.994202899
 21
193.182608696
  0
ARC
  8
1
 62
7
  6
CONTINUOUS
 10
215.394202898
 20
192.282608696
 40
1.000000000
 50
180.000000000
 51
270.000000000
  0
LINE
  8
1
 62
7
  6
CONTINUOUS
 10
221.194202898
 20
178.282608696
 11
221.394202898
 21
178.482608696
  0
LINE
  8
1
 62
7
  6
CONTINUOUS
 10
221.394202898
 20
191.082608696
 11
221.194202898
 21
191.282608696
  0
LINE
  8
1
 62
7
  6
CONTINUOUS
 10
221.194202898
 20
191.282608696
 11
215.394202898
 21
191.282608696
  0
LINE
  8
1
 62
7
  6
CONTINUOUS
 10
215.394202898
 20
178.282608696
 11
221.194202898
 21
178.282608696
  0
LINE
  8
1
 62
7
  6
CONTINUOUS
 10
221.594202898
 20
182.415648620
 11
221.394202468
 21
183.032608642
  0
LINE
  8
1
 62
7
  6
CONTINUOUS
 10
224.694202898
 20
191.162241156
 11
224.694202898
 21
191.232608696
  0
ARC
  8
1
 62
7
  6
CONTINUOUS
 10
223.313266230
 20
189.978760951
 40
1.818683538
 50
319.403001152
 51
40.596998848
  0
LINE
  8
1
 62
7
  6
CONTINUOUS
 10
224.694202898
 20
187.149568771
 11
224.694202898
 21
188.795281081
  0
ARC
  8
1
 62
7
  6
CONTINUOUS
 10
218.478639880
 20
184.782608696
 40
6.650993756
 50
339.152572343
 51
20.847427657
  0
LINE
  8
1
 62
7
  6
CONTINUOUS
 10
224.694202898
 20
180.769936311
 11
224.694202898
 21
182.415648620
  0
ARC
  8
1
 62
7
  6
CONTINUOUS
 10
223.313265938
 20
179.586456441
 40
1.818683760
 50
319.403007145
 51
40.596992855
  0
LINE
  8
1
 62
7
  6
CONTINUOUS
 10
224.694202898
 20
178.332608696
 11
224.694202898
 21
178.402976235
  0
LINE
  8
1
 62
7
  6
CONTINUOUS
 10
225.394202898
 20
190.532608696
 11
225.394202898
 21
179.032608696
  0
LINE
  8
1
 62
7
  6
CONTINUOUS
 10
221.594202898
 20
178.332608696
 11
224.694202898
 21
178.332608696
  0
LINE
  8
1
 62
7
  6
CONTINUOUS
 10
224.694202898
 20
191.232608696
 11
221.594202898
 21
191.232608696
  0
LINE
  8
1
 62
7
  6
CONTINUOUS
 10
221.394202468
 20
178.532608603
 11
221.594202898
 21
178.332608696
  0
LINE
  8
1
 62
7
  6
CONTINUOUS
 10
221.594202898
 20
191.232608696
 11
221.394202468
 21
191.032608789
  0
LINE
  8
1
 62
7
  6
CONTINUOUS
 10
225.394202898
 20
190.532608696
 11
224.694202898
 21
191.232608696
  0
LINE
  8
1
 62
7
  6
CONTINUOUS
 10
224.694202898
 20
178.332608696
 11
225.394202898
 21
179.032608696
  0
LINE
  8
1
 62
7
  6
CONTINUOUS
 10
221.394202468
 20
186.532608750
 11
221.594202898
 21
187.149568771
  0
LINE
  8
1
 62
7
  6
CONTINUOUS
 10
221.594202898
 20
187.149568771
 11
224.694202898
 21
187.149568771
  0
LINE
  8
1
 62
7
  6
CONTINUOUS
 10
224.694202898
 20
182.415648620
 11
221.594202898
 21
182.415648620
  0
LINE
  8
1
 62
7
  6
CONTINUOUS
 10
221.594202898
 20
188.795281081
 11
221.394202468
 21
189.103761040
  0
LINE
  8
1
 62
7
  6
CONTINUOUS
 10
221.594202898
 20
188.795281081
 11
221.594202898
 21
187.149568771
  0
LINE
  8
1
 62
7
  6
CONTINUOUS
 10
221.594202898
 20
182.415648620
 11
221.594202898
 21
180.769936311
  0
LINE
  8
1
 62
7
  6
CONTINUOUS
 10
221.394202468
 20
180.461456351
 11
221.594202898
 21
180.769936311
  0
LINE
  8
1
 62
7
  6
CONTINUOUS
 10
224.694202898
 20
188.795281081
 11
221.594202898
 21
188.795281081
  0
LINE
  8
1
 62
7
  6
CONTINUOUS
 10
221.594202898
 20
180.769936311
 11
224.694202898
 21
180.769936311
  0
LINE
  8
1
 62
7
  6
CONTINUOUS
 10
292.994202898
 20
194.032608778
 11
292.994202898
 21
175.532608778
  0
LINE
  8
1
 62
7
  6
CONTINUOUS
 10
225.394203124
 20
180.782608506
 11
245.994202926
 21
180.782608654
  0
LINE
  8
1
 62
7
  6
CONTINUOUS
 10
186.594202899
 20
169.832608696
 11
214.094202899
 21
169.832608696
  0
LINE
  8
1
 62
7
  6
CONTINUOUS
 10
214.094202899
 20
199.732608696
 11
186.594202899
 21
199.732608696
  0
LINE
  8
1
 62
1
  6
CENTER
 10
73.022700294
 20
184.782608696
 11
316.894202898
 21
184.782608696
  0
LINE
  8
1
 62
7
  6
CONTINUOUS
 10
221.594202898
 20
178.402976235
 11
221.394202468
 21
178.711456064
  0
LINE
  8
1
 62
7
  6
CONTINUOUS
 10
224.694202898
 20
178.402976235
 11
221.594202898
 21
178.402976235
  0
LINE
  8
1
 62
7
  6
CONTINUOUS
 10
221.394202898
 20
178.482608696
 11
221.394202898
 21
191.082608696
  0
LINE
  8
1
 62
7
  6
CONTINUOUS
 10
221.394202468
 20
190.853761327
 11
221.594202898
 21
191.162241156
  0
LINE
  8
1
 62
7
  6
CONTINUOUS
 10
221.594202898
 20
191.162241156
 11
224.694202898
 21
191.162241156
  0
LINE
  8
1
 62
7
  6
CONTINUOUS
 10
215.394202898
 20
191.282608696
 11
215.394202898
 21
178.282608696
  0
LINE
  8
1
 62
4
  6
CONTINUOUS
 10
207.894202899
 20
191.205419607
 11
211.394202899
 21
178.359797785
  0
LINE
  8
1
 62
4
  6
CONTINUOUS
 10
211.394202899
 20
191.205419607
 11
207.894202899
 21
178.359797785
  0
ARC
  8
1
 62
7
  6
CONTINUOUS
 10
232.114046691
 20
184.782608696
 40
25.057001683
 50
165.147710869
 51
194.852289131
  0
ARC
  8
1
 62
7
  6
CONTINUOUS
 10
187.174359106
 20
184.782608696
 40
25.057001683
 50
345.147710869
 51
14.852289131
  0
LINE
  8
1
 62
7
  6
CONTINUOUS
 10
79.581546021
 20
190.682608696
 11
79.581546021
 21
178.882608696
  0
LINE
  8
1
 62
7
  6
CONTINUOUS
 10
79.872700294
 20
190.682608696
 11
79.872700294
 21
178.882608696
  0
LINE
  8
1
 62
4
  6
CONTINUOUS
 10
90.594202910
 20
187.054172034
 11
88.094202910
 21
182.511045357
  0
LINE
  8
1
 62
7
  6
CONTINUOUS
 10
76.522700294
 20
188.371283830
 11
76.522700294
 21
181.193933561
  0
LINE
  8
1
 62
7
  6
CONTINUOUS
 10
83.172700294
 20
190.682608696
 11
83.172700294
 21
178.882608696
  0
LINE
  8
1
 62
4
  6
CONTINUOUS
 10
80.022700294
 20
186.768024346
 11
83.022700294
 21
182.797193045
  0
LINE
  8
1
 62
4
  6
CONTINUOUS
 10
83.022700294
 20
186.768024346
 11
80.022700294
 21
182.797193045
  0
LINE
  8
1
 62
7
  6
CONTINUOUS
 10
80.172700294
 20
190.282608696
 11
80.172700294
 21
186.918024346
  0
LINE
  8
1
 62
7
  6
CONTINUOUS
 10
82.872700294
 20
190.282608696
 11
82.872700294
 21
186.918024346
  0
LINE
  8
1
 62
7
  6
CONTINUOUS
 10
80.172700294
 20
179.282608696
 11
80.172700294
 21
182.647193045
  0
LINE
  8
1
 62
7
  6
CONTINUOUS
 10
82.872700294
 20
179.282608696
 11
82.872700294
 21
182.647193045
  0
LINE
  8
1
 62
4
  6
CONTINUOUS
 10
88.094202910
 20
187.054172034
 11
90.594202910
 21
182.511045357
  0
DIMENSION
  8
1
 62
4
  6
CONTINUOUS
  2
*D147
 70
1
 10
60.022700294
 20
169.782608696
 11
60.022700294
 21
184.782608696
 14
94.694202898
 24
169.782608696
 13
94.694202898
 23
199.782608696
 50
90.000000000
  0
DIMENSION
  8
1
 62
4
  6
CONTINUOUS
  2
*D148
 70
1
 10
68.022700294
 20
178.882608696
 11
68.022700294
 21
184.782608696
 14
79.581546021
 24
178.882608696
 13
79.581546021
 23
190.682608696
 50
90.000000000
  0
DIMENSION
  8
1
 62
4
  6
CONTINUOUS
  2
*D149
 70
0
 10
90.694202910
 20
141.782608696
 11
83.358451602
 21
141.782608696
 14
90.694202910
 24
170.182608696
 13
76.022700294
 23
181.359958965
 50
0.000000000
  0
DIMENSION
  8
1
 62
4
  6
CONTINUOUS
  2
*D150
 70
0
 10
214.394202899
 20
141.782608696
 11
152.544202904
 21
141.782608696
 14
214.394202899
 24
170.132608696
 13
90.694202910
 23
170.182608696
 50
0.000000000
  0
DIMENSION
  8
1
 62
4
  6
CONTINUOUS
  2
*D151
 70
0
 10
225.394202898
 20
149.782608696
 11
219.894202898
 21
149.782608696
 14
225.394202898
 24
179.032608696
 13
214.394202899
 23
170.132608696
 50
0.000000000
  0
DIMENSION
  8
1
 62
4
  6
CONTINUOUS
  2
*D152
 70
0
 10
186.594202899
 20
149.782608696
 11
138.644202904
 21
149.782608696
 14
186.594202899
 24
169.832608696
 13
90.694202910
 23
170.182608696
 50
0.000000000
  0
DIMENSION
  8
1
 62
4
  6
CONTINUOUS
  2
*D153
 70
0
 10
214.394202899
 20
149.782608696
 11
200.494202899
 21
149.782608696
 14
214.394202899
 24
170.132608696
 13
186.594202899
 23
169.832608696
 50
0.000000000
  0
TEXT
  8
1
 62
3
  6
CONTINUOUS
 72
5
 10
134.744202904
 20
127.798608696
 40
4.000000000
  1
ＥＭＳ－３０６０Ａ
 41
0.834566215
 11
169.944202904
 21
127.798608696
  0
INSERT
  8
1
 62
4
  6
CONTINUOUS
  2
blk155
 10
251.494202902
 20
182.782608703
 41
2.499999996
 42
2.499999977
 50
179.999999586
  0
LINE
  8
1
 62
7
  6
CONTINUOUS
 10
225.994202899
 20
197.782608696
 11
255.994202899
 21
197.782608696
  0
LINE
  8
1
 62
7
  6
CONTINUOUS
 10
286.994202898
 20
194.032608778
 11
286.994202898
 21
175.532608778
  0
LINE
  8
1
 62
4
  6
CONTINUOUS
 10
295.994202898
 20
192.782608778
 11
297.244202898
 21
194.032608778
  0
LINE
  8
1
 62
4
  6
CONTINUOUS
 10
299.744202898
 20
175.532608778
 11
295.994202898
 21
179.282608778
  0
LINE
  8
1
 62
4
  6
CONTINUOUS
 10
298.744202898
 20
175.532608778
 11
301.994202898
 21
178.782608778
  0
LINE
  8
1
 62
4
  6
CONTINUOUS
 10
301.994202898
 20
177.282608778
 11
295.994202898
 21
183.282608778
  0
LINE
  8
1
 62
4
  6
CONTINUOUS
 10
295.994202898
 20
176.782608778
 11
301.994202898
 21
182.782608778
  0
LINE
  8
1
 62
4
  6
CONTINUOUS
 10
301.994202898
 20
181.282608778
 11
295.994202898
 21
187.282608778
  0
LINE
  8
1
 62
4
  6
CONTINUOUS
 10
295.994202898
 20
180.782608778
 11
301.994202898
 21
186.782608778
  0
LINE
  8
1
 62
4
  6
CONTINUOUS
 10
301.994202898
 20
185.282608778
 11
295.994202898
 21
191.282608778
  0
LINE
  8
1
 62
4
  6
CONTINUOUS
 10
295.994202898
 20
184.782608778
 11
301.994202898
 21
190.782608778
  0
LINE
  8
1
 62
4
  6
CONTINUOUS
 10
301.994202898
 20
189.282608778
 11
297.244202898
 21
194.032608778
  0
LINE
  8
1
 62
7
  6
CONTINUOUS
 10
295.994202898
 20
194.032608778
 11
295.994202898
 21
175.532608778
  0
LINE
  8
1
 62
7
  6
CONTINUOUS
 10
301.994202898
 20
194.032608778
 11
301.994202898
 21
175.532608778
  0
LINE
  8
1
 62
1
  6
CONTINUOUS
 10
306.634545760
 20
192.078732908
 11
306.707032212
 21
188.557089490
  0
LINE
  8
1
 62
7
  6
CONTINUOUS
 10
305.994202898
 20
194.032608778
 11
305.994202898
 21
175.532608778
  0
LINE
  8
1
 62
1
  6
CONTINUOUS
 10
306.862413482
 20
181.008128066
 11
306.934899934
 21
177.486484647
  0
LINE
  8
1
 62
4
  6
CONTINUOUS
 10
292.994202898
 20
189.282608778
 11
288.244202898
 21
194.032608778
  0
LINE
  8
1
 62
4
  6
CONTINUOUS
 10
286.994202898
 20
184.782608778
 11
292.994202898
 21
190.782608778
  0
LINE
  8
1
 62
4
  6
CONTINUOUS
 10
292.994202898
 20
185.282608778
 11
286.994202898
 21
191.282608778
  0
LINE
  8
1
 62
4
  6
CONTINUOUS
 10
286.994202898
 20
180.782608778
 11
292.994202898
 21
186.782608778
  0
LINE
  8
1
 62
4
  6
CONTINUOUS
 10
292.994202898
 20
181.282608778
 11
286.994202898
 21
187.282608778
  0
LINE
  8
1
 62
4
  6
CONTINUOUS
 10
286.994202898
 20
176.782608778
 11
292.994202898
 21
182.782608778
  0
LINE
  8
1
 62
4
  6
CONTINUOUS
 10
292.994202898
 20
177.282608778
 11
286.994202898
 21
183.282608778
  0
LINE
  8
1
 62
4
  6
CONTINUOUS
 10
289.744202898
 20
175.532608778
 11
292.994202898
 21
178.782608778
  0
LINE
  8
1
 62
4
  6
CONTINUOUS
 10
290.744202898
 20
175.532608778
 11
286.994202898
 21
179.282608778
  0
LINE
  8
1
 62
4
  6
CONTINUOUS
 10
286.994202898
 20
192.782608778
 11
288.244202898
 21
194.032608778
  0
LINE
  8
1
 62
4
  6
CONTINUOUS
 10
286.994202898
 20
188.782608778
 11
292.244202898
 21
194.032608778
  0
LINE
  8
1
 62
4
  6
CONTINUOUS
 10
292.994202898
 20
193.282608778
 11
292.244202898
 21
194.032608778
  0
LINE
  8
1
 62
7
  6
CONTINUOUS
 10
283.394202898
 20
193.082608778
 11
272.394202898
 21
193.082608778
  0
LINE
  8
1
 62
7
  6
CONTINUOUS
 10
269.394202898
 20
190.082608778
 11
269.394202898
 21
179.482608778
  0
LINE
  8
1
 62
7
  6
CONTINUOUS
 10
272.394202898
 20
176.482608778
 11
283.394202898
 21
176.482608778
  0
LINE
  8
1
 62
7
  6
CONTINUOUS
 10
272.394202898
 20
190.549106848
 11
272.394202898
 21
179.016110707
  0
ARC
  8
1
 62
7
  6
CONTINUOUS
 10
272.394202898
 20
179.482608778
 40
3.000000000
 50
180.000000000
 51
270.000000000
  0
ARC
  8
1
 62
7
  6
CONTINUOUS
 10
272.394202898
 20
190.082608778
 40
3.000000000
 50
90.000000000
 51
180.000000000
  0
ARC
  8
1
 62
7
  6
CONTINUOUS
 10
276.436286231
 20
184.782608778
 40
7.042083333
 50
125.028911263
 51
234.971088737
  0
ARC
  8
1
 62
7
  6
CONTINUOUS
 10
273.618647267
 20
182.656193338
 40
0.724444370
 50
90.000000000
 51
270.000000000
  0
LINE
  8
1
 62
7
  6
CONTINUOUS
 10
283.394202898
 20
183.380637708
 11
273.618647267
 21
183.380637708
  0
LINE
  8
1
 62
7
  6
CONTINUOUS
 10
283.394202898
 20
187.633468587
 11
273.618647267
 21
187.633468587
  0
LINE
  8
1
 62
7
  6
CONTINUOUS
 10
283.394202898
 20
186.184579848
 11
273.618647267
 21
186.184579848
  0
ARC
  8
1
 62
7
  6
CONTINUOUS
 10
273.618647267
 20
186.909024217
 40
0.724444370
 50
90.000000000
 51
270.000000000
  0
LINE
  8
1
 62
7
  6
CONTINUOUS
 10
283.394202898
 20
181.931748968
 11
273.618647267
 21
181.931748968
  0
LINE
  8
1
 62
7
  6
CONTINUOUS
 10
283.394202898
 20
190.061753711
 11
273.424532983
 21
190.061753711
  0
LINE
  8
1
 62
7
  6
CONTINUOUS
 10
283.394202898
 20
191.122413883
 11
273.424532983
 21
191.122413883
  0
ARC
  8
1
 62
7
  6
CONTINUOUS
 10
273.424532983
 20
190.592083797
 40
0.530330086
 50
90.000000000
 51
270.000000000
  0
LINE
  8
1
 62
7
  6
CONTINUOUS
 10
283.394202898
 20
192.524384953
 11
273.088317181
 21
192.524384953
  0
LINE
  8
1
 62
7
  6
CONTINUOUS
 10
283.394202898
 20
192.912613521
 11
273.088317181
 21
192.912613521
  0
ARC
  8
1
 62
7
  6
CONTINUOUS
 10
273.088317181
 20
192.718499237
 40
0.194114284
 50
90.000000000
 51
270.000000000
  0
LINE
  8
1
 62
7
  6
CONTINUOUS
 10
283.394202898
 20
179.503463844
 11
273.424532983
 21
179.503463844
  0
LINE
  8
1
 62
7
  6
CONTINUOUS
 10
283.394202898
 20
178.442803672
 11
273.424532983
 21
178.442803672
  0
ARC
  8
1
 62
7
  6
CONTINUOUS
 10
273.424532983
 20
178.973133758
 40
0.530330086
 50
90.000000000
 51
270.000000000
  0
LINE
  8
1
 62
7
  6
CONTINUOUS
 10
283.394202898
 20
177.040832602
 11
273.088317181
 21
177.040832602
  0
LINE
  8
1
 62
7
  6
CONTINUOUS
 10
283.394202898
 20
176.652604035
 11
273.088317181
 21
176.652604035
  0
ARC
  8
1
 62
7
  6
CONTINUOUS
 10
273.088317181
 20
176.846718319
 40
0.194114284
 50
90.000000000
 51
270.000000000
  0
LINE
  8
1
 62
7
  6
CONTINUOUS
 10
306.368626820
 20
176.832608778
 11
306.557384525
 21
176.832608778
  0
LINE
  8
1
 62
7
  6
CONTINUOUS
 10
309.294202898
 20
178.032608778
 11
313.894202898
 21
178.032608778
  0
LINE
  8
1
 62
7
  6
CONTINUOUS
 10
313.894202898
 20
178.032608778
 11
313.894202898
 21
191.532608778
  0
LINE
  8
1
 62
7
  6
CONTINUOUS
 10
313.894202898
 20
191.532608778
 11
309.294202898
 21
191.532608778
  0
LINE
  8
1
 62
7
  6
CONTINUOUS
 10
308.822476981
 20
177.486484647
 11
308.444961572
 21
176.832608778
  0
LINE
  8
1
 62
1
  6
CONTINUOUS
 10
308.522122808
 20
192.078732908
 11
308.594609259
 21
188.557089490
  0
LINE
  8
1
 62
7
  6
CONTINUOUS
 10
309.027242455
 20
177.131820442
 11
308.822476981
 21
177.486484647
  0
LINE
  8
1
 62
7
  6
CONTINUOUS
 10
308.256203867
 20
176.832608778
 11
307.878688458
 21
177.486484647
  0
LINE
  8
1
 62
7
  6
CONTINUOUS
 10
307.878688458
 20
177.486484647
 11
307.501173048
 21
176.832608778
  0
LINE
  8
1
 62
7
  6
CONTINUOUS
 10
308.256203867
 20
176.832608778
 11
308.444961572
 21
176.832608778
  0
LINE
  8
1
 62
7
  6
CONTINUOUS
 10
306.934899934
 20
177.486484647
 11
306.557384525
 21
176.832608778
  0
LINE
  8
1
 62
7
  6
CONTINUOUS
 10
309.027242455
 20
177.131820442
 11
309.294202898
 21
177.398780885
  0
LINE
  8
1
 62
7
  6
CONTINUOUS
 10
309.294202898
 20
192.166436671
 11
308.836825539
 21
192.623814029
  0
LINE
  8
1
 62
7
  6
CONTINUOUS
 10
307.955849693
 20
192.732608778
 11
308.144607398
 21
192.732608778
  0
LINE
  8
1
 62
7
  6
CONTINUOUS
 10
305.994202898
 20
192.732608778
 11
306.257030351
 21
192.732608778
  0
LINE
  8
1
 62
7
  6
CONTINUOUS
 10
307.012061170
 20
192.732608778
 11
307.200818875
 21
192.732608778
  0
LINE
  8
1
 62
7
  6
CONTINUOUS
 10
307.312415344
 20
176.832608778
 11
306.934899934
 21
177.486484647
  0
LINE
  8
1
 62
7
  6
CONTINUOUS
 10
306.368626820
 20
176.832608778
 11
305.991111411
 21
177.486484647
  0
LINE
  8
1
 62
7
  6
CONTINUOUS
 10
308.522122808
 20
192.078732908
 11
308.144607398
 21
192.732608778
  0
LINE
  8
1
 62
7
  6
CONTINUOUS
 10
308.836825539
 20
192.623814029
 11
308.522122808
 21
192.078732908
  0
LINE
  8
1
 62
7
  6
CONTINUOUS
 10
307.578334284
 20
192.078732908
 11
307.200818875
 21
192.732608778
  0
LINE
  8
1
 62
7
  6
CONTINUOUS
 10
309.294202898
 20
177.398780885
 11
309.294202898
 21
192.166436671
  0
LINE
  8
1
 62
7
  6
CONTINUOUS
 10
307.578334284
 20
192.078732908
 11
307.878688458
 21
177.486484647
  0
LINE
  8
1
 62
7
  6
CONTINUOUS
 10
307.955849693
 20
192.732608778
 11
307.578334284
 21
192.078732908
  0
LINE
  8
1
 62
7
  6
CONTINUOUS
 10
306.634545760
 20
192.078732908
 11
306.257030351
 21
192.732608778
  0
LINE
  8
1
 62
7
  6
CONTINUOUS
 10
307.012061170
 20
192.732608778
 11
306.634545760
 21
192.078732908
  0
LINE
  8
1
 62
7
  6
CONTINUOUS
 10
307.312415344
 20
176.832608778
 11
307.501173048
 21
176.832608778
  0
DIMENSION
  8
1
 62
4
  6
CONTINUOUS
  2
*D237
 70
1
 10
325.894202898
 20
175.532608778
 11
325.894202898
 21
184.782608778
 14
305.994202898
 24
175.532608778
 13
305.994202898
 23
194.032608778
 50
90.000000000
  0
LINE
  8
1
 62
7
  6
CONTINUOUS
 10
305.994202899
 20
197.782608696
 11
305.994202899
 21
194.582608696
  0
DIMENSION
  8
1
 62
4
  6
CONTINUOUS
  2
*D239
 70
0
 10
305.994202898
 20
141.782608696
 11
260.194202898
 21
141.782608696
 14
305.994202898
 24
175.532608778
 13
214.394202899
 23
170.132608696
 50
0.000000000
  0
DIMENSION
  8
1
 62
4
  6
CONTINUOUS
  2
*D240
 70
1
 10
198.353426290
 20
169.832608696
 11
198.353426290
 21
182.400240661
 14
198.353426290
 24
169.832608696
 13
198.353426290
 23
199.732608696
 50
90.000000000
  0
INSERT
  8
1
 62
4
  6
CONTINUOUS
  2
blk241
 10
248.494202908
 20
182.782608725
 41
2.499999996
 42
2.499999977
 50
179.999999586
  0
INSERT
  8
1
 62
4
  6
CONTINUOUS
  2
blk242
 10
251.494202875
 20
186.782608667
 41
2.499999996
 42
2.499999977
 50
179.999999586
  0
ARC
  8
1
 62
4
  6
CONTINUOUS
 10
244.494202888
 20
186.782608681
 40
2.499999996
 50
306.869898060
 51
53.130102768
  0
ARC
  8
1
 62
4
  6
CONTINUOUS
 10
247.494202882
 20
186.782608703
 40
2.499999996
 50
126.869898060
 51
233.130102768
  0
ARC
  8
1
 62
4
  6
CONTINUOUS
 10
244.494202915
 20
182.782608688
 40
2.499999996
 50
306.869898060
 51
53.130102768
  0
ARC
  8
1
 62
4
  6
CONTINUOUS
 10
258.194202899
 20
196.982608696
 40
1.000000000
 50
126.869897646
 51
233.130102354
  0
ARC
  8
1
 62
4
  6
CONTINUOUS
 10
256.994202899
 20
195.382608696
 40
1.000000000
 50
306.869897646
 51
53.130102354
  0
ARC
  8
1
 62
4
  6
CONTINUOUS
 10
258.194202899
 20
195.382608696
 40
1.000000000
 50
126.869897646
 51
233.130102354
  0
ARC
  8
1
 62
4
  6
CONTINUOUS
 10
255.394202899
 20
195.382608696
 40
1.000000000
 50
306.869897646
 51
53.130102354
  0
ARC
  8
1
 62
4
  6
CONTINUOUS
 10
256.594202899
 20
196.982608696
 40
1.000000000
 50
126.869897646
 51
233.130102354
  0
ARC
  8
1
 62
4
  6
CONTINUOUS
 10
255.394202899
 20
196.982608696
 40
1.000000000
 50
306.869897646
 51
53.130102354
  0
LINE
  8
1
 62
7
  6
CONTINUOUS
 10
257.594202899
 20
197.782608696
 11
305.994202899
 21
197.782608696
  0
LINE
  8
1
 62
7
  6
CONTINUOUS
 10
257.594202899
 20
194.582608696
 11
305.994202899
 21
194.582608696
  0
LINE
  8
1
 62
7
  6
CONTINUOUS
 10
245.994202871
 20
188.782608737
 11
225.394203124
 21
188.782608886
  0
LINE
  8
1
 62
7
  6
CONTINUOUS
 10
249.994202919
 20
180.782608683
 11
269.394202898
 21
180.782608824
  0
ENDSEC
  0
EOF
