  0
SECTION
  2
HEADER
  9
$ACADVER
  1
AC1015
  9
$ACADMAINTVER
 70
     6
  9
$DWGCODEPAGE
  3
ANSI_932
  9
$INSBASE
 10
0.0
 20
0.0
 30
0.0
  9
$EXTMIN
 10
-41.1637678696
 20
0.0
 30
0.0
  9
$EXTMAX
 10
316.1742254326
 20
199.3703414055
 30
0.0
  9
$LIMMIN
 10
-41.1637678696
 20
0.0
  9
$LIMMAX
 10
316.1742254326
 20
199.3703414055
  9
$ORTHOMODE
 70
     0
  9
$REGENMODE
 70
     0
  9
$FILLMODE
 70
     1
  9
$QTEXTMODE
 70
     0
  9
$MIRRTEXT
 70
     1
  9
$LTSCALE
 40
1.0
  9
$ATTMODE
 70
     1
  9
$TEXTSIZE
 40
4.0
  9
$TRACEWID
 40
0.05
  9
$TEXTSTYLE
  7
Standard
  9
$CLAYER
  8
無題001
  9
$CELTYPE
  6
Continuous
  9
$CECOLOR
 62
     7
  9
$CELTSCALE
 40
1.0
  9
$DISPSILH
 70
     0
  9
$DIMSCALE
 40
1.0
  9
$DIMASZ
 40
2.0
  9
$DIMEXO
 40
0.0
  9
$DIMDLI
 40
10.0
  9
$DIMRND
 40
0.0
  9
$DIMDLE
 40
1.0
  9
$DIMEXE
 40
1.0
  9
$DIMTP
 40
0.0
  9
$DIMTM
 40
0.0
  9
$DIMTXT
 40
3.5
  9
$DIMCEN
 40
0.09
  9
$DIMTSZ
 40
0.0
  9
$DIMTOL
 70
     0
  9
$DIMLIM
 70
     0
  9
$DIMTIH
 70
     0
  9
$DIMTOH
 70
     0
  9
$DIMSE1
 70
     0
  9
$DIMSE2
 70
     0
  9
$DIMTAD
 70
     1
  9
$DIMZIN
 70
     8
  9
$DIMBLK
  1
OPEN30
  9
$DIMASO
 70
     1
  9
$DIMSHO
 70
     0
  9
$DIMPOST
  1

  9
$DIMAPOST
  1

  9
$DIMALT
 70
     0
  9
$DIMALTD
 70
     6
  9
$DIMALTF
 40
25.4
  9
$DIMLFAC
 40
1.0
  9
$DIMTOFL
 70
     0
  9
$DIMTVP
 40
0.0
  9
$DIMTIX
 70
     0
  9
$DIMSOXD
 70
     0
  9
$DIMSAH
 70
     0
  9
$DIMBLK1
  1

  9
$DIMBLK2
  1

  9
$DIMSTYLE
  2
Standard
  9
$DIMCLRD
 70
     4
  9
$DIMCLRE
 70
     4
  9
$DIMCLRT
 70
     4
  9
$DIMTFAC
 40
0.7
  9
$DIMGAP
 40
0.784
  9
$DIMJUST
 70
     0
  9
$DIMSD1
 70
     0
  9
$DIMSD2
 70
     0
  9
$DIMTOLJ
 70
     1
  9
$DIMTZIN
 70
     0
  9
$DIMALTZ
 70
     0
  9
$DIMALTTZ
 70
     0
  9
$DIMUPT
 70
     0
  9
$DIMDEC
 70
     6
  9
$DIMTDEC
 70
     4
  9
$DIMALTU
 70
     2
  9
$DIMALTTD
 70
     2
  9
$DIMTXSTY
  7
Standard
  9
$DIMAUNIT
 70
     0
  9
$DIMADEC
 70
     6
  9
$DIMALTRND
 40
0.0
  9
$DIMAZIN
 70
     2
  9
$DIMDSEP
 70
    46
  9
$DIMATFIT
 70
     3
  9
$DIMFRAC
 70
     0
  9
$DIMLDRBLK
  1

  9
$DIMLUNIT
 70
     2
  9
$DIMLWD
 70
    -1
  9
$DIMLWE
 70
    -1
  9
$DIMTMOVE
 70
     0
  9
$LUNITS
 70
     2
  9
$LUPREC
 70
     4
  9
$SKETCHINC
 40
0.1
  9
$FILLETRAD
 40
0.0
  9
$AUNITS
 70
     0
  9
$AUPREC
 70
     0
  9
$MENU
  1
ACAD
  9
$ELEVATION
 40
0.0
  9
$PELEVATION
 40
0.0
  9
$THICKNESS
 40
0.0
  9
$LIMCHECK
 70
     0
  9
$CHAMFERA
 40
0.0
  9
$CHAMFERB
 40
0.0
  9
$CHAMFERC
 40
0.0
  9
$CHAMFERD
 40
0.0
  9
$SKPOLY
 70
     0
  9
$TDCREATE
 40
2419435.375
  9
$TDUCREATE
 40
2419435.0
  9
$TDUPDATE
 40
2458919.892272176
  9
$TDUUPDATE
 40
2458919.517272176
  9
$TDINDWG
 40
0.0
  9
$TDUSRTIMER
 40
0.0
  9
$USRTIMER
 70
     1
  9
$ANGBASE
 50
0.0
  9
$ANGDIR
 70
     0
  9
$PDMODE
 70
    65
  9
$PDSIZE
 40
0.2
  9
$PLINEWID
 40
0.0
  9
$SPLFRAME
 70
     0
  9
$SPLINETYPE
 70
     6
  9
$SPLINESEGS
 70
     8
  9
$HANDSEED
  5
3D9
  9
$SURFTAB1
 70
     6
  9
$SURFTAB2
 70
     6
  9
$SURFTYPE
 70
     6
  9
$SURFU
 70
     6
  9
$SURFV
 70
     6
  9
$UCSBASE
  2

  9
$UCSNAME
  2

  9
$UCSORG
 10
0.0
 20
0.0
 30
0.0
  9
$UCSXDIR
 10
1.0
 20
0.0
 30
0.0
  9
$UCSYDIR
 10
0.0
 20
1.0
 30
0.0
  9
$UCSORTHOREF
  2

  9
$UCSORTHOVIEW
 70
     0
  9
$UCSORGTOP
 10
0.0
 20
0.0
 30
0.0
  9
$UCSORGBOTTOM
 10
0.0
 20
0.0
 30
0.0
  9
$UCSORGLEFT
 10
0.0
 20
0.0
 30
0.0
  9
$UCSORGRIGHT
 10
0.0
 20
0.0
 30
0.0
  9
$UCSORGFRONT
 10
0.0
 20
0.0
 30
0.0
  9
$UCSORGBACK
 10
0.0
 20
0.0
 30
0.0
  9
$PUCSBASE
  2

  9
$PUCSNAME
  2

  9
$PUCSORG
 10
0.0
 20
0.0
 30
0.0
  9
$PUCSXDIR
 10
1.0
 20
0.0
 30
0.0
  9
$PUCSYDIR
 10
0.0
 20
1.0
 30
0.0
  9
$PUCSORTHOREF
  2

  9
$PUCSORTHOVIEW
 70
     0
  9
$PUCSORGTOP
 10
0.0
 20
0.0
 30
0.0
  9
$PUCSORGBOTTOM
 10
0.0
 20
0.0
 30
0.0
  9
$PUCSORGLEFT
 10
0.0
 20
0.0
 30
0.0
  9
$PUCSORGRIGHT
 10
0.0
 20
0.0
 30
0.0
  9
$PUCSORGFRONT
 10
0.0
 20
0.0
 30
0.0
  9
$PUCSORGBACK
 10
0.0
 20
0.0
 30
0.0
  9
$USERI1
 70
     0
  9
$USERI2
 70
     0
  9
$USERI3
 70
     0
  9
$USERI4
 70
     0
  9
$USERI5
 70
     0
  9
$USERR1
 40
0.0
  9
$USERR2
 40
0.0
  9
$USERR3
 40
0.0
  9
$USERR4
 40
0.0
  9
$USERR5
 40
0.0
  9
$WORLDVIEW
 70
     1
  9
$SHADEDGE
 70
     3
  9
$SHADEDIF
 70
    70
  9
$TILEMODE
 70
     1
  9
$MAXACTVP
 70
    64
  9
$PINSBASE
 10
0.0
 20
0.0
 30
0.0
  9
$PLIMCHECK
 70
     0
  9
$PEXTMIN
 10
1.000000000000000E+20
 20
1.000000000000000E+20
 30
1.000000000000000E+20
  9
$PEXTMAX
 10
-1.000000000000000E+20
 20
-1.000000000000000E+20
 30
-1.000000000000000E+20
  9
$PLIMMIN
 10
0.0
 20
0.0
  9
$PLIMMAX
 10
12.0
 20
9.0
  9
$UNITMODE
 70
     0
  9
$VISRETAIN
 70
     1
  9
$PLINEGEN
 70
     0
  9
$PSLTSCALE
 70
     1
  9
$TREEDEPTH
 70
  3020
  9
$CMLSTYLE
  2
Standard
  9
$CMLJUST
 70
     0
  9
$CMLSCALE
 40
1.0
  9
$PROXYGRAPHICS
 70
     1
  9
$MEASUREMENT
 70
     0
  9
$CELWEIGHT
370
    -1
  9
$ENDCAPS
280
     0
  9
$JOINSTYLE
280
     0
  9
$LWDISPLAY
290
     0
  9
$INSUNITS
 70
     1
  9
$HYPERLINKBASE
  1

  9
$STYLESHEET
  1

  9
$XEDIT
290
     1
  9
$CEPSNTYPE
380
     0
  9
$PSTYLEMODE
290
     1
  9
$FINGERPRINTGUID
  2
{98e5d61d-05a9-432f-99c0-67ee90125d49}
  9
$VERSIONGUID
  2
{FAEB1C32-E019-11D5-929B-00C0DF256EC4}
  9
$EXTNAMES
290
     1
  9
$PSVPSCALE
 40
0.0
  9
$OLESTARTUP
290
     0
  0
ENDSEC
  0
SECTION
  2
CLASSES
  0
CLASS
  1
ACDBDICTIONARYWDFLT
  2
AcDbDictionaryWithDefault
  3
ObjectDBX Classes
 90
        0
280
     0
281
     0
  0
CLASS
  1
VISUALSTYLE
  2
AcDbVisualStyle
  3
ObjectDBX Classes
 90
     4095
280
     0
281
     0
  0
CLASS
  1
MATERIAL
  2
AcDbMaterial
  3
ObjectDBX Classes
 90
     1153
280
     0
281
     0
  0
CLASS
  1
SCALE
  2
AcDbScale
  3
ObjectDBX Classes
 90
     1153
280
     0
281
     0
  0
CLASS
  1
TABLESTYLE
  2
AcDbTableStyle
  3
ObjectDBX Classes
 90
     4095
280
     0
281
     0
  0
CLASS
  1
MLEADERSTYLE
  2
AcDbMLeaderStyle
  3
ACDB_MLEADERSTYLE_CLASS
 90
     4095
280
     0
281
     0
  0
CLASS
  1
SUN
  2
AcDbSun
  3
SCENEOE
 90
     1153
280
     0
281
     0
  0
CLASS
  1
DICTIONARYVAR
  2
AcDbDictionaryVar
  3
ObjectDBX Classes
 90
        0
280
     0
281
     0
  0
CLASS
  1
ACDBPLACEHOLDER
  2
AcDbPlaceHolder
  3
ObjectDBX Classes
 90
        0
280
     0
281
     0
  0
CLASS
  1
LAYOUT
  2
AcDbLayout
  3
ObjectDBX Classes
 90
        0
280
     0
281
     0
  0
ENDSEC
  0
SECTION
  2
TABLES
  0
TABLE
  2
VPORT
  5
8
102
{ACAD_XDICTIONARY
360
39C
102
}
330
0
100
AcDbSymbolTable
 70
     1
  0
VPORT
  5
29
330
8
100
AcDbSymbolTableRecord
100
AcDbViewportTableRecord
  2
*Active
 70
     0
 10
0.0
 20
0.0
 11
1.0
 21
1.0
 12
178.6689966511
 22
99.68517070275
 13
0.0
 23
0.0
 14
0.5
 24
0.5
 15
0.5
 25
0.5
 16
0.0
 26
0.0
 36
1.0
 17
0.0
 27
0.0
 37
0.0
 40
199.3703414055
 41
1.792332755128352
 42
50.0
 43
0.0
 44
0.0
 50
0.0
 51
0.0
 71
     0
 72
   100
 73
     1
 74
     3
 75
     0
 76
     0
 77
     0
 78
     0
281
     0
 65
     1
110
0.0
120
0.0
130
0.0
111
1.0
121
0.0
131
0.0
112
0.0
122
1.0
132
0.0
 79
     0
146
0.0
  0
ENDTAB
  0
TABLE
  2
LTYPE
  5
5
330
0
100
AcDbSymbolTable
 70
    17
  0
LTYPE
  5
14
330
5
100
AcDbSymbolTableRecord
100
AcDbLinetypeTableRecord
  2
ByBlock
 70
     0
  3

 72
    65
 73
     0
 40
0.0
  0
LTYPE
  5
15
330
5
100
AcDbSymbolTableRecord
100
AcDbLinetypeTableRecord
  2
ByLayer
 70
     0
  3

 72
    65
 73
     0
 40
0.0
  0
LTYPE
  5
16
330
5
100
AcDbSymbolTableRecord
100
AcDbLinetypeTableRecord
  2
Continuous
 70
     0
  3
Solid line
 72
    65
 73
     0
 40
0.0
  0
LTYPE
  5
6E
330
5
100
AcDbSymbolTableRecord
100
AcDbLinetypeTableRecord
  2
DIVIDE
 70
     0
  3
Divide ____ . . ____ . . ____ . . ____ . . ____
 72
    65
 73
     6
 40
1.25
 49
0.5
 74
     0
 49
-0.25
 74
     0
 49
0.0
 74
     0
 49
-0.25
 74
     0
 49
0.0
 74
     0
 49
-0.25
 74
     0
  0
LTYPE
  5
6F
330
5
100
AcDbSymbolTableRecord
100
AcDbLinetypeTableRecord
  2
HIDDEN
 70
     0
  3
Hidden __ __ __ __ __ __ __ __ __ __ __ __ __ _
 72
    65
 73
     2
 40
9.525
 49
6.35
 74
     0
 49
-3.175
 74
     0
  0
LTYPE
  5
70
330
5
100
AcDbSymbolTableRecord
100
AcDbLinetypeTableRecord
  2
HIDDEN2
 70
     0
  3
Hidden (.5x) _ _ _ _ _ _ _ _ _ _ _ _ _ _ _ _ _
 72
    65
 73
     2
 40
4.7625
 49
3.175
 74
     0
 49
-1.5875
 74
     0
  0
LTYPE
  5
71
330
5
100
AcDbSymbolTableRecord
100
AcDbLinetypeTableRecord
  2
CENTER2
 70
     0
  3
Center (.5x) ___ _ ___ _ ___ _ ___ _ ___ _ ___
 72
    65
 73
     4
 40
28.575
 49
19.05
 74
     0
 49
-3.175
 74
     0
 49
3.175
 74
     0
 49
-3.175
 74
     0
  0
LTYPE
  5
72
330
5
100
AcDbSymbolTableRecord
100
AcDbLinetypeTableRecord
  2
PHANTOM2
 70
     0
  3
Phantom (.5x) ___ _ _ ___ _ _ ___ _ _ ___ _ _
 72
    65
 73
     6
 40
31.75
 49
15.875
 74
     0
 49
-3.175
 74
     0
 49
3.175
 74
     0
 49
-3.175
 74
     0
 49
3.175
 74
     0
 49
-3.175
 74
     0
  0
LTYPE
  5
73
330
5
100
AcDbSymbolTableRecord
100
AcDbLinetypeTableRecord
  2
DASHED
 70
     0
  3
Dashed __ __ __ __ __ __ __ __ __ __ __ __ __ _
 72
    65
 73
     2
 40
19.05
 49
12.7
 74
     0
 49
-6.35
 74
     0
  0
LTYPE
  5
74
330
5
100
AcDbSymbolTableRecord
100
AcDbLinetypeTableRecord
  2
CENTER
 70
     0
  3
Center ____ _ ____ _ ____ _ ____ _ ____ _ ____
 72
    65
 73
     4
 40
50.8
 49
31.75
 74
     0
 49
-6.35
 74
     0
 49
6.35
 74
     0
 49
-6.35
 74
     0
  0
LTYPE
  5
75
330
5
100
AcDbSymbolTableRecord
100
AcDbLinetypeTableRecord
  2
PHANTOM
 70
     0
  3
Phantom ______  __  __  ______  __  __  ______
 72
    65
 73
     6
 40
63.5
 49
31.75
 74
     0
 49
-6.35
 74
     0
 49
6.35
 74
     0
 49
-6.35
 74
     0
 49
6.35
 74
     0
 49
-6.35
 74
     0
  0
LTYPE
  5
76
330
5
100
AcDbSymbolTableRecord
100
AcDbLinetypeTableRecord
  2
BORDER2
 70
     0
  3
Border (.5x) __.__.__.__.__.__.__.__.__.__.__.
 72
    65
 73
     6
 40
22.225
 49
6.35
 74
     0
 49
-3.175
 74
     0
 49
6.35
 74
     0
 49
-3.175
 74
     0
 49
0.0
 74
     0
 49
-3.175
 74
     0
  0
LTYPE
  5
77
330
5
100
AcDbSymbolTableRecord
100
AcDbLinetypeTableRecord
  2
HIDDENX2
 70
     0
  3
Hidden (2x) ____ ____ ____ ____ ____ ____ ____
 72
    65
 73
     2
 40
19.05
 49
12.7
 74
     0
 49
-6.35
 74
     0
  0
LTYPE
  5
78
330
5
100
AcDbSymbolTableRecord
100
AcDbLinetypeTableRecord
  2
DOTX2
 70
     0
  3
Dot (2x) .  .  .  .  .  .  .  .  .  .  .  .  . 
 72
    65
 73
     2
 40
12.7
 49
0.0
 74
     0
 49
-12.7
 74
     0
  0
LTYPE
  5
79
330
5
100
AcDbSymbolTableRecord
100
AcDbLinetypeTableRecord
  2
DASHDOTX2
 70
     0
  3
Dash dot (2x) ____  .  ____  .  ____  .  ___
 72
    65
 73
     4
 40
50.8
 49
25.4
 74
     0
 49
-12.7
 74
     0
 49
0.0
 74
     0
 49
-12.7
 74
     0
  0
LTYPE
  5
7A
330
5
100
AcDbSymbolTableRecord
100
AcDbLinetypeTableRecord
  2
DIVIDEX2
 70
     0
  3
Divide (2x) ________  .  .  ________  .  .  _
 72
    65
 73
     6
 40
63.5
 49
25.4
 74
     0
 49
-12.7
 74
     0
 49
0.0
 74
     0
 49
-12.7
 74
     0
 49
0.0
 74
     0
 49
-12.7
 74
     0
  0
LTYPE
  5
7B
330
5
100
AcDbSymbolTableRecord
100
AcDbLinetypeTableRecord
  2
DASHEDX2
 70
     0
  3
Dashed (2x) ____  ____  ____  ____  ____  ___
 72
    65
 73
     2
 40
38.1
 49
25.4
 74
     0
 49
-12.7
 74
     0
  0
LTYPE
  5
7C
330
5
100
AcDbSymbolTableRecord
100
AcDbLinetypeTableRecord
  2
CENTERX2
 70
     0
  3
Center (2x) ________  __  ________  __  _____
 72
    65
 73
     4
 40
101.6
 49
63.5
 74
     0
 49
-12.7
 74
     0
 49
12.7
 74
     0
 49
-12.7
 74
     0
  0
LTYPE
  5
7D
330
5
100
AcDbSymbolTableRecord
100
AcDbLinetypeTableRecord
  2
PHANTOMX2
 70
     0
  3
Phantom (2x) ____________    ____    ____   _
 72
    65
 73
     6
 40
127.0
 49
63.5
 74
     0
 49
-12.7
 74
     0
 49
12.7
 74
     0
 49
-12.7
 74
     0
 49
12.7
 74
     0
 49
-12.7
 74
     0
  0
ENDTAB
  0
TABLE
  2
LAYER
  5
2
330
0
100
AcDbSymbolTable
 70
     4
  0
LAYER
  5
10
330
2
100
AcDbSymbolTableRecord
100
AcDbLayerTableRecord
  2
0
 70
     0
 62
     7
  6
Continuous
370
    -3
390
F
  0
LAYER
  5
7E
330
2
100
AcDbSymbolTableRecord
100
AcDbLayerTableRecord
  2
無題001
 70
     0
 62
     7
  6
Continuous
370
     0
390
F
  0
LAYER
  5
7F
330
2
100
AcDbSymbolTableRecord
100
AcDbLayerTableRecord
  2
2
 70
     0
 62
     7
  6
Continuous
370
     0
390
F
  0
LAYER
  5
80
330
2
100
AcDbSymbolTableRecord
100
AcDbLayerTableRecord
  2
DEFPOINTS
 70
     0
 62
     3
  6
DIVIDE
290
     0
370
     0
390
F
  0
ENDTAB
  0
TABLE
  2
STYLE
  5
3
330
0
100
AcDbSymbolTable
 70
     8
  0
STYLE
  5
11
330
3
100
AcDbSymbolTableRecord
100
AcDbTextStyleTableRecord
  2
Standard
 70
     0
 40
0.0
 41
0.8
 50
0.0
 71
     0
 42
4.0
  3
MONOTXT.shx
  4
EXTFONT.shx
  0
STYLE
  5
81
330
3
100
AcDbSymbolTableRecord
100
AcDbTextStyleTableRecord
  2
DIMSTANDARD
 70
     0
 40
0.0
 41
0.4
 50
0.0
 71
     0
 42
4.0
  3
MONOTXT.shx
  4
EXTFONT.shx
  0
STYLE
  5
12A
330
3
100
AcDbSymbolTableRecord
100
AcDbTextStyleTableRecord
  2
MTSTANDARD
 70
     0
 40
0.0
 41
1.0
 50
0.0
 71
     0
 42
4.0
  3
MONOTXT.shx
  4
EXTFONT.shx
  0
STYLE
  5
12B
330
3
100
AcDbSymbolTableRecord
100
AcDbTextStyleTableRecord
  2
MTSTANDARD1
 70
     0
 40
0.0
 41
0.6
 50
0.0
 71
     0
 42
4.0
  3
MONOTXT.shx
  4
EXTFONT.shx
  0
STYLE
  5
130
330
3
100
AcDbSymbolTableRecord
100
AcDbTextStyleTableRecord
  2
WinFont1
 70
     0
 40
0.0
 41
0.8
 50
0.0
 71
     0
 42
4.0
  3

  4

1001
ACAD
1000
MS Gothic
1071
    32768
  0
STYLE
  5
2C7
330
3
100
AcDbSymbolTableRecord
100
AcDbTextStyleTableRecord
  2
WinFont2
 70
     0
 40
0.0
 41
0.4
 50
0.0
 71
     0
 42
4.0
  3

  4

1001
ACAD
1000
MS Gothic
1071
    32768
  0
STYLE
  5
2E4
330
3
100
AcDbSymbolTableRecord
100
AcDbTextStyleTableRecord
  2
MTSTANDARD2
 70
     0
 40
0.0
 41
0.8
 50
0.0
 71
     0
 42
4.0
  3
MONOTXT.shx
  4
EXTFONT.shx
  0
STYLE
  5
351
330
3
100
AcDbSymbolTableRecord
100
AcDbTextStyleTableRecord
  2
MTSTANDARD3
 70
     0
 40
0.0
 41
0.625
 50
0.0
 71
     0
 42
4.0
  3
MONOTXT.shx
  4
EXTFONT.shx
  0
ENDTAB
  0
TABLE
  2
VIEW
  5
6
330
0
100
AcDbSymbolTable
 70
     0
  0
ENDTAB
  0
TABLE
  2
UCS
  5
7
330
0
100
AcDbSymbolTable
 70
     0
  0
ENDTAB
  0
TABLE
  2
APPID
  5
9
330
0
100
AcDbSymbolTable
 70
     2
  0
APPID
  5
12
330
9
100
AcDbSymbolTableRecord
100
AcDbRegAppTableRecord
  2
ACAD
 70
     0
  0
APPID
  5
3D6
330
9
100
AcDbSymbolTableRecord
100
AcDbRegAppTableRecord
  2
ACAD_MLEADERVER
 70
     0
  0
ENDTAB
  0
TABLE
  2
DIMSTYLE
  5
A
330
0
100
AcDbSymbolTable
 70
     9
100
AcDbDimStyleTable
  0
DIMSTYLE
105
27
330
A
100
AcDbSymbolTableRecord
100
AcDbDimStyleTableRecord
  2
Standard
 70
     0
 41
2.0
 42
0.0
 43
10.0
 44
1.0
 73
     0
 74
     0
 77
     3
 78
     8
 79
     2
140
3.5
141
0.0
146
0.7
147
0.784
176
     4
177
     4
271
     6
178
     4
179
     6
271
     6
340
11
342
86
371
    -1
372
    -1
  0
DIMSTYLE
105
131
102
{ACAD_REACTORS
330
132
330
284
102
}
330
A
100
AcDbSymbolTableRecord
100
AcDbDimStyleTableRecord
  2
DIMSTYEX_1
 70
     0
 41
2.0
 42
0.0
 43
0.0
 44
1.0
 73
     0
 74
     0
 77
     3
 78
     8
 79
     2
140
2.809856
141
0.0
146
0.7
147
0.784
173
     1
176
     4
177
     4
271
     1
178
     4
179
     6
271
     1
272
     1
279
     2
340
130
342
86
343
86
344
86
371
    -1
372
    -1
  0
DIMSTYLE
105
13E
102
{ACAD_REACTORS
330
13F
330
14B
330
183
102
}
330
A
100
AcDbSymbolTableRecord
100
AcDbDimStyleTableRecord
  2
DIMSTYEX_2
 70
     0
 41
2.0
 42
0.0
 43
0.0
 44
1.0
 73
     0
 74
     0
 75
     1
 77
     3
 78
     8
 79
     2
140
2.809856
141
0.0
146
0.7
147
0.784
173
     1
176
     4
177
     4
271
     5
178
     4
179
     6
271
     5
272
     5
279
     2
340
130
342
86
343
86
344
86
371
    -1
372
    -1
  0
DIMSTYLE
105
176
102
{ACAD_REACTORS
330
177
102
}
330
A
100
AcDbSymbolTableRecord
100
AcDbDimStyleTableRecord
  2
DIMSTYEX_3
 70
     0
 41
2.0
 42
0.0
 43
0.0
 44
1.0
 73
     0
 74
     0
 77
     3
 78
     8
 79
     2
140
2.809856
141
0.0
146
0.7
147
0.784
173
     1
176
     4
177
     4
271
     5
178
     4
179
     6
271
     5
272
     5
279
     2
340
130
342
86
343
86
344
86
371
    -1
372
    -1
  0
DIMSTYLE
105
190
102
{ACAD_REACTORS
330
191
330
2E3
102
}
330
A
100
AcDbSymbolTableRecord
100
AcDbDimStyleTableRecord
  2
DIMSTYEX_4
 70
     0
 41
2.0
 42
0.0
 43
12.99999999999999
 44
1.0
 73
     0
 74
     0
 77
     3
 78
     8
 79
     2
140
2.809856
141
0.0
146
0.7
147
0.784
173
     1
176
     4
177
     4
271
     6
178
     4
179
     6
271
     6
272
     6
279
     2
340
130
342
86
343
86
344
86
371
    -1
372
    -1
  0
DIMSTYLE
105
292
102
{ACAD_REACTORS
330
293
330
2A0
330
2AD
330
2BA
330
321
330
32E
330
360
102
}
330
A
100
AcDbSymbolTableRecord
100
AcDbDimStyleTableRecord
  2
DIMSTYEX_5
 70
     0
 41
2.0
 42
0.0
 43
0.0
 44
1.0
 73
     0
 74
     0
 77
     3
 78
     8
 79
     2
140
2.809856
141
0.0
146
0.7
147
0.784
173
     1
176
     4
177
     4
271
     6
178
     4
179
     6
271
     6
272
     6
279
     2
340
130
342
86
343
86
344
86
371
    -1
372
    -1
  0
DIMSTYLE
105
2C8
102
{ACAD_REACTORS
330
2C9
102
}
330
A
100
AcDbSymbolTableRecord
100
AcDbDimStyleTableRecord
  2
DIMSTYEX_6
 70
     0
 41
2.0
 42
0.0
 43
0.0
 44
1.0
 73
     0
 74
     0
 77
     3
 78
     8
 79
     2
140
2.809856
141
0.0
146
0.7
147
0.784
173
     1
176
     4
177
     4
271
     6
178
     4
179
     6
271
     6
272
     6
279
     2
340
2C7
342
86
343
86
344
86
371
    -1
372
    -1
  0
DIMSTYLE
105
338
102
{ACAD_REACTORS
330
339
330
350
102
}
330
A
100
AcDbSymbolTableRecord
100
AcDbDimStyleTableRecord
  2
DIMSTYEX_7
 70
     0
 41
2.0
 42
0.0
 43
0.0
 44
1.0
 73
     0
 74
     0
 75
     1
 76
     1
 77
     3
 78
     8
 79
     2
140
2.809856
141
0.0
146
0.7
147
0.784
172
     1
173
     1
176
     4
177
     4
271
     6
178
     4
179
     6
271
     6
272
     6
288
     1
340
130
342
86
343
86
344
86
371
    -1
372
    -1
  0
DIMSTYLE
105
346
102
{ACAD_REACTORS
330
347
102
}
330
A
100
AcDbSymbolTableRecord
100
AcDbDimStyleTableRecord
  2
DIMSTYEX_8
 70
     0
 41
2.0
 42
0.0
 43
0.0
 44
1.0
 73
     0
 74
     0
 76
     1
 77
     3
 78
     8
 79
     2
140
2.809856
141
0.0
146
0.7
147
0.784
173
     1
176
     4
177
     4
271
     6
178
     4
179
     6
271
     6
272
     6
279
     2
340
130
342
86
343
86
344
86
371
    -1
372
    -1
  0
ENDTAB
  0
TABLE
  2
BLOCK_RECORD
  5
1
330
0
100
AcDbSymbolTable
 70
    30
  0
BLOCK_RECORD
  5
1F
330
1
100
AcDbSymbolTableRecord
100
AcDbBlockTableRecord
  2
*Model_Space
340
22
  0
BLOCK_RECORD
  5
1B
330
1
100
AcDbSymbolTableRecord
100
AcDbBlockTableRecord
  2
*Paper_Space
340
1E
  0
BLOCK_RECORD
  5
82
330
1
100
AcDbSymbolTableRecord
100
AcDbBlockTableRecord
  2
_SMALL
340
0
  0
BLOCK_RECORD
  5
86
330
1
100
AcDbSymbolTableRecord
100
AcDbBlockTableRecord
  2
_OPEN30
340
0
102
{BLKREFS
331
126
331
127
331
137
331
138
331
144
331
145
331
16E
331
16F
331
17C
331
17D
331
188
331
189
331
27C
331
27D
331
28A
331
28B
331
298
331
299
331
2A5
331
2A6
331
2B2
331
2B3
331
2BF
331
2C0
331
2DB
331
2DC
331
319
331
31A
331
326
331
327
331
333
331
334
331
33E
331
33F
331
34C
331
358
331
359
102
}
  0
BLOCK_RECORD
  5
8C
330
1
100
AcDbSymbolTableRecord
100
AcDbBlockTableRecord
  2
_OBLIQUE
340
0
  0
BLOCK_RECORD
  5
90
330
1
100
AcDbSymbolTableRecord
100
AcDbBlockTableRecord
  2
_DOT
340
0
  0
BLOCK_RECORD
  5
94
330
1
100
AcDbSymbolTableRecord
100
AcDbBlockTableRecord
  2
_DOTSMALL
340
0
  0
BLOCK_RECORD
  5
98
330
1
100
AcDbSymbolTableRecord
100
AcDbBlockTableRecord
  2
_DATUMFILLED
340
0
  0
BLOCK_RECORD
  5
9C
330
1
100
AcDbSymbolTableRecord
100
AcDbBlockTableRecord
  2
DATUMFILLED2
340
0
  0
BLOCK_RECORD
  5
A0
330
1
100
AcDbSymbolTableRecord
100
AcDbBlockTableRecord
  2
_DATUMBLANK
340
0
  0
BLOCK_RECORD
  5
A6
330
1
100
AcDbSymbolTableRecord
100
AcDbBlockTableRecord
  2
DATUMBLANK2
340
0
  0
BLOCK_RECORD
  5
AC
330
1
100
AcDbSymbolTableRecord
100
AcDbBlockTableRecord
  2
_NONE
340
0
  0
BLOCK_RECORD
  5
122
330
1
100
AcDbSymbolTableRecord
100
AcDbBlockTableRecord
  2
_D1
340
0
  0
BLOCK_RECORD
  5
133
330
1
100
AcDbSymbolTableRecord
100
AcDbBlockTableRecord
  2
_D2
340
0
  0
BLOCK_RECORD
  5
140
330
1
100
AcDbSymbolTableRecord
100
AcDbBlockTableRecord
  2
_D3
340
0
  0
BLOCK_RECORD
  5
16A
330
1
100
AcDbSymbolTableRecord
100
AcDbBlockTableRecord
  2
_D4
340
0
  0
BLOCK_RECORD
  5
178
330
1
100
AcDbSymbolTableRecord
100
AcDbBlockTableRecord
  2
_D5
340
0
  0
BLOCK_RECORD
  5
184
330
1
100
AcDbSymbolTableRecord
100
AcDbBlockTableRecord
  2
_D6
340
0
  0
BLOCK_RECORD
  5
278
330
1
100
AcDbSymbolTableRecord
100
AcDbBlockTableRecord
  2
_D7
340
0
  0
BLOCK_RECORD
  5
286
330
1
100
AcDbSymbolTableRecord
100
AcDbBlockTableRecord
  2
_D8
340
0
  0
BLOCK_RECORD
  5
294
330
1
100
AcDbSymbolTableRecord
100
AcDbBlockTableRecord
  2
_D9
340
0
  0
BLOCK_RECORD
  5
2A1
330
1
100
AcDbSymbolTableRecord
100
AcDbBlockTableRecord
  2
_D10
340
0
  0
BLOCK_RECORD
  5
2AE
330
1
100
AcDbSymbolTableRecord
100
AcDbBlockTableRecord
  2
_D11
340
0
  0
BLOCK_RECORD
  5
2BB
330
1
100
AcDbSymbolTableRecord
100
AcDbBlockTableRecord
  2
_D12
340
0
  0
BLOCK_RECORD
  5
2D7
330
1
100
AcDbSymbolTableRecord
100
AcDbBlockTableRecord
  2
_D13
340
0
  0
BLOCK_RECORD
  5
315
330
1
100
AcDbSymbolTableRecord
100
AcDbBlockTableRecord
  2
_D14
340
0
  0
BLOCK_RECORD
  5
322
330
1
100
AcDbSymbolTableRecord
100
AcDbBlockTableRecord
  2
_D15
340
0
  0
BLOCK_RECORD
  5
32F
330
1
100
AcDbSymbolTableRecord
100
AcDbBlockTableRecord
  2
_D16
340
0
  0
BLOCK_RECORD
  5
33A
330
1
100
AcDbSymbolTableRecord
100
AcDbBlockTableRecord
  2
_D17
340
0
  0
BLOCK_RECORD
  5
348
330
1
100
AcDbSymbolTableRecord
100
AcDbBlockTableRecord
  2
_D18
340
0
  0
BLOCK_RECORD
  5
354
330
1
100
AcDbSymbolTableRecord
100
AcDbBlockTableRecord
  2
_D19
340
0
  0
BLOCK_RECORD
  5
368
330
1
100
AcDbSymbolTableRecord
100
AcDbBlockTableRecord
  2
BLK0
340
0
102
{BLKREFS
331
385
102
}
  0
ENDTAB
  0
ENDSEC
  0
SECTION
  2
BLOCKS
  0
BLOCK
  5
20
330
1F
100
AcDbEntity
  8
0
100
AcDbBlockBegin
  2
*Model_Space
 70
     0
 10
0.0
 20
0.0
 30
0.0
  3
*Model_Space
  1

  0
ENDBLK
  5
21
330
1F
100
AcDbEntity
  8
0
100
AcDbBlockEnd
  0
BLOCK
  5
1C
330
1B
100
AcDbEntity
 67
     1
  8
0
100
AcDbBlockBegin
  2
*Paper_Space
 70
     0
 10
0.0
 20
0.0
 30
0.0
  3
*Paper_Space
  1

  0
ENDBLK
  5
1D
330
1B
100
AcDbEntity
 67
     1
  8
0
100
AcDbBlockEnd
  0
BLOCK
  5
83
330
82
100
AcDbEntity
  8
0
100
AcDbBlockBegin
  2
_SMALL
 70
     0
 10
0.0
 20
0.0
 30
0.0
  3
_SMALL
  1

  0
CIRCLE
  5
85
330
82
100
AcDbEntity
  8
0
  6
ByBlock
 62
     0
370
    -2
100
AcDbCircle
 10
0.0
 20
0.0
 30
0.0
 40
0.1666666666
  0
CIRCLE
  5
386
330
82
100
AcDbEntity
  8
0
  6
ByBlock
 62
     0
370
    -2
100
AcDbCircle
 10
0.0
 20
0.0
 30
0.0
 40
0.1666666666
  0
ENDBLK
  5
84
330
82
100
AcDbEntity
  8
0
100
AcDbBlockEnd
  0
BLOCK
  5
87
330
86
100
AcDbEntity
  8
0
100
AcDbBlockBegin
  2
_OPEN30
 70
     0
 10
0.0
 20
0.0
 30
0.0
  3
_OPEN30
  1

  0
LINE
  5
89
330
86
100
AcDbEntity
  8
0
  6
ByBlock
 62
     0
370
    -2
100
AcDbLine
 10
-1.0
 20
0.26794919
 30
0.0
 11
0.0
 21
0.0
 31
0.0
  0
LINE
  5
8A
330
86
100
AcDbEntity
  8
0
  6
ByBlock
 62
     0
370
    -2
100
AcDbLine
 10
0.0
 20
0.0
 30
0.0
 11
-1.0
 21
-0.26794919
 31
0.0
  0
LINE
  5
8B
330
86
100
AcDbEntity
  8
0
  6
ByBlock
 62
     0
370
    -2
100
AcDbLine
 10
0.0
 20
0.0
 30
0.0
 11
-1.0
 21
0.0
 31
0.0
  0
LINE
  5
387
330
86
100
AcDbEntity
  8
0
  6
ByBlock
 62
     0
370
    -2
100
AcDbLine
 10
-1.0
 20
0.26794919
 30
0.0
 11
0.0
 21
0.0
 31
0.0
  0
LINE
  5
388
330
86
100
AcDbEntity
  8
0
  6
ByBlock
 62
     0
370
    -2
100
AcDbLine
 10
0.0
 20
0.0
 30
0.0
 11
-1.0
 21
-0.26794919
 31
0.0
  0
LINE
  5
389
330
86
100
AcDbEntity
  8
0
  6
ByBlock
 62
     0
370
    -2
100
AcDbLine
 10
0.0
 20
0.0
 30
0.0
 11
-1.0
 21
0.0
 31
0.0
  0
ENDBLK
  5
88
330
86
100
AcDbEntity
  8
0
100
AcDbBlockEnd
  0
BLOCK
  5
8D
330
8C
100
AcDbEntity
  8
0
100
AcDbBlockBegin
  2
_OBLIQUE
 70
     0
 10
0.0
 20
0.0
 30
0.0
  3
_OBLIQUE
  1

  0
LINE
  5
8F
330
8C
100
AcDbEntity
  8
0
  6
ByBlock
 62
     0
370
    -2
100
AcDbLine
 10
-0.5
 20
-0.5
 30
0.0
 11
0.5
 21
0.5
 31
0.0
  0
LINE
  5
38A
330
8C
100
AcDbEntity
  8
0
  6
ByBlock
 62
     0
370
    -2
100
AcDbLine
 10
-0.5
 20
-0.5
 30
0.0
 11
0.5
 21
0.5
 31
0.0
  0
ENDBLK
  5
8E
330
8C
100
AcDbEntity
  8
0
100
AcDbBlockEnd
  0
BLOCK
  5
91
330
90
100
AcDbEntity
  8
0
100
AcDbBlockBegin
  2
_DOT
 70
     0
 10
0.0
 20
0.0
 30
0.0
  3
_DOT
  1

  0
LWPOLYLINE
  5
93
330
90
100
AcDbEntity
  8
0
  6
ByBlock
 62
     0
370
    -2
100
AcDbPolyline
 90
        2
 70
     1
 43
0.5
 10
-0.25
 20
0.0
 42
1.0
 10
0.25
 20
0.0
 42
1.0
  0
LWPOLYLINE
  5
38B
330
90
100
AcDbEntity
  8
0
  6
ByBlock
 62
     0
370
    -2
100
AcDbPolyline
 90
        2
 70
     1
 43
0.5
 10
-0.25
 20
0.0
 42
1.0
 10
0.25
 20
0.0
 42
1.0
  0
ENDBLK
  5
92
330
90
100
AcDbEntity
  8
0
100
AcDbBlockEnd
  0
BLOCK
  5
95
330
94
100
AcDbEntity
  8
0
100
AcDbBlockBegin
  2
_DOTSMALL
 70
     0
 10
0.0
 20
0.0
 30
0.0
  3
_DOTSMALL
  1

  0
LWPOLYLINE
  5
97
330
94
100
AcDbEntity
  8
0
  6
ByBlock
 62
     0
370
    -2
100
AcDbPolyline
 90
        2
 70
     1
 43
0.5
 10
-0.0625
 20
0.0
 42
1.0
 10
0.0625
 20
0.0
 42
1.0
  0
LWPOLYLINE
  5
38C
330
94
100
AcDbEntity
  8
0
  6
ByBlock
 62
     0
370
    -2
100
AcDbPolyline
 90
        2
 70
     1
 43
0.5
 10
-0.0625
 20
0.0
 42
1.0
 10
0.0625
 20
0.0
 42
1.0
  0
ENDBLK
  5
96
330
94
100
AcDbEntity
  8
0
100
AcDbBlockEnd
  0
BLOCK
  5
99
330
98
100
AcDbEntity
  8
0
100
AcDbBlockBegin
  2
_DATUMFILLED
 70
     0
 10
0.0
 20
0.0
 30
0.0
  3
_DATUMFILLED
  1

  0
SOLID
  5
9B
330
98
100
AcDbEntity
  8
0
  6
ByBlock
 62
     0
370
    -2
100
AcDbTrace
 10
0.0
 20
0.57735027
 30
0.0
 11
-1.0
 21
0.0
 31
0.0
 12
0.0
 22
-0.57735027
 32
0.0
 13
0.0
 23
-0.57735027
 33
0.0
  0
SOLID
  5
38D
330
98
100
AcDbEntity
  8
0
  6
ByBlock
 62
     0
370
    -2
100
AcDbTrace
 10
0.0
 20
0.57735027
 30
0.0
 11
-1.0
 21
0.0
 31
0.0
 12
0.0
 22
-0.57735027
 32
0.0
 13
0.0
 23
-0.57735027
 33
0.0
  0
ENDBLK
  5
9A
330
98
100
AcDbEntity
  8
0
100
AcDbBlockEnd
  0
BLOCK
  5
9D
330
9C
100
AcDbEntity
  8
0
100
AcDbBlockBegin
  2
DATUMFILLED2
 70
     0
 10
0.0
 20
0.0
 30
0.0
  3
DATUMFILLED2
  1

  0
SOLID
  5
9F
330
9C
100
AcDbEntity
  8
0
  6
ByBlock
 62
     0
370
    -2
100
AcDbTrace
 10
0.0
 20
1.0
 30
0.0
 11
-1.0
 21
0.0
 31
0.0
 12
0.0
 22
-1.0
 32
0.0
 13
0.0
 23
-1.0
 33
0.0
  0
SOLID
  5
38E
330
9C
100
AcDbEntity
  8
0
  6
ByBlock
 62
     0
370
    -2
100
AcDbTrace
 10
0.0
 20
1.0
 30
0.0
 11
-1.0
 21
0.0
 31
0.0
 12
0.0
 22
-1.0
 32
0.0
 13
0.0
 23
-1.0
 33
0.0
  0
ENDBLK
  5
9E
330
9C
100
AcDbEntity
  8
0
100
AcDbBlockEnd
  0
BLOCK
  5
A1
330
A0
100
AcDbEntity
  8
0
100
AcDbBlockBegin
  2
_DATUMBLANK
 70
     0
 10
0.0
 20
0.0
 30
0.0
  3
_DATUMBLANK
  1

  0
LINE
  5
A3
330
A0
100
AcDbEntity
  8
0
  6
ByBlock
 62
     0
370
    -2
100
AcDbLine
 10
0.0
 20
0.57735027
 30
0.0
 11
-1.0
 21
0.0
 31
0.0
  0
LINE
  5
A4
330
A0
100
AcDbEntity
  8
0
  6
ByBlock
 62
     0
370
    -2
100
AcDbLine
 10
-1.0
 20
0.0
 30
0.0
 11
0.0
 21
-0.57735027
 31
0.0
  0
LINE
  5
A5
330
A0
100
AcDbEntity
  8
0
  6
ByBlock
 62
     0
370
    -2
100
AcDbLine
 10
0.0
 20
-0.57735027
 30
0.0
 11
0.0
 21
0.57735027
 31
0.0
  0
LINE
  5
38F
330
A0
100
AcDbEntity
  8
0
  6
ByBlock
 62
     0
370
    -2
100
AcDbLine
 10
0.0
 20
0.57735027
 30
0.0
 11
-1.0
 21
0.0
 31
0.0
  0
LINE
  5
390
330
A0
100
AcDbEntity
  8
0
  6
ByBlock
 62
     0
370
    -2
100
AcDbLine
 10
-1.0
 20
0.0
 30
0.0
 11
0.0
 21
-0.57735027
 31
0.0
  0
LINE
  5
391
330
A0
100
AcDbEntity
  8
0
  6
ByBlock
 62
     0
370
    -2
100
AcDbLine
 10
0.0
 20
-0.57735027
 30
0.0
 11
0.0
 21
0.57735027
 31
0.0
  0
ENDBLK
  5
A2
330
A0
100
AcDbEntity
  8
0
100
AcDbBlockEnd
  0
BLOCK
  5
A7
330
A6
100
AcDbEntity
  8
0
100
AcDbBlockBegin
  2
DATUMBLANK2
 70
     0
 10
0.0
 20
0.0
 30
0.0
  3
DATUMBLANK2
  1

  0
LINE
  5
A9
330
A6
100
AcDbEntity
  8
0
  6
ByBlock
 62
     0
370
    -2
100
AcDbLine
 10
0.0
 20
1.0
 30
0.0
 11
-1.0
 21
0.0
 31
0.0
  0
LINE
  5
AA
330
A6
100
AcDbEntity
  8
0
  6
ByBlock
 62
     0
370
    -2
100
AcDbLine
 10
-1.0
 20
0.0
 30
0.0
 11
0.0
 21
-1.0
 31
0.0
  0
LINE
  5
AB
330
A6
100
AcDbEntity
  8
0
  6
ByBlock
 62
     0
370
    -2
100
AcDbLine
 10
0.0
 20
-1.0
 30
0.0
 11
0.0
 21
1.0
 31
0.0
  0
LINE
  5
392
330
A6
100
AcDbEntity
  8
0
  6
ByBlock
 62
     0
370
    -2
100
AcDbLine
 10
0.0
 20
1.0
 30
0.0
 11
-1.0
 21
0.0
 31
0.0
  0
LINE
  5
393
330
A6
100
AcDbEntity
  8
0
  6
ByBlock
 62
     0
370
    -2
100
AcDbLine
 10
-1.0
 20
0.0
 30
0.0
 11
0.0
 21
-1.0
 31
0.0
  0
LINE
  5
394
330
A6
100
AcDbEntity
  8
0
  6
ByBlock
 62
     0
370
    -2
100
AcDbLine
 10
0.0
 20
-1.0
 30
0.0
 11
0.0
 21
1.0
 31
0.0
  0
ENDBLK
  5
A8
330
A6
100
AcDbEntity
  8
0
100
AcDbBlockEnd
  0
BLOCK
  5
AD
330
AC
100
AcDbEntity
  8
0
100
AcDbBlockBegin
  2
_NONE
 70
     0
 10
0.0
 20
0.0
 30
0.0
  3
_NONE
  1

  0
ENDBLK
  5
AE
330
AC
100
AcDbEntity
  8
0
100
AcDbBlockEnd
  0
BLOCK
  5
123
330
122
100
AcDbEntity
  8
0
100
AcDbBlockBegin
  2
_D1
 70
     0
 10
0.0
 20
0.0
 30
0.0
  3
_D1
  1

  0
LINE
  5
125
330
122
100
AcDbEntity
  8
無題001
  6
Continuous
 62
     4
100
AcDbLine
 10
54.0027228181
 20
112.3703414052
 30
0.0
 11
70.8742254324
 21
112.3703414052
 31
0.0
  0
INSERT
  5
126
330
122
100
AcDbEntity
  8
無題001
  6
Continuous
 62
     4
100
AcDbBlockReference
  2
_OPEN30
 10
54.0027228181
 20
112.3703414052
 30
0.0
 41
1.969615506024418
 42
1.969615506024418
 43
1.969615506024418
 50
180.0
  0
INSERT
  5
127
330
122
100
AcDbEntity
  8
無題001
  6
Continuous
 62
     4
100
AcDbBlockReference
  2
_OPEN30
 10
70.8742254324
 20
112.3703414052
 30
0.0
 41
1.969615506024411
 42
1.969615506024411
 43
1.969615506024411
  0
LINE
  5
128
330
122
100
AcDbEntity
  8
無題001
  6
Continuous
 62
     4
100
AcDbLine
 10
54.0027228181
 20
162.7476916744
 30
0.0
 11
54.0027228181
 21
111.3703414052
 31
0.0
  0
LINE
  5
129
330
122
100
AcDbEntity
  8
無題001
  6
Continuous
 62
     4
100
AcDbLine
 10
70.8742254324
 20
153.2703414052
 30
0.0
 11
70.8742254324
 21
111.3703414052
 31
0.0
  0
MTEXT
  5
12C
330
122
100
AcDbEntity
  8
無題001
  6
Continuous
 62
     4
100
AcDbMText
 10
59.61607412524999
 20
113.0728054052
 30
0.0
 40
3.136
 41
0.0
 71
     7
 72
     5
  1
{\fＭＳ ゴシック|b0|i0|c128|p49;\W1.0;(16.9)}
  7
MTSTANDARD1
 73
     1
 44
0.8
  0
POINT
  5
12D
330
122
100
AcDbEntity
  8
DEFPOINTS
  6
Continuous
 62
     4
100
AcDbPoint
 10
54.0027228181
 20
162.7476916744
 30
0.0
  0
POINT
  5
12E
330
122
100
AcDbEntity
  8
DEFPOINTS
  6
Continuous
 62
     4
100
AcDbPoint
 10
70.8742254324
 20
153.2703414052
 30
0.0
  0
POINT
  5
12F
330
122
100
AcDbEntity
  8
DEFPOINTS
  6
Continuous
 62
     4
100
AcDbPoint
 10
70.8742254324
 20
112.3703414052
 30
0.0
  0
ENDBLK
  5
124
330
122
100
AcDbEntity
  8
0
100
AcDbBlockEnd
  0
BLOCK
  5
134
330
133
100
AcDbEntity
  8
0
100
AcDbBlockBegin
  2
_D2
 70
     0
 10
0.0
 20
0.0
 30
0.0
  3
_D2
  1

  0
LINE
  5
136
330
133
100
AcDbEntity
  8
無題001
  6
Continuous
 62
     4
100
AcDbLine
 10
70.8742254324
 20
112.3703414052
 30
0.0
 11
207.1742254326
 21
112.3703414052
 31
0.0
  0
INSERT
  5
137
330
133
100
AcDbEntity
  8
無題001
  6
Continuous
 62
     4
100
AcDbBlockReference
  2
_OPEN30
 10
70.8742254324
 20
112.3703414052
 30
0.0
 41
1.969615506024411
 42
1.969615506024411
 43
1.969615506024411
 50
180.0
  0
INSERT
  5
138
330
133
100
AcDbEntity
  8
無題001
  6
Continuous
 62
     4
100
AcDbBlockReference
  2
_OPEN30
 10
207.1742254326
 20
112.3703414052
 30
0.0
 41
1.969615506024411
 42
1.969615506024411
 43
1.969615506024411
  0
LINE
  5
139
330
133
100
AcDbEntity
  8
無題001
  6
Continuous
 62
     4
100
AcDbLine
 10
207.1742254326
 20
153.2203414052
 30
0.0
 11
207.1742254326
 21
111.3703414052
 31
0.0
  0
MTEXT
  5
13A
330
133
100
AcDbEntity
  8
無題001
  6
Continuous
 62
     4
100
AcDbMText
 10
136.6722254325
 20
113.0728054052
 30
0.0
 40
3.136
 41
0.0
 71
     7
 72
     5
  1
{\fＭＳ ゴシック|b0|i0|c128|p49;\W1.0;136.3}
  7
MTSTANDARD1
 73
     1
 44
0.8
  0
POINT
  5
13B
330
133
100
AcDbEntity
  8
DEFPOINTS
  6
Continuous
 62
     4
100
AcDbPoint
 10
70.8742254324
 20
153.2703414052
 30
0.0
  0
POINT
  5
13C
330
133
100
AcDbEntity
  8
DEFPOINTS
  6
Continuous
 62
     4
100
AcDbPoint
 10
207.1742254326
 20
153.2203414052
 30
0.0
  0
POINT
  5
13D
330
133
100
AcDbEntity
  8
DEFPOINTS
  6
Continuous
 62
     4
100
AcDbPoint
 10
207.1742254326
 20
112.3703414052
 30
0.0
  0
ENDBLK
  5
135
330
133
100
AcDbEntity
  8
0
100
AcDbBlockEnd
  0
BLOCK
  5
141
330
140
100
AcDbEntity
  8
0
100
AcDbBlockBegin
  2
_D3
 70
     0
 10
0.0
 20
0.0
 30
0.0
  3
_D3
  1

  0
LINE
  5
143
330
140
100
AcDbEntity
  8
無題001
  6
Continuous
 62
     4
100
AcDbLine
 10
207.1742254326
 20
112.3703414051
 30
0.0
 11
218.1742254316
 21
112.3703414051
 31
0.0
  0
INSERT
  5
144
330
140
100
AcDbEntity
  8
無題001
  6
Continuous
 62
     4
100
AcDbBlockReference
  2
_OPEN30
 10
207.1742254326
 20
112.3703414051
 30
0.0
 41
1.969615506024411
 42
1.969615506024411
 43
1.969615506024411
 50
180.0
  0
INSERT
  5
145
330
140
100
AcDbEntity
  8
無題001
  6
Continuous
 62
     4
100
AcDbBlockReference
  2
_OPEN30
 10
218.1742254316
 20
112.3703414051
 30
0.0
 41
1.969615506024411
 42
1.969615506024411
 43
1.969615506024411
  0
LINE
  5
146
330
140
100
AcDbEntity
  8
無題001
  6
Continuous
 62
     4
100
AcDbLine
 10
218.1742254316
 20
162.1203414052
 30
0.0
 11
218.1742254316
 21
111.3703414051
 31
0.0
  0
MTEXT
  5
147
330
140
100
AcDbEntity
  8
無題001
  6
Continuous
 62
     4
100
AcDbMText
 10
210.85264406602
 20
113.0728054051
 30
0.0
 40
3.136
 41
0.0
 71
     7
 72
     5
  1
{\fＭＳ ゴシック|b0|i0|c128|p49;\W1.0;(11)}
  7
MTSTANDARD1
 73
     1
 44
0.8
  0
POINT
  5
148
330
140
100
AcDbEntity
  8
DEFPOINTS
  6
Continuous
 62
     4
100
AcDbPoint
 10
207.1742254326
 20
153.2203414052
 30
0.0
  0
POINT
  5
149
330
140
100
AcDbEntity
  8
DEFPOINTS
  6
Continuous
 62
     4
100
AcDbPoint
 10
218.1742254316
 20
162.1203414052
 30
0.0
  0
POINT
  5
14A
330
140
100
AcDbEntity
  8
DEFPOINTS
  6
Continuous
 62
     4
100
AcDbPoint
 10
218.1742254316
 20
112.3703414051
 30
0.0
  0
ENDBLK
  5
142
330
140
100
AcDbEntity
  8
0
100
AcDbBlockEnd
  0
BLOCK
  5
16B
330
16A
100
AcDbEntity
  8
0
100
AcDbBlockBegin
  2
_D4
 70
     0
 10
0.0
 20
0.0
 30
0.0
  3
_D4
  1

  0
LINE
  5
16D
330
16A
100
AcDbEntity
  8
無題001
  6
Continuous
 62
     4
100
AcDbLine
 10
70.8742251473
 20
128.3703414052
 30
0.0
 11
120.8742251473
 21
128.3703414052
 31
0.0
  0
INSERT
  5
16E
330
16A
100
AcDbEntity
  8
無題001
  6
Continuous
 62
     4
100
AcDbBlockReference
  2
_OPEN30
 10
70.8742251473
 20
128.3703414052
 30
0.0
 41
1.969615506024411
 42
1.969615506024411
 43
1.969615506024411
 50
180.0
  0
INSERT
  5
16F
330
16A
100
AcDbEntity
  8
無題001
  6
Continuous
 62
     4
100
AcDbBlockReference
  2
_OPEN30
 10
120.8742251473
 20
128.3703414052
 30
0.0
 41
1.969615506024411
 42
1.969615506024411
 43
1.969615506024411
  0
LINE
  5
170
330
16A
100
AcDbEntity
  8
無題001
  6
Continuous
 62
     4
100
AcDbLine
 10
70.8742251473
 20
153.2703414052
 30
0.0
 11
70.8742251473
 21
127.3703414052
 31
0.0
  0
LINE
  5
171
330
16A
100
AcDbEntity
  8
無題001
  6
Continuous
 62
     4
100
AcDbLine
 10
120.8742251473
 20
146.3703414052
 30
0.0
 11
120.8742251473
 21
127.3703414052
 31
0.0
  0
MTEXT
  5
172
330
16A
100
AcDbEntity
  8
無題001
  6
Continuous
 62
     4
100
AcDbMText
 10
94.9334251473
 20
129.0728054052
 30
0.0
 40
3.136
 41
0.0
 71
     7
 72
     5
  1
{\fＭＳ ゴシック|b0|i0|c128|p49;\W1.0;50}
  7
MTSTANDARD1
 73
     1
 44
0.8
  0
POINT
  5
173
330
16A
100
AcDbEntity
  8
DEFPOINTS
  6
Continuous
 62
     4
100
AcDbPoint
 10
70.8742251473
 20
153.2703414052
 30
0.0
  0
POINT
  5
174
330
16A
100
AcDbEntity
  8
DEFPOINTS
  6
Continuous
 62
     4
100
AcDbPoint
 10
120.8742251473
 20
146.3703414052
 30
0.0
  0
POINT
  5
175
330
16A
100
AcDbEntity
  8
DEFPOINTS
  6
Continuous
 62
     4
100
AcDbPoint
 10
120.8742251473
 20
128.3703414052
 30
0.0
  0
ENDBLK
  5
16C
330
16A
100
AcDbEntity
  8
0
100
AcDbBlockEnd
  0
BLOCK
  5
179
330
178
100
AcDbEntity
  8
0
100
AcDbBlockBegin
  2
_D5
 70
     0
 10
0.0
 20
0.0
 30
0.0
  3
_D5
  1

  0
LINE
  5
17B
330
178
100
AcDbEntity
  8
無題001
  6
Continuous
 62
     4
100
AcDbLine
 10
120.8742251473
 20
128.3703414052
 30
0.0
 11
128.8742251473
 21
128.3703414052
 31
0.0
  0
INSERT
  5
17C
330
178
100
AcDbEntity
  8
無題001
  6
Continuous
 62
     4
100
AcDbBlockReference
  2
_OPEN30
 10
120.8742251473
 20
128.3703414052
 30
0.0
 41
1.969615506024411
 42
1.969615506024411
 43
1.969615506024411
 50
180.0
  0
INSERT
  5
17D
330
178
100
AcDbEntity
  8
無題001
  6
Continuous
 62
     4
100
AcDbBlockReference
  2
_OPEN30
 10
128.8742251473
 20
128.3703414052
 30
0.0
 41
1.969615506024411
 42
1.969615506024411
 43
1.969615506024411
  0
LINE
  5
17E
330
178
100
AcDbEntity
  8
無題001
  6
Continuous
 62
     4
100
AcDbLine
 10
128.8742251473
 20
146.3703414052
 30
0.0
 11
128.8742251473
 21
127.3703414052
 31
0.0
  0
MTEXT
  5
17F
330
178
100
AcDbEntity
  8
無題001
  6
Continuous
 62
     4
100
AcDbMText
 10
124.4038251473
 20
129.0728054052
 30
0.0
 40
3.136
 41
0.0
 71
     7
 72
     5
  1
{\fＭＳ ゴシック|b0|i0|c128|p49;\W1.0;8}
  7
MTSTANDARD1
 73
     1
 44
0.8
  0
POINT
  5
180
330
178
100
AcDbEntity
  8
DEFPOINTS
  6
Continuous
 62
     4
100
AcDbPoint
 10
120.8742251473
 20
146.3703414052
 30
0.0
  0
POINT
  5
181
330
178
100
AcDbEntity
  8
DEFPOINTS
  6
Continuous
 62
     4
100
AcDbPoint
 10
128.8742251473
 20
146.3703414052
 30
0.0
  0
POINT
  5
182
330
178
100
AcDbEntity
  8
DEFPOINTS
  6
Continuous
 62
     4
100
AcDbPoint
 10
128.8742251473
 20
128.3703414052
 30
0.0
  0
ENDBLK
  5
17A
330
178
100
AcDbEntity
  8
0
100
AcDbBlockEnd
  0
BLOCK
  5
185
330
184
100
AcDbEntity
  8
0
100
AcDbBlockBegin
  2
_D6
 70
     0
 10
0.0
 20
0.0
 30
0.0
  3
_D6
  1

  0
LINE
  5
187
330
184
100
AcDbEntity
  8
無題001
  6
Continuous
 62
     4
100
AcDbLine
 10
38.0027228181
 20
182.8703414052
 30
0.0
 11
38.0027228181
 21
152.8703414052
 31
0.0
  0
INSERT
  5
188
330
184
100
AcDbEntity
  8
無題001
  6
Continuous
 62
     4
100
AcDbBlockReference
  2
_OPEN30
 10
38.0027228181
 20
182.8703414052
 30
0.0
 41
1.969615506024411
 42
1.969615506024411
 43
1.969615506024411
 50
90.0
  0
INSERT
  5
189
330
184
100
AcDbEntity
  8
無題001
  6
Continuous
 62
     4
100
AcDbBlockReference
  2
_OPEN30
 10
38.0027228181
 20
152.8703414052
 30
0.0
 41
1.969615506024411
 42
1.969615506024411
 43
1.969615506024411
 50
270.0
  0
LINE
  5
18A
330
184
100
AcDbEntity
  8
無題001
  6
Continuous
 62
     4
100
AcDbLine
 10
77.3723013587
 20
182.8703414052
 30
0.0
 11
37.0027228181
 21
182.8703414052
 31
0.0
  0
LINE
  5
18B
330
184
100
AcDbEntity
  8
無題001
  6
Continuous
 62
     4
100
AcDbLine
 10
77.3723013587
 20
152.8703414052
 30
0.0
 11
37.0027228181
 21
152.8703414052
 31
0.0
  0
MTEXT
  5
18C
330
184
100
AcDbEntity
  8
無題001
  6
Continuous
 62
     4
100
AcDbMText
 10
37.3002588181
 20
164.4207414052
 30
0.0
 40
3.136
 41
0.0
 71
     7
 72
     5
  1
{\fＭＳ ゴシック|b0|i0|c128|p49;\W1.0;φ30{\H0.70x;\A2\S 0^ -0.01;}}
  7
MTSTANDARD1
 11
0.0
 21
1.0
 31
0.0
 73
     1
 44
0.8
  0
POINT
  5
18D
330
184
100
AcDbEntity
  8
DEFPOINTS
  6
Continuous
 62
     4
100
AcDbPoint
 10
77.3723013587
 20
182.8703414052
 30
0.0
  0
POINT
  5
18E
330
184
100
AcDbEntity
  8
DEFPOINTS
  6
Continuous
 62
     4
100
AcDbPoint
 10
77.3723013587
 20
152.8703414052
 30
0.0
  0
POINT
  5
18F
330
184
100
AcDbEntity
  8
DEFPOINTS
  6
Continuous
 62
     4
100
AcDbPoint
 10
38.0027228181
 20
152.8703414052
 30
0.0
  0
ENDBLK
  5
186
330
184
100
AcDbEntity
  8
0
100
AcDbBlockEnd
  0
BLOCK
  5
279
330
278
100
AcDbEntity
  8
0
100
AcDbBlockBegin
  2
_D7
 70
     0
 10
0.0
 20
0.0
 30
0.0
  3
_D7
  1

  0
LINE
  5
27B
330
278
100
AcDbEntity
  8
無題001
  6
Continuous
 62
     4
100
AcDbLine
 10
54.0027228181
 20
104.3703414052
 30
0.0
 11
207.1742254326
 21
104.3703414052
 31
0.0
  0
INSERT
  5
27C
330
278
100
AcDbEntity
  8
無題001
  6
Continuous
 62
     4
100
AcDbBlockReference
  2
_OPEN30
 10
54.0027228181
 20
104.3703414052
 30
0.0
 41
1.969615506024418
 42
1.969615506024418
 43
1.969615506024418
 50
180.0
  0
INSERT
  5
27D
330
278
100
AcDbEntity
  8
無題001
  6
Continuous
 62
     4
100
AcDbBlockReference
  2
_OPEN30
 10
207.1742254326
 20
104.3703414052
 30
0.0
 41
1.969615506024411
 42
1.969615506024411
 43
1.969615506024411
  0
LINE
  5
27E
330
278
100
AcDbEntity
  8
無題001
  6
Continuous
 62
     4
100
AcDbLine
 10
54.0027228181
 20
162.7476916744
 30
0.0
 11
54.0027228181
 21
103.3703414052
 31
0.0
  0
LINE
  5
27F
330
278
100
AcDbEntity
  8
無題001
  6
Continuous
 62
     4
100
AcDbLine
 10
207.1742254326
 20
153.2203414052
 30
0.0
 11
207.1742254326
 21
103.3703414052
 31
0.0
  0
MTEXT
  5
280
330
278
100
AcDbEntity
  8
無題001
  6
Continuous
 62
     4
100
AcDbMText
 10
127.29567412535
 20
105.0728054052
 30
0.0
 40
3.136
 41
0.0
 71
     7
 72
     5
  1
{\fＭＳ ゴシック|b0|i0|c128|p49;\W1.0;(153.2)}
  7
MTSTANDARD1
 73
     1
 44
0.8
  0
POINT
  5
281
330
278
100
AcDbEntity
  8
DEFPOINTS
  6
Continuous
 62
     4
100
AcDbPoint
 10
54.0027228181
 20
162.7476916744
 30
0.0
  0
POINT
  5
282
330
278
100
AcDbEntity
  8
DEFPOINTS
  6
Continuous
 62
     4
100
AcDbPoint
 10
207.1742254326
 20
153.2203414052
 30
0.0
  0
POINT
  5
283
330
278
100
AcDbEntity
  8
DEFPOINTS
  6
Continuous
 62
     4
100
AcDbPoint
 10
207.1742254326
 20
104.3703414052
 30
0.0
  0
ENDBLK
  5
27A
330
278
100
AcDbEntity
  8
0
100
AcDbBlockEnd
  0
BLOCK
  5
287
330
286
100
AcDbEntity
  8
0
100
AcDbBlockBegin
  2
_D8
 70
     0
 10
0.0
 20
0.0
 30
0.0
  3
_D8
  1

  0
LINE
  5
289
330
286
100
AcDbEntity
  8
無題001
  6
Continuous
 62
     4
100
AcDbLine
 10
54.0027228181
 20
120.3703414052
 30
0.0
 11
66.5027228181
 21
120.3703414052
 31
0.0
  0
INSERT
  5
28A
330
286
100
AcDbEntity
  8
無題001
  6
Continuous
 62
     4
100
AcDbBlockReference
  2
_OPEN30
 10
54.0027228181
 20
120.3703414052
 30
0.0
 41
1.969615506024418
 42
1.969615506024418
 43
1.969615506024418
 50
180.0
  0
INSERT
  5
28B
330
286
100
AcDbEntity
  8
無題001
  6
Continuous
 62
     4
100
AcDbBlockReference
  2
_OPEN30
 10
66.5027228181
 20
120.3703414052
 30
0.0
 41
1.969615506024411
 42
1.969615506024411
 43
1.969615506024411
  0
LINE
  5
28C
330
286
100
AcDbEntity
  8
無題001
  6
Continuous
 62
     4
100
AcDbLine
 10
54.0027228181
 20
162.7476916744
 30
0.0
 11
54.00272281809999
 21
119.3703414052
 31
0.0
  0
LINE
  5
28D
330
286
100
AcDbEntity
  8
無題001
  6
Continuous
 62
     4
100
AcDbLine
 10
66.5027228181
 20
160.4203414052
 30
0.0
 11
66.5027228181
 21
119.3703414052
 31
0.0
  0
MTEXT
  5
28E
330
286
100
AcDbEntity
  8
無題001
  6
Continuous
 62
     4
100
AcDbMText
 10
58.3711228181
 20
121.0728054052
 30
0.0
 40
3.136
 41
0.0
 71
     7
 72
     5
  1
{\fＭＳ ゴシック|b0|i0|c128|p49;\W1.0;12.5}
  7
MTSTANDARD1
 73
     1
 44
0.8
  0
POINT
  5
28F
330
286
100
AcDbEntity
  8
DEFPOINTS
  6
Continuous
 62
     4
100
AcDbPoint
 10
54.0027228181
 20
162.7476916744
 30
0.0
  0
POINT
  5
290
330
286
100
AcDbEntity
  8
DEFPOINTS
  6
Continuous
 62
     4
100
AcDbPoint
 10
66.5027228181
 20
160.4203414052
 30
0.0
  0
POINT
  5
291
330
286
100
AcDbEntity
  8
DEFPOINTS
  6
Continuous
 62
     4
100
AcDbPoint
 10
66.5027228181
 20
120.3703414052
 30
0.0
  0
ENDBLK
  5
288
330
286
100
AcDbEntity
  8
0
100
AcDbBlockEnd
  0
BLOCK
  5
295
330
294
100
AcDbEntity
  8
0
100
AcDbBlockBegin
  2
_D9
 70
     0
 10
0.0
 20
0.0
 30
0.0
  3
_D9
  1

  0
LINE
  5
297
330
294
100
AcDbEntity
  8
無題001
  6
Continuous
 62
     4
100
AcDbLine
 10
128.8742251473
 20
128.3703414052
 30
0.0
 11
179.3742254326
 21
128.3703414052
 31
0.0
  0
INSERT
  5
298
330
294
100
AcDbEntity
  8
無題001
  6
Continuous
 62
     4
100
AcDbBlockReference
  2
_OPEN30
 10
128.8742251473
 20
128.3703414052
 30
0.0
 41
1.969615506024411
 42
1.969615506024411
 43
1.969615506024411
 50
180.0
  0
INSERT
  5
299
330
294
100
AcDbEntity
  8
無題001
  6
Continuous
 62
     4
100
AcDbBlockReference
  2
_OPEN30
 10
179.3742254326
 20
128.3703414052
 30
0.0
 41
1.969615506024411
 42
1.969615506024411
 43
1.969615506024411
  0
LINE
  5
29A
330
294
100
AcDbEntity
  8
無題001
  6
Continuous
 62
     4
100
AcDbLine
 10
128.8742251473
 20
146.3703414052
 30
0.0
 11
128.8742251473
 21
127.3703414052
 31
0.0
  0
LINE
  5
29B
330
294
100
AcDbEntity
  8
無題001
  6
Continuous
 62
     4
100
AcDbLine
 10
179.3742254326
 20
152.9703414062
 30
0.0
 11
179.3742254326
 21
127.3703414052
 31
0.0
  0
MTEXT
  5
29C
330
294
100
AcDbEntity
  8
無題001
  6
Continuous
 62
     4
100
AcDbMText
 10
151.30182528995
 20
129.0728054052
 30
0.0
 40
3.136
 41
0.0
 71
     7
 72
     5
  1
{\fＭＳ ゴシック|b0|i0|c128|p49;\W1.0;(50.5)}
  7
MTSTANDARD1
 73
     1
 44
0.8
  0
POINT
  5
29D
330
294
100
AcDbEntity
  8
DEFPOINTS
  6
Continuous
 62
     4
100
AcDbPoint
 10
128.8742251473
 20
146.3703414052
 30
0.0
  0
POINT
  5
29E
330
294
100
AcDbEntity
  8
DEFPOINTS
  6
Continuous
 62
     4
100
AcDbPoint
 10
179.3742254326
 20
152.9703414062
 30
0.0
  0
POINT
  5
29F
330
294
100
AcDbEntity
  8
DEFPOINTS
  6
Continuous
 62
     4
100
AcDbPoint
 10
179.3742254326
 20
128.3703414052
 30
0.0
  0
ENDBLK
  5
296
330
294
100
AcDbEntity
  8
0
100
AcDbBlockEnd
  0
BLOCK
  5
2A2
330
2A1
100
AcDbEntity
  8
0
100
AcDbBlockBegin
  2
_D10
 70
     0
 10
0.0
 20
0.0
 30
0.0
  3
_D10
  1

  0
LINE
  5
2A4
330
2A1
100
AcDbEntity
  8
無題001
  6
Continuous
 62
     4
100
AcDbLine
 10
70.8742251473
 20
120.3703414052
 30
0.0
 11
179.3742254326
 21
120.3703414052
 31
0.0
  0
INSERT
  5
2A5
330
2A1
100
AcDbEntity
  8
無題001
  6
Continuous
 62
     4
100
AcDbBlockReference
  2
_OPEN30
 10
70.8742251473
 20
120.3703414052
 30
0.0
 41
1.969615506024411
 42
1.969615506024411
 43
1.969615506024411
 50
180.0
  0
INSERT
  5
2A6
330
2A1
100
AcDbEntity
  8
無題001
  6
Continuous
 62
     4
100
AcDbBlockReference
  2
_OPEN30
 10
179.3742254326
 20
120.3703414052
 30
0.0
 41
1.969615506024411
 42
1.969615506024411
 43
1.969615506024411
  0
LINE
  5
2A7
330
2A1
100
AcDbEntity
  8
無題001
  6
Continuous
 62
     4
100
AcDbLine
 10
70.8742251473
 20
153.2703414052
 30
0.0
 11
70.8742251473
 21
119.3703414052
 31
0.0
  0
LINE
  5
2A8
330
2A1
100
AcDbEntity
  8
無題001
  6
Continuous
 62
     4
100
AcDbLine
 10
179.3742254326
 20
152.9703414062
 30
0.0
 11
179.3742254326
 21
119.3703414052
 31
0.0
  0
MTEXT
  5
2A9
330
2A1
100
AcDbEntity
  8
無題001
  6
Continuous
 62
     4
100
AcDbMText
 10
122.77222528995
 20
121.0728054052
 30
0.0
 40
3.136
 41
0.0
 71
     7
 72
     5
  1
{\fＭＳ ゴシック|b0|i0|c128|p49;\W1.0;108.5}
  7
MTSTANDARD1
 73
     1
 44
0.8
  0
POINT
  5
2AA
330
2A1
100
AcDbEntity
  8
DEFPOINTS
  6
Continuous
 62
     4
100
AcDbPoint
 10
70.8742251473
 20
153.2703414052
 30
0.0
  0
POINT
  5
2AB
330
2A1
100
AcDbEntity
  8
DEFPOINTS
  6
Continuous
 62
     4
100
AcDbPoint
 10
179.3742254326
 20
152.9703414062
 30
0.0
  0
POINT
  5
2AC
330
2A1
100
AcDbEntity
  8
DEFPOINTS
  6
Continuous
 62
     4
100
AcDbPoint
 10
179.3742254326
 20
120.3703414052
 30
0.0
  0
ENDBLK
  5
2A3
330
2A1
100
AcDbEntity
  8
0
100
AcDbBlockEnd
  0
BLOCK
  5
2AF
330
2AE
100
AcDbEntity
  8
0
100
AcDbBlockBegin
  2
_D11
 70
     0
 10
0.0
 20
0.0
 30
0.0
  3
_D11
  1

  0
LINE
  5
2B1
330
2AE
100
AcDbEntity
  8
無題001
  6
Continuous
 62
     4
100
AcDbLine
 10
179.3742254326
 20
120.3703414052
 30
0.0
 11
207.1742254326
 21
120.3703414052
 31
0.0
  0
INSERT
  5
2B2
330
2AE
100
AcDbEntity
  8
無題001
  6
Continuous
 62
     4
100
AcDbBlockReference
  2
_OPEN30
 10
179.3742254326
 20
120.3703414052
 30
0.0
 41
1.969615506024411
 42
1.969615506024411
 43
1.969615506024411
 50
180.0
  0
INSERT
  5
2B3
330
2AE
100
AcDbEntity
  8
無題001
  6
Continuous
 62
     4
100
AcDbBlockReference
  2
_OPEN30
 10
207.1742254326
 20
120.3703414052
 30
0.0
 41
1.969615506024411
 42
1.969615506024411
 43
1.969615506024411
  0
LINE
  5
2B4
330
2AE
100
AcDbEntity
  8
無題001
  6
Continuous
 62
     4
100
AcDbLine
 10
179.3742254326
 20
152.9203414052
 30
0.0
 11
179.3742254326
 21
119.3703414052
 31
0.0
  0
LINE
  5
2B5
330
2AE
100
AcDbEntity
  8
無題001
  6
Continuous
 62
     4
100
AcDbLine
 10
207.1742254326
 20
153.2203414052
 30
0.0
 11
207.1742254326
 21
119.3703414052
 31
0.0
  0
MTEXT
  5
2B6
330
2AE
100
AcDbEntity
  8
無題001
  6
Continuous
 62
     4
100
AcDbMText
 10
190.4518254326
 20
121.0728054052
 30
0.0
 40
3.136
 41
0.0
 71
     7
 72
     5
  1
{\fＭＳ ゴシック|b0|i0|c128|p49;\W1.0;(27.8)}
  7
MTSTANDARD1
 73
     1
 44
0.8
  0
POINT
  5
2B7
330
2AE
100
AcDbEntity
  8
DEFPOINTS
  6
Continuous
 62
     4
100
AcDbPoint
 10
179.3742254326
 20
152.9203414052
 30
0.0
  0
POINT
  5
2B8
330
2AE
100
AcDbEntity
  8
DEFPOINTS
  6
Continuous
 62
     4
100
AcDbPoint
 10
207.1742254326
 20
153.2203414052
 30
0.0
  0
POINT
  5
2B9
330
2AE
100
AcDbEntity
  8
DEFPOINTS
  6
Continuous
 62
     4
100
AcDbPoint
 10
207.1742254326
 20
120.3703414052
 30
0.0
  0
ENDBLK
  5
2B0
330
2AE
100
AcDbEntity
  8
0
100
AcDbBlockEnd
  0
BLOCK
  5
2BC
330
2BB
100
AcDbEntity
  8
0
100
AcDbBlockBegin
  2
_D12
 70
     0
 10
0.0
 20
0.0
 30
0.0
  3
_D12
  1

  0
LINE
  5
2BE
330
2BB
100
AcDbEntity
  8
無題001
  6
Continuous
 62
     4
100
AcDbLine
 10
207.1742254326
 20
104.3703414052
 30
0.0
 11
307.1742254326
 21
104.3703414052
 31
0.0
  0
INSERT
  5
2BF
330
2BB
100
AcDbEntity
  8
無題001
  6
Continuous
 62
     4
100
AcDbBlockReference
  2
_OPEN30
 10
207.1742254326
 20
104.3703414052
 30
0.0
 41
1.969615506024411
 42
1.969615506024411
 43
1.969615506024411
 50
180.0
  0
INSERT
  5
2C0
330
2BB
100
AcDbEntity
  8
無題001
  6
Continuous
 62
     4
100
AcDbBlockReference
  2
_OPEN30
 10
307.1742254326
 20
104.3703414052
 30
0.0
 41
1.969615506024411
 42
1.969615506024411
 43
1.969615506024411
  0
LINE
  5
2C1
330
2BB
100
AcDbEntity
  8
無題001
  6
Continuous
 62
     4
100
AcDbLine
 10
207.1742254326
 20
153.2203414052
 30
0.0
 11
207.1742254326
 21
103.3703414052
 31
0.0
  0
LINE
  5
2C2
330
2BB
100
AcDbEntity
  8
無題001
  6
Continuous
 62
     4
100
AcDbLine
 10
307.1742254326
 20
160.3703413884
 30
0.0
 11
307.1742254326001
 21
103.3703414052
 31
0.0
  0
MTEXT
  5
2C3
330
2BB
100
AcDbEntity
  8
無題001
  6
Continuous
 62
     4
100
AcDbMText
 10
254.8222254326
 20
105.0728054052
 30
0.0
 40
3.136
 41
0.0
 71
     7
 72
     5
  1
{\fＭＳ ゴシック|b0|i0|c128|p49;\W1.0;(300)}
  7
MTSTANDARD1
 73
     1
 44
0.8
  0
POINT
  5
2C4
330
2BB
100
AcDbEntity
  8
DEFPOINTS
  6
Continuous
 62
     4
100
AcDbPoint
 10
207.1742254326
 20
153.2203414052
 30
0.0
  0
POINT
  5
2C5
330
2BB
100
AcDbEntity
  8
DEFPOINTS
  6
Continuous
 62
     4
100
AcDbPoint
 10
307.1742254326
 20
160.3703413884
 30
0.0
  0
POINT
  5
2C6
330
2BB
100
AcDbEntity
  8
DEFPOINTS
  6
Continuous
 62
     4
100
AcDbPoint
 10
307.1742254326
 20
104.3703414052
 30
0.0
  0
ENDBLK
  5
2BD
330
2BB
100
AcDbEntity
  8
0
100
AcDbBlockEnd
  0
BLOCK
  5
2D8
330
2D7
100
AcDbEntity
  8
0
100
AcDbBlockBegin
  2
_D13
 70
     0
 10
0.0
 20
0.0
 30
0.0
  3
_D13
  1

  0
LINE
  5
2DA
330
2D7
100
AcDbEntity
  8
無題001
  6
Continuous
 62
     4
100
AcDbLine
 10
46.0027228181
 20
175.8203414052
 30
0.0
 11
46.0027228181
 21
159.9203414052
 31
0.0
  0
INSERT
  5
2DB
330
2D7
100
AcDbEntity
  8
無題001
  6
Continuous
 62
     4
100
AcDbBlockReference
  2
_OPEN30
 10
46.0027228181
 20
175.8203414052
 30
0.0
 41
1.969615506024411
 42
1.969615506024411
 43
1.969615506024411
 50
90.0
  0
INSERT
  5
2DC
330
2D7
100
AcDbEntity
  8
無題001
  6
Continuous
 62
     4
100
AcDbBlockReference
  2
_OPEN30
 10
46.0027228181
 20
159.9203414052
 30
0.0
 41
1.969615506024411
 42
1.969615506024411
 43
1.969615506024411
 50
270.0
  0
LINE
  5
2DD
330
2D7
100
AcDbEntity
  8
無題001
  6
Continuous
 62
     4
100
AcDbLine
 10
58.1677863276
 20
175.8203414052
 30
0.0
 11
45.0027228181
 21
175.8203414052
 31
0.0
  0
LINE
  5
2DE
330
2D7
100
AcDbEntity
  8
無題001
  6
Continuous
 62
     4
100
AcDbLine
 10
58.1677863276
 20
159.9203414052
 30
0.0
 11
45.0027228181
 21
159.9203414052
 31
0.0
  0
MTEXT
  5
2DF
330
2D7
100
AcDbEntity
  8
無題001
  6
Continuous
 62
     4
100
AcDbMText
 10
45.3002588181
 20
165.0479414052
 30
0.0
 40
3.136
 41
0.0
 71
     7
 72
     5
  1
{\fＭＳ ゴシック|b0|i0|c128|p49;\W1.0;φ15.9}
  7
MTSTANDARD1
 11
0.0
 21
1.0
 31
0.0
 73
     1
 44
0.8
  0
POINT
  5
2E0
330
2D7
100
AcDbEntity
  8
DEFPOINTS
  6
Continuous
 62
     4
100
AcDbPoint
 10
58.1677863276
 20
175.8203414052
 30
0.0
  0
POINT
  5
2E1
330
2D7
100
AcDbEntity
  8
DEFPOINTS
  6
Continuous
 62
     4
100
AcDbPoint
 10
58.1677863276
 20
159.9203414052
 30
0.0
  0
POINT
  5
2E2
330
2D7
100
AcDbEntity
  8
DEFPOINTS
  6
Continuous
 62
     4
100
AcDbPoint
 10
46.0027228181
 20
159.9203414052
 30
0.0
  0
ENDBLK
  5
2D9
330
2D7
100
AcDbEntity
  8
0
100
AcDbBlockEnd
  0
BLOCK
  5
316
330
315
100
AcDbEntity
  8
0
100
AcDbBlockBegin
  2
_D14
 70
     0
 10
0.0
 20
0.0
 30
0.0
  3
_D14
  1

  0
LINE
  5
318
330
315
100
AcDbEntity
  8
無題001
  6
Continuous
 62
     4
100
AcDbLine
 10
-37.32530386959999
 20
189.3703414055
 30
0.0
 11
-37.32530386959999
 21
146.3703414055
 31
0.0
  0
INSERT
  5
319
330
315
100
AcDbEntity
  8
無題001
  6
Continuous
 62
     4
100
AcDbBlockReference
  2
_OPEN30
 10
-37.32530386959999
 20
189.3703414055
 30
0.0
 41
1.969615506024411
 42
1.969615506024411
 43
1.969615506024411
 50
90.0
  0
INSERT
  5
31A
330
315
100
AcDbEntity
  8
無題001
  6
Continuous
 62
     4
100
AcDbBlockReference
  2
_OPEN30
 10
-37.32530386959999
 20
146.3703414055
 30
0.0
 41
1.969615506024411
 42
1.969615506024411
 43
1.969615506024411
 50
270.0
  0
LINE
  5
31B
330
315
100
AcDbEntity
  8
無題001
  6
Continuous
 62
     4
100
AcDbLine
 10
-20.9953711888
 20
189.3703414055
 30
0.0
 11
-38.32530386959999
 21
189.3703414055
 31
0.0
  0
LINE
  5
31C
330
315
100
AcDbEntity
  8
無題001
  6
Continuous
 62
     4
100
AcDbLine
 10
-20.9953711887
 20
146.3703414055
 30
0.0
 11
-38.32530386959999
 21
146.3703414055
 31
0.0
  0
MTEXT
  5
31D
330
315
100
AcDbEntity
  8
無題001
  6
Continuous
 62
     4
100
AcDbMText
 10
-38.0277678696
 20
166.9295414055
 30
0.0
 40
3.136
 41
0.0
 71
     7
 72
     5
  1
{\fＭＳ ゴシック|b0|i0|c128|p49;\W1.0;43}
  7
MTSTANDARD1
 11
0.0
 21
1.0
 31
0.0
 73
     1
 44
0.8
  0
POINT
  5
31E
330
315
100
AcDbEntity
  8
DEFPOINTS
  6
Continuous
 62
     4
100
AcDbPoint
 10
-20.9953711888
 20
189.3703414055
 30
0.0
  0
POINT
  5
31F
330
315
100
AcDbEntity
  8
DEFPOINTS
  6
Continuous
 62
     4
100
AcDbPoint
 10
-20.9953711887
 20
146.3703414055
 30
0.0
  0
POINT
  5
320
330
315
100
AcDbEntity
  8
DEFPOINTS
  6
Continuous
 62
     4
100
AcDbPoint
 10
-37.32530386959999
 20
146.3703414055
 30
0.0
  0
ENDBLK
  5
317
330
315
100
AcDbEntity
  8
0
100
AcDbBlockEnd
  0
BLOCK
  5
323
330
322
100
AcDbEntity
  8
0
100
AcDbBlockBegin
  2
_D15
 70
     0
 10
0.0
 20
0.0
 30
0.0
  3
_D15
  1

  0
LINE
  5
325
330
322
100
AcDbEntity
  8
無題001
  6
Continuous
 62
     4
100
AcDbLine
 10
-29.3253038696
 20
137.3703414055
 30
0.0
 11
3.6746961305
 21
137.3703414055
 31
0.0
  0
INSERT
  5
326
330
322
100
AcDbEntity
  8
無題001
  6
Continuous
 62
     4
100
AcDbBlockReference
  2
_OPEN30
 10
-29.3253038696
 20
137.3703414055
 30
0.0
 41
1.969615506024414
 42
1.969615506024414
 43
1.969615506024414
 50
180.0
  0
INSERT
  5
327
330
322
100
AcDbEntity
  8
無題001
  6
Continuous
 62
     4
100
AcDbBlockReference
  2
_OPEN30
 10
3.6746961305
 20
137.3703414055
 30
0.0
 41
1.969615506024416
 42
1.969615506024416
 43
1.969615506024416
  0
LINE
  5
328
330
322
100
AcDbEntity
  8
無題001
  6
Continuous
 62
     4
100
AcDbLine
 10
-29.3253038696
 20
151.8469210465
 30
0.0
 11
-29.3253038696
 21
136.3703414055
 31
0.0
  0
LINE
  5
329
330
322
100
AcDbEntity
  8
無題001
  6
Continuous
 62
     4
100
AcDbLine
 10
3.6746961305
 20
151.8469210466
 30
0.0
 11
3.6746961305
 21
136.3703414055
 31
0.0
  0
MTEXT
  5
32A
330
322
100
AcDbEntity
  8
無題001
  6
Continuous
 62
     4
100
AcDbMText
 10
-13.76610386955
 20
138.0728054055
 30
0.0
 40
3.136
 41
0.0
 71
     7
 72
     5
  1
{\fＭＳ ゴシック|b0|i0|c128|p49;\W1.0;33}
  7
MTSTANDARD1
 73
     1
 44
0.8
  0
POINT
  5
32B
330
322
100
AcDbEntity
  8
DEFPOINTS
  6
Continuous
 62
     4
100
AcDbPoint
 10
-29.3253038696
 20
151.8469210465
 30
0.0
  0
POINT
  5
32C
330
322
100
AcDbEntity
  8
DEFPOINTS
  6
Continuous
 62
     4
100
AcDbPoint
 10
3.6746961305
 20
151.8469210466
 30
0.0
  0
POINT
  5
32D
330
322
100
AcDbEntity
  8
DEFPOINTS
  6
Continuous
 62
     4
100
AcDbPoint
 10
3.6746961305
 20
137.3703414055
 30
0.0
  0
ENDBLK
  5
324
330
322
100
AcDbEntity
  8
0
100
AcDbBlockEnd
  0
BLOCK
  5
330
330
32F
100
AcDbEntity
  8
0
100
AcDbBlockBegin
  2
_D16
 70
     0
 10
0.0
 20
0.0
 30
0.0
  3
_D16
  1

  0
LINE
  5
332
330
32F
100
AcDbEntity
  8
無題001
  6
Continuous
 62
     4
100
AcDbLine
 10
-31.4905705091
 20
162.2260680886
 30
0.0
 11
15.15283906275227
 21
176.3307769652363
 31
0.0
  0
INSERT
  5
333
330
32F
100
AcDbEntity
  8
無題001
  6
Continuous
 62
     4
100
AcDbBlockReference
  2
_OPEN30
 10
-31.4905705091
 20
162.2260680886
 30
0.0
 41
1.969615506024417
 42
1.969615506024417
 43
1.969615506024417
 50
196.8250260286174
  0
INSERT
  5
334
330
32F
100
AcDbEntity
  8
無題001
  6
Continuous
 62
     4
100
AcDbBlockReference
  2
_OPEN30
 10
5.83996277
 20
173.5146147224
 30
0.0
 41
1.969615506024417
 42
1.969615506024417
 43
1.969615506024417
 50
16.82502602861735
  0
MTEXT
  5
335
330
32F
100
AcDbEntity
  8
無題001
  6
Continuous
 62
     4
100
AcDbMText
 10
11.5507297592739
 20
175.2415190500507
 30
0.0
 40
3.136
 41
0.0
 71
     7
 72
     5
  1
{\fＭＳ ゴシック|b0|i0|c128|p49;\W1.0;φ39}
  7
MTSTANDARD1
 11
0.9571931610008428
 21
0.2894499136866597
 31
0.0
 73
     1
 44
0.8
  0
POINT
  5
336
330
32F
100
AcDbEntity
  8
DEFPOINTS
  6
Continuous
 62
     4
100
AcDbPoint
 10
-31.4905705091
 20
162.2260680886
 30
0.0
  0
POINT
  5
337
330
32F
100
AcDbEntity
  8
DEFPOINTS
  6
Continuous
 62
     4
100
AcDbPoint
 10
5.839962769999996
 20
173.5146147224
 30
0.0
  0
ENDBLK
  5
331
330
32F
100
AcDbEntity
  8
0
100
AcDbBlockEnd
  0
BLOCK
  5
33B
330
33A
100
AcDbEntity
  8
0
100
AcDbBlockBegin
  2
_D17
 70
     0
 10
0.0
 20
0.0
 30
0.0
  3
_D17
  1

  0
ARC
  5
33D
330
33A
100
AcDbEntity
  8
無題001
  6
Continuous
 62
     4
100
AcDbCircle
 10
-12.8253038696
 20
167.8703414055
 30
0.0
 40
28.48261191625572
100
AcDbArc
 50
54.99999999988133
 51
90.0
  0
INSERT
  5
33E
330
33A
100
AcDbEntity
  8
無題001
  6
Continuous
 62
     4
100
AcDbBlockReference
  2
_OPEN30
 10
3.511651171344125
 20
191.201931183357
 30
0.0
 41
1.969615506024423
 42
1.969615506024423
 43
1.969615506024423
 50
324.999999999881
  0
INSERT
  5
33F
330
33A
100
AcDbEntity
  8
無題001
  6
Continuous
 62
     4
100
AcDbBlockReference
  2
_OPEN30
 10
-12.8253038696
 20
196.3529533217557
 30
0.0
 41
1.969615506024416
 42
1.969615506024416
 43
1.969615506024416
 50
180.0
  0
LINE
  5
340
330
33A
100
AcDbEntity
  8
無題001
  6
Continuous
 62
     4
100
AcDbLine
 10
1.7093530196
 20
188.6279826704
 30
0.0
 11
4.085227607696867
 21
192.0210832276449
 31
0.0
  0
MTEXT
  5
341
330
33A
100
AcDbEntity
  8
無題001
  6
Continuous
 62
     4
100
AcDbMText
 10
-5.843696097233687
 20
196.2704510480003
 30
0.0
 40
3.136
 41
0.0
 71
     7
 72
     5
  1
{\fＭＳ ゴシック|b0|i0|c128|p49;\W1.0;35°}
  7
MTSTANDARD1
 11
0.9537169507491304
 21
-0.300705799501407
 31
0.0
 73
     1
 44
0.8
  0
POINT
  5
342
330
33A
100
AcDbEntity
  8
DEFPOINTS
  6
Continuous
 62
     4
100
AcDbPoint
 10
1.7093530196
 20
188.6279826704
 30
0.0
  0
POINT
  5
343
330
33A
100
AcDbEntity
  8
DEFPOINTS
  6
Continuous
 62
     4
100
AcDbPoint
 10
-12.8253038696
 20
193.067089584
 30
0.0
  0
POINT
  5
344
330
33A
100
AcDbEntity
  8
DEFPOINTS
  6
Continuous
 62
     4
100
AcDbPoint
 10
-12.8253038696
 20
167.8703414055
 30
0.0
  0
POINT
  5
345
330
33A
100
AcDbEntity
  8
DEFPOINTS
  6
Continuous
 62
     4
100
AcDbPoint
 10
-4.260417281324251
 20
195.0346911916077
 30
0.0
  0
ENDBLK
  5
33C
330
33A
100
AcDbEntity
  8
0
100
AcDbBlockEnd
  0
BLOCK
  5
349
330
348
100
AcDbEntity
  8
0
100
AcDbBlockBegin
  2
_D18
 70
     0
 10
0.0
 20
0.0
 30
0.0
  3
_D18
  1

  0
LINE
  5
34B
330
348
100
AcDbEntity
  8
無題001
  6
Continuous
 62
     4
100
AcDbLine
 10
-12.8253038696
 20
167.8703414055
 30
0.0
 11
-28.3602121344
 21
184.8310791607
 31
0.0
  0
INSERT
  5
34C
330
348
100
AcDbEntity
  8
無題001
  6
Continuous
 62
     4
100
AcDbBlockReference
  2
_OPEN30
 10
-28.3602121344
 20
184.8310791607
 30
0.0
 41
1.969615506024428
 42
1.969615506024428
 43
1.969615506024428
 50
132.4876127811907
  0
MTEXT
  5
34D
330
348
100
AcDbEntity
  8
無題001
  6
Continuous
 62
     4
100
AcDbMText
 10
-21.54592593870825
 20
177.3913621579363
 30
0.0
 40
3.136
 41
0.0
 71
     7
 72
     5
  1
{\fＭＳ ゴシック|b0|i0|c128|p49;\W1.0;R23}
  7
MTSTANDARD1
 11
0.6754307941240258
 21
-0.7374233806633662
 31
0.0
 73
     1
 44
0.8
  0
POINT
  5
34E
330
348
100
AcDbEntity
  8
DEFPOINTS
  6
Continuous
 62
     4
100
AcDbPoint
 10
-12.8253038696
 20
167.8703414055
 30
0.0
  0
POINT
  5
34F
330
348
100
AcDbEntity
  8
DEFPOINTS
  6
Continuous
 62
     4
100
AcDbPoint
 10
-28.3602121344
 20
184.8310791607
 30
0.0
  0
ENDBLK
  5
34A
330
348
100
AcDbEntity
  8
0
100
AcDbBlockEnd
  0
BLOCK
  5
355
330
354
100
AcDbEntity
  8
0
100
AcDbBlockBegin
  2
_D19
 70
     0
 10
0.0
 20
0.0
 30
0.0
  3
_D19
  1

  0
LINE
  5
357
330
354
100
AcDbEntity
  8
無題001
  6
Continuous
 62
     4
100
AcDbLine
 10
315.1742254326
 20
177.1203413884
 30
0.0
 11
315.1742254326
 21
158.6203413884
 31
0.0
  0
INSERT
  5
358
330
354
100
AcDbEntity
  8
無題001
  6
Continuous
 62
     4
100
AcDbBlockReference
  2
_OPEN30
 10
315.1742254326
 20
177.1203413884
 30
0.0
 41
1.969615506024411
 42
1.969615506024411
 43
1.969615506024411
 50
90.0
  0
INSERT
  5
359
330
354
100
AcDbEntity
  8
無題001
  6
Continuous
 62
     4
100
AcDbBlockReference
  2
_OPEN30
 10
315.1742254326
 20
158.6203413884
 30
0.0
 41
1.969615506024411
 42
1.969615506024411
 43
1.969615506024411
 50
270.0
  0
LINE
  5
35A
330
354
100
AcDbEntity
  8
無題001
  6
Continuous
 62
     4
100
AcDbLine
 10
301.1742254326
 20
177.1203413884
 30
0.0
 11
316.1742254326
 21
177.1203413884
 31
0.0
  0
LINE
  5
35B
330
354
100
AcDbEntity
  8
無題001
  6
Continuous
 62
     4
100
AcDbLine
 10
301.1742254326
 20
158.6203413884
 30
0.0
 11
316.1742254326
 21
158.6203413884
 31
0.0
  0
MTEXT
  5
35C
330
354
100
AcDbEntity
  8
無題001
  6
Continuous
 62
     4
100
AcDbMText
 10
314.4717614326
 20
165.0479413884
 30
0.0
 40
3.136
 41
0.0
 71
     7
 72
     5
  1
{\fＭＳ ゴシック|b0|i0|c128|p49;\W1.0;φ18.5}
  7
MTSTANDARD1
 11
0.0
 21
1.0
 31
0.0
 73
     1
 44
0.8
  0
POINT
  5
35D
330
354
100
AcDbEntity
  8
DEFPOINTS
  6
Continuous
 62
     4
100
AcDbPoint
 10
301.1742254326
 20
177.1203413884
 30
0.0
  0
POINT
  5
35E
330
354
100
AcDbEntity
  8
DEFPOINTS
  6
Continuous
 62
     4
100
AcDbPoint
 10
301.1742254326
 20
158.6203413884
 30
0.0
  0
POINT
  5
35F
330
354
100
AcDbEntity
  8
DEFPOINTS
  6
Continuous
 62
     4
100
AcDbPoint
 10
315.1742254326
 20
158.6203413884
 30
0.0
  0
ENDBLK
  5
356
330
354
100
AcDbEntity
  8
0
100
AcDbBlockEnd
  0
BLOCK
  5
369
330
368
100
AcDbEntity
  8
0
100
AcDbBlockBegin
  2
BLK0
 70
     0
 10
0.0
 20
0.0
 30
0.0
  3
BLK0
  1

  0
LINE
  5
36B
330
368
100
AcDbEntity
  8
無題001
  6
Continuous
 62
     4
100
AcDbLine
 10
281.2742254324775
 20
176.3556227626161
 30
0.0
 11
282.0889440580634
 21
177.170341388202
 31
0.0
  0
LINE
  5
36C
330
368
100
AcDbEntity
  8
無題001
  6
Continuous
 62
     4
100
AcDbLine
 10
281.2742254324887
 20
172.112982075508
 30
0.0
 11
286.3315847451928
 21
177.1703413882121
 31
0.0
  0
LINE
  5
36D
330
368
100
AcDbEntity
  8
無題001
  6
Continuous
 62
     4
100
AcDbLine
 10
281.2742254496
 20
167.8703414055
 30
0.0
 11
287.1742254326055
 21
173.7703413885055
 31
0.0
  0
LINE
  5
36E
330
368
100
AcDbEntity
  8
無題001
  6
Continuous
 62
     4
100
AcDbLine
 10
281.2742254324866
 20
163.6277007012673
 30
0.0
 11
285.5168661364156
 21
167.8703414051963
 31
0.0
  0
LINE
  5
36F
330
368
100
AcDbEntity
  8
無題001
  6
Continuous
 62
     4
100
AcDbLine
 10
285.5168661366035
 20
167.8703414053842
 30
0.0
 11
287.1742254326123
 21
169.5277007013931
 31
0.0
  0
LINE
  5
370
330
368
100
AcDbEntity
  8
無題001
  6
Continuous
 62
     4
100
AcDbLine
 10
291.1742254326091
 20
173.5277007013898
 30
0.0
 11
294.816866119428
 21
177.1703413882087
 31
0.0
  0
LINE
  5
371
330
368
100
AcDbEntity
  8
無題001
  6
Continuous
 62
     4
100
AcDbLine
 10
281.2742254324978
 20
159.3850600141593
 30
0.0
 11
287.1742254326041
 21
165.2850600142656
 31
0.0
  0
LINE
  5
372
330
368
100
AcDbEntity
  8
無題001
  6
Continuous
 62
     4
100
AcDbLine
 10
291.1742254326023
 20
169.2850600142637
 30
0.0
 11
297.0742254325046
 21
175.1850600141661
 31
0.0
  0
LINE
  5
373
330
368
100
AcDbEntity
  8
無題001
  6
Continuous
 62
     4
100
AcDbLine
 10
284.7021474938385
 20
158.5703413883807
 30
0.0
 11
287.174225432611
 21
161.0424193271532
 31
0.0
  0
LINE
  5
374
330
368
100
AcDbEntity
  8
無題001
  6
Continuous
 62
     4
100
AcDbLine
 10
291.1742254326105
 20
165.0424193271526
 30
0.0
 11
294.0021475107343
 21
167.8703414052765
 31
0.0
  0
LINE
  5
375
330
368
100
AcDbEntity
  8
無題001
  6
Continuous
 62
     4
100
AcDbLine
 10
294.0021475107472
 20
167.8703414052894
 30
0.0
 11
297.0742254325147
 21
170.9424193270568
 31
0.0
  0
LINE
  5
376
330
368
100
AcDbEntity
  8
無題001
  6
Continuous
 62
     4
100
AcDbLine
 10
291.1742254326036
 20
160.7997786400265
 30
0.0
 11
297.0742254325028
 21
166.6997786399256
 31
0.0
  0
LINE
  5
377
330
368
100
AcDbEntity
  8
無題001
  6
Continuous
 62
     4
100
AcDbLine
 10
293.187428868066
 20
158.5703413883696
 30
0.0
 11
297.0742254325127
 21
162.4571379528163
 31
0.0
  0
LINE
  5
378
330
368
100
AcDbEntity
  8
無題001
  6
Continuous
 62
     4
100
AcDbLine
 10
293.1874288682916
 20
177.1703413882048
 30
0.0
 11
297.0742254325091
 21
173.2835448239873
 31
0.0
  0
LINE
  5
379
330
368
100
AcDbEntity
  8
無題001
  6
Continuous
 62
     4
100
AcDbLine
 10
291.1742254326114
 20
174.9409041367657
 30
0.0
 11
297.0742254325191
 21
169.040904136858
 31
0.0
  0
LINE
  5
37A
330
368
100
AcDbEntity
  8
無題001
  6
Continuous
 62
     4
100
AcDbLine
 10
284.7021474940497
 20
177.1703413882082
 30
0.0
 11
287.174225432604
 21
174.6982634496538
 31
0.0
  0
LINE
  5
37B
330
368
100
AcDbEntity
  8
無題001
  6
Continuous
 62
     4
100
AcDbLine
 10
291.1742254326045
 20
170.6982634496533
 30
0.0
 11
294.0021474769684
 21
167.8703414052894
 31
0.0
  0
LINE
  5
37C
330
368
100
AcDbEntity
  8
無題001
  6
Continuous
 62
     4
100
AcDbLine
 10
294.0021474769813
 20
167.8703414052765
 30
0.0
 11
297.0742254325072
 21
164.7982634497506
 31
0.0
  0
LINE
  5
37D
330
368
100
AcDbEntity
  8
無題001
  6
Continuous
 62
     4
100
AcDbLine
 10
281.2742254324775
 20
176.3556227626611
 30
0.0
 11
287.1742254326109
 21
170.4556227625277
 31
0.0
  0
LINE
  5
37E
330
368
100
AcDbEntity
  8
無題001
  6
Continuous
 62
     4
100
AcDbLine
 10
291.1742254326127
 20
166.4556227625258
 30
0.0
 11
297.0742254325172
 21
160.5556227626213
 31
0.0
  0
LINE
  5
37F
330
368
100
AcDbEntity
  8
無題001
  6
Continuous
 62
     4
100
AcDbLine
 10
281.2742254324887
 20
172.1129820755305
 30
0.0
 11
285.516866102823
 21
167.8703414051963
 31
0.0
  0
LINE
  5
380
330
368
100
AcDbEntity
  8
無題001
  6
Continuous
 62
     4
100
AcDbLine
 10
285.516866102635
 20
167.8703414053842
 30
0.0
 11
287.1742254326027
 21
166.2129820754166
 31
0.0
  0
LINE
  5
381
330
368
100
AcDbEntity
  8
無題001
  6
Continuous
 62
     4
100
AcDbLine
 10
291.1742254326059
 20
162.2129820754134
 30
0.0
 11
294.8168661196369
 21
158.5703413883823
 31
0.0
  0
LINE
  5
382
330
368
100
AcDbEntity
  8
無題001
  6
Continuous
 62
     4
100
AcDbLine
 10
281.2742254324875
 20
167.8703413884125
 30
0.0
 11
287.1742254326095
 21
161.9703413882904
 31
0.0
  0
LINE
  5
383
330
368
100
AcDbEntity
  8
無題001
  6
Continuous
 62
     4
100
AcDbLine
 10
281.2742254324866
 20
163.6277007012941
 30
0.0
 11
286.3315847453873
 21
158.5703413883934
 31
0.0
  0
LINE
  5
384
330
368
100
AcDbEntity
  8
無題001
  6
Continuous
 62
     4
100
AcDbLine
 10
281.2742254324978
 20
159.3850600141636
 30
0.0
 11
282.0889440583012
 21
158.5703413883602
 31
0.0
  0
ENDBLK
  5
36A
330
368
100
AcDbEntity
  8
0
100
AcDbBlockEnd
  0
ENDSEC
  0
SECTION
  2
ENTITIES
  0
LINE
  5
AF
330
1F
100
AcDbEntity
  8
無題001
  6
Continuous
 62
     3
100
AcDbLine
 10
206.8742254326
 20
182.8203414052
 30
0.0
 11
179.3742254326
 21
182.8203414052
 31
0.0
  0
LINE
  5
B0
330
1F
100
AcDbEntity
  8
無題001
  6
Continuous
 62
     3
100
AcDbLine
 10
179.3742254326
 20
152.9203414052
 30
0.0
 11
206.8742254326
 21
152.9203414052
 31
0.0
  0
LINE
  5
B1
330
1F
100
AcDbEntity
  8
無題001
  6
Continuous
 62
     3
100
AcDbLine
 10
208.1742254316
 20
174.3703414052
 30
0.0
 11
208.1742254316
 21
161.3703414052
 31
0.0
  0
LINE
  5
B2
330
1F
100
AcDbEntity
  8
無題001
  6
Continuous
 62
     3
100
AcDbLine
 10
214.3742254316
 20
174.2499738658
 30
0.0
 11
217.4742254316
 21
174.2499738658
 31
0.0
  0
LINE
  5
B3
330
1F
100
AcDbEntity
  8
無題001
  6
Continuous
 62
     3
100
AcDbLine
 10
214.1742250024
 20
173.9414940364
 30
0.0
 11
214.3742254316
 21
174.2499738658
 31
0.0
  0
LINE
  5
B4
330
1F
100
AcDbEntity
  8
無題001
  6
Continuous
 62
     3
100
AcDbLine
 10
214.1742254316
 20
161.5703414052
 30
0.0
 11
214.1742254316
 21
174.1703414052
 31
0.0
  0
LINE
  5
B5
330
1F
100
AcDbEntity
  8
無題001
  6
Continuous
 62
     3
100
AcDbLine
 10
217.4742254316
 20
161.4907089446
 30
0.0
 11
214.3742254316
 21
161.4907089446
 31
0.0
  0
LINE
  5
B6
330
1F
100
AcDbEntity
  8
無題001
  6
Continuous
 62
     3
100
AcDbLine
 10
214.3742254316
 20
161.4907089446
 30
0.0
 11
214.1742250024
 21
161.799188774
 31
0.0
  0
LINE
  5
B7
330
1F
100
AcDbEntity
  8
無題001
  6
Continuous
 62
     3
100
AcDbLine
 10
218.1742256581
 20
163.8703412152
 30
0.0
 11
237.5079663525
 21
163.8703413039
 31
0.0
  0
LINE
  5
B8
330
1F
100
AcDbEntity
  8
無題001
  6
Continuous
 62
     3
100
AcDbLine
 10
237.5079662628
 20
171.8703415064
 30
0.0
 11
218.1742256581
 21
171.8703415952
 31
0.0
  0
LINE
  5
B9
330
1F
100
AcDbEntity
  8
無題001
  6
Continuous
 62
     3
100
AcDbLine
 10
214.3742254316
 20
163.8576690204
 30
0.0
 11
217.4742254316
 21
163.8576690204
 31
0.0
  0
LINE
  5
BA
330
1F
100
AcDbEntity
  8
無題001
  6
Continuous
 62
     3
100
AcDbLine
 10
217.4742254316
 20
171.8830137901
 30
0.0
 11
214.3742254316
 21
171.8830137901
 31
0.0
  0
LINE
  5
BB
330
1F
100
AcDbEntity
  8
無題001
  6
Continuous
 62
     3
100
AcDbLine
 10
214.1742250024
 20
163.5491890609
 30
0.0
 11
214.3742254316
 21
163.8576690204
 31
0.0
  0
LINE
  5
BC
330
1F
100
AcDbEntity
  8
無題001
  6
Continuous
 62
     3
100
AcDbLine
 10
214.3742254316
 20
165.5033813295
 30
0.0
 11
214.3742254316
 21
163.8576690204
 31
0.0
  0
LINE
  5
BD
330
1F
100
AcDbEntity
  8
無題001
  6
Continuous
 62
     3
100
AcDbLine
 10
214.3742254316
 20
171.8830137901
 30
0.0
 11
214.3742254316
 21
170.2373014809
 31
0.0
  0
LINE
  5
BE
330
1F
100
AcDbEntity
  8
無題001
  6
Continuous
 62
     3
100
AcDbLine
 10
214.3742254316
 20
171.8830137901
 30
0.0
 11
214.1742250024
 21
172.1914937496
 31
0.0
  0
LINE
  5
BF
330
1F
100
AcDbEntity
  8
無題001
  6
Continuous
 62
     3
100
AcDbLine
 10
217.4742254316
 20
165.5033813295
 30
0.0
 11
214.3742254316
 21
165.5033813295
 31
0.0
  0
LINE
  5
C0
330
1F
100
AcDbEntity
  8
無題001
  6
Continuous
 62
     3
100
AcDbLine
 10
214.3742254316
 20
170.2373014809
 30
0.0
 11
217.4742254316
 21
170.2373014809
 31
0.0
  0
LINE
  5
C1
330
1F
100
AcDbEntity
  8
無題001
  6
Continuous
 62
     3
100
AcDbLine
 10
214.1742250024
 20
169.6203414592
 30
0.0
 11
214.3742254316
 21
170.2373014809
 31
0.0
  0
LINE
  5
C2
330
1F
100
AcDbEntity
  8
無題001
  6
Continuous
 62
     3
100
AcDbLine
 10
217.4742254316
 20
161.4203414052
 30
0.0
 11
218.1742254316
 21
162.1203414052
 31
0.0
  0
LINE
  5
C3
330
1F
100
AcDbEntity
  8
無題001
  6
Continuous
 62
     3
100
AcDbLine
 10
218.1742254316
 20
173.6203414052
 30
0.0
 11
217.4742254316
 21
174.3203414052
 31
0.0
  0
LINE
  5
C4
330
1F
100
AcDbEntity
  8
無題001
  6
Continuous
 62
     3
100
AcDbLine
 10
214.3742254316
 20
174.3203414052
 30
0.0
 11
214.1742250024
 21
174.1203414983
 31
0.0
  0
LINE
  5
C5
330
1F
100
AcDbEntity
  8
無題001
  6
Continuous
 62
     3
100
AcDbLine
 10
214.1742250024
 20
161.6203413121
 30
0.0
 11
214.3742254316
 21
161.4203414052
 31
0.0
  0
LINE
  5
C6
330
1F
100
AcDbEntity
  8
無題001
  6
Continuous
 62
     3
100
AcDbLine
 10
217.4742254316
 20
174.3203414052
 30
0.0
 11
214.3742254316
 21
174.3203414052
 31
0.0
  0
LINE
  5
C7
330
1F
100
AcDbEntity
  8
無題001
  6
Continuous
 62
     3
100
AcDbLine
 10
214.3742254316
 20
161.4203414052
 30
0.0
 11
217.4742254316
 21
161.4203414052
 31
0.0
  0
LINE
  5
C8
330
1F
100
AcDbEntity
  8
無題001
  6
Continuous
 62
     3
100
AcDbLine
 10
218.1742254316
 20
173.6203414052
 30
0.0
 11
218.1742254316
 21
162.1203414052
 31
0.0
  0
LINE
  5
C9
330
1F
100
AcDbEntity
  8
無題001
  6
Continuous
 62
     3
100
AcDbLine
 10
217.4742254316
 20
161.4203414052
 30
0.0
 11
217.4742254316
 21
161.4907089446
 31
0.0
  0
ARC
  5
CA
330
1F
100
AcDbEntity
  8
無題001
  6
Continuous
 62
     3
100
AcDbCircle
 10
216.0932884718
 20
162.6741891503
 30
0.0
 40
1.8186837604
100
AcDbArc
 50
319.4030071454001
 51
40.59699285459988
  0
LINE
  5
CB
330
1F
100
AcDbEntity
  8
無題001
  6
Continuous
 62
     3
100
AcDbLine
 10
217.4742254316
 20
163.8576690204
 30
0.0
 11
217.4742254316
 21
165.5033813295
 31
0.0
  0
ARC
  5
CC
330
1F
100
AcDbEntity
  8
無題001
  6
Continuous
 62
     3
100
AcDbCircle
 10
211.2586624137
 20
167.8703414052
 30
0.0
 40
6.6509937561
100
AcDbArc
 50
339.1525723428001
 51
20.84742765719995
  0
LINE
  5
CD
330
1F
100
AcDbEntity
  8
無題001
  6
Continuous
 62
     3
100
AcDbLine
 10
217.4742254316
 20
170.2373014809
 30
0.0
 11
217.4742254316
 21
171.8830137901
 31
0.0
  0
ARC
  5
CE
330
1F
100
AcDbEntity
  8
無題001
  6
Continuous
 62
     3
100
AcDbCircle
 10
216.0932887642
 20
173.0664936601
 30
0.0
 40
1.8186835384
100
AcDbArc
 50
319.4030011521998
 51
40.5969988478002
  0
LINE
  5
CF
330
1F
100
AcDbEntity
  8
無題001
  6
Continuous
 62
     3
100
AcDbLine
 10
217.4742254316
 20
174.2499738658
 30
0.0
 11
217.4742254316
 21
174.3203414052
 31
0.0
  0
LINE
  5
D0
330
1F
100
AcDbEntity
  8
無題001
  6
Continuous
 62
     3
100
AcDbLine
 10
214.3742254316
 20
165.5033813295
 30
0.0
 11
214.1742250024
 21
166.1203413512
 31
0.0
  0
LINE
  5
D1
330
1F
100
AcDbEntity
  8
無題001
  6
Continuous
 62
     3
100
AcDbLine
 10
208.1742254316
 20
161.3703414052
 30
0.0
 11
213.9742254316
 21
161.3703414052
 31
0.0
  0
LINE
  5
D2
330
1F
100
AcDbEntity
  8
無題001
  6
Continuous
 62
     3
100
AcDbLine
 10
213.9742254316
 20
174.3703414052
 30
0.0
 11
208.1742254316
 21
174.3703414052
 31
0.0
  0
LINE
  5
D3
330
1F
100
AcDbEntity
  8
無題001
  6
Continuous
 62
     3
100
AcDbLine
 10
214.1742254316
 20
174.1703414052
 30
0.0
 11
213.9742254316
 21
174.3703414052
 31
0.0
  0
LINE
  5
D4
330
1F
100
AcDbEntity
  8
無題001
  6
Continuous
 62
     3
100
AcDbLine
 10
213.9742254316
 20
161.3703414052
 30
0.0
 11
214.1742254316
 21
161.5703414052
 31
0.0
  0
ARC
  5
D5
330
1F
100
AcDbEntity
  8
無題001
  6
Continuous
 62
     3
100
AcDbCircle
 10
208.1742254316
 20
175.3703414052
 30
0.0
 40
1.0
100
AcDbArc
 50
180.0
 51
270.0
  0
LINE
  5
D6
330
1F
100
AcDbEntity
  8
無題001
  6
Continuous
 62
     3
100
AcDbLine
 10
218.7742254326
 20
182.2703414052
 30
0.0
 11
218.7742254326
 21
176.2703414052
 31
0.0
  0
ARC
  5
D7
330
1F
100
AcDbEntity
  8
無題001
  6
Continuous
 62
     4
100
AcDbCircle
 10
236.0079662545
 20
169.8703414294
 30
0.0
 40
2.5000000513
100
AcDbArc
 50
306.8698982863997
 51
53.13010299439983
  0
LINE
  5
D8
330
1F
100
AcDbEntity
  8
無題001
  6
Continuous
 62
     3
100
AcDbLine
 10
217.1742254326
 20
175.7703414052
 30
0.0
 11
217.1742254326
 21
182.7703414052
 31
0.0
  0
ARC
  5
D9
330
1F
100
AcDbEntity
  8
無題001
  6
Continuous
 62
     4
100
AcDbCircle
 10
236.0079662993
 20
165.8703413474
 30
0.0
 40
2.5000000513
100
AcDbArc
 50
306.8698982863997
 51
53.13010299439983
  0
LINE
  5
DA
330
1F
100
AcDbEntity
  8
無題001
  6
Continuous
 62
     3
100
AcDbLine
 10
207.2742254326
 20
175.7703414052
 30
0.0
 11
207.2742254326
 21
182.7703414052
 31
0.0
  0
ARC
  5
DB
330
1F
100
AcDbEntity
  8
無題001
  6
Continuous
 62
     4
100
AcDbCircle
 10
239.007966316
 20
169.8703414629
 30
0.0
 40
2.5000000513
100
AcDbArc
 50
126.8698982863998
 51
233.1301029943998
  0
LINE
  5
DC
330
1F
100
AcDbEntity
  8
無題001
  6
Continuous
 62
     3
100
AcDbLine
 10
216.7742254326
 20
175.7703414052
 30
0.0
 11
216.7742254326
 21
182.7703414052
 31
0.0
  0
LINE
  5
DD
330
1F
100
AcDbEntity
  8
無題001
  6
Continuous
 62
     3
100
AcDbLine
 10
207.1742254326
 20
182.5203414052
 30
0.0
 11
207.1742254326
 21
153.2203414052
 31
0.0
  0
LINE
  5
DE
330
1F
100
AcDbEntity
  8
無題001
  6
Continuous
 62
     3
100
AcDbLine
 10
200.6742255836
 20
174.1758945133
 30
0.0
 11
204.174225226
 21
174.1758945133
 31
0.0
  0
LINE
  5
DF
330
1F
100
AcDbEntity
  8
無題001
  6
Continuous
 62
     3
100
AcDbLine
 10
200.6742255836
 20
161.564788297
 30
0.0
 11
204.174225226
 21
161.564788297
 31
0.0
  0
LINE
  5
E0
330
1F
100
AcDbEntity
  8
無題001
  6
Continuous
 62
     3
100
AcDbLine
 10
200.6742255836
 20
174.1758945133
 30
0.0
 11
200.6742255836
 21
161.564788297
 31
0.0
  0
LINE
  5
E1
330
1F
100
AcDbEntity
  8
無題001
  6
Continuous
 62
     3
100
AcDbLine
 10
204.174225226
 20
161.564788297
 30
0.0
 11
204.174225226
 21
174.1758945133
 31
0.0
  0
ARC
  5
E2
330
1F
100
AcDbEntity
  8
無題001
  6
Continuous
 62
     3
100
AcDbCircle
 10
224.8652018626
 20
167.8703414052
 30
0.0
 40
24.9992666559
100
AcDbArc
 50
165.3905168077999
 51
194.6094831922
  0
ARC
  5
E3
330
1F
100
AcDbEntity
  8
無題001
  6
Continuous
 62
     3
100
AcDbCircle
 10
179.983248947
 20
167.8703414052
 30
0.0
 40
24.9992666559
100
AcDbArc
 50
345.3905168078
 51
14.6094831922
  0
LINE
  5
E4
330
1F
100
AcDbEntity
  8
無題001
  6
Continuous
 62
     3
100
AcDbLine
 10
179.3742254326
 20
182.8203414052
 30
0.0
 11
179.3742254326
 21
152.9203414052
 31
0.0
  0
LINE
  5
E5
330
1F
100
AcDbEntity
  8
無題001
  6
CENTER
 62
     1
100
AcDbLine
 10
205.2742254316
 20
179.2703414052
 30
0.0
 11
309.1742254326
 21
179.2703414052
 31
0.0
  0
ARC
  5
E6
330
1F
100
AcDbEntity
  8
無題001
  6
Continuous
 62
     3
100
AcDbCircle
 10
208.1742254316
 20
160.3703414052
 30
0.0
 40
1.0
100
AcDbArc
 50
90.0
 51
180.0
  0
ARC
  5
E7
330
1F
100
AcDbEntity
  8
無題001
  6
Continuous
 62
     3
100
AcDbCircle
 10
66.0027228181
 20
175.3203414052
 30
0.0
 40
0.5
100
AcDbArc
 50
0.0
 51
90.0
  0
ARC
  5
E8
330
1F
100
AcDbEntity
  8
無題001
  6
Continuous
 62
     3
100
AcDbCircle
 10
55.0027228181
 20
172.992991136
 30
0.0
 40
1.0
100
AcDbArc
 50
119.9999999999002
 51
180.0
  0
LINE
  5
E9
330
1F
100
AcDbEntity
  8
無題001
  6
Continuous
 62
     3
100
AcDbLine
 10
61.7027228181
 20
175.5703414052
 30
0.0
 11
61.9527228181
 21
175.8203414052
 31
0.0
  0
ARC
  5
EA
330
1F
100
AcDbEntity
  8
無題001
  6
Continuous
 62
     3
100
AcDbCircle
 10
58.1677863276
 20
174.8203414052
 30
0.0
 40
1.0
100
AcDbArc
 50
90.0
 51
119.9999999999002
  0
LINE
  5
EB
330
1F
100
AcDbEntity
  8
無題001
  6
Continuous
 62
     3
100
AcDbLine
 10
54.5027228181
 20
173.8590165398
 30
0.0
 11
57.6677863276
 21
175.686366809
 31
0.0
  0
LINE
  5
EC
330
1F
100
AcDbEntity
  8
無題001
  6
Continuous
 62
     3
100
AcDbLine
 10
58.1677863276
 20
175.8203414052
 30
0.0
 11
58.4527228181
 21
175.8203414052
 31
0.0
  0
LINE
  5
ED
330
1F
100
AcDbEntity
  8
無題001
  6
Continuous
 62
     3
100
AcDbLine
 10
58.7027228181
 20
171.6389618424
 30
0.0
 11
61.7027228181
 21
171.6389618424
 31
0.0
  0
LINE
  5
EE
330
1F
100
AcDbEntity
  8
無題001
  6
Continuous
 62
     3
100
AcDbLine
 10
58.7027228181
 20
164.1017209679
 30
0.0
 11
61.7027228181
 21
164.1017209679
 31
0.0
  0
LINE
  5
EF
330
1F
100
AcDbEntity
  8
無題001
  6
Continuous
 62
     3
100
AcDbLine
 10
57.6677863276
 20
174.986366809
 30
0.0
 11
57.6677863276
 21
160.7543160014
 31
0.0
  0
LINE
  5
F0
330
1F
100
AcDbEntity
  8
無題001
  6
Continuous
 62
     3
100
AcDbLine
 10
58.4527228181
 20
175.8203414052
 30
0.0
 11
58.7027228181
 21
175.5703414052
 31
0.0
  0
LINE
  5
F1
330
1F
100
AcDbEntity
  8
無題001
  6
Continuous
 62
     3
100
AcDbLine
 10
67.0742254324
 20
170.8519517083
 30
0.0
 11
67.0742254324
 21
164.888731102
 31
0.0
  0
LINE
  5
F2
330
1F
100
AcDbEntity
  8
無題001
  6
Continuous
 62
     3
100
AcDbLine
 10
66.0027228181
 20
175.8203414052
 30
0.0
 11
61.9527228181
 21
175.8203414052
 31
0.0
  0
LINE
  5
F3
330
1F
100
AcDbEntity
  8
無題001
  6
Continuous
 62
     3
100
AcDbLine
 10
54.0027228181
 20
172.992991136
 30
0.0
 11
54.0027228181
 21
162.7476916744
 31
0.0
  0
LINE
  5
F4
330
1F
100
AcDbEntity
  8
無題001
  6
Continuous
 62
     3
100
AcDbLine
 10
67.0742254324
 20
164.888731102
 30
0.0
 11
70.0742254324
 21
164.888731102
 31
0.0
  0
LINE
  5
F5
330
1F
100
AcDbEntity
  8
無題001
  6
Continuous
 62
     3
100
AcDbLine
 10
70.0742254324
 20
164.888731102
 30
0.0
 11
70.0742254324
 21
170.8519517083
 31
0.0
  0
LINE
  5
F6
330
1F
100
AcDbEntity
  8
無題001
  6
Continuous
 62
     3
100
AcDbLine
 10
70.0742254324
 20
170.8519517083
 30
0.0
 11
67.0742254324
 21
170.8519517083
 31
0.0
  0
LINE
  5
F7
330
1F
100
AcDbEntity
  8
無題001
  6
Continuous
 62
     3
100
AcDbLine
 10
61.7027228181
 20
175.5703414052
 30
0.0
 11
61.7027228181
 21
160.1703414052
 31
0.0
  0
ARC
  5
F8
330
1F
100
AcDbEntity
  8
無題001
  6
Continuous
 62
     3
100
AcDbCircle
 10
66.0027228181
 20
160.4203414052
 30
0.0
 40
0.5
100
AcDbArc
 50
270.0
 51
0.0
  0
ARC
  5
F9
330
1F
100
AcDbEntity
  8
無題001
  6
Continuous
 62
     3
100
AcDbCircle
 10
55.0027228181
 20
162.7476916744
 30
0.0
 40
1.0
100
AcDbArc
 50
180.0
 51
240.0000000000998
  0
LINE
  5
FA
330
1F
100
AcDbEntity
  8
無題001
  6
Continuous
 62
     3
100
AcDbLine
 10
61.7027228181
 20
160.1703414052
 30
0.0
 11
61.9527228181
 21
159.9203414052
 31
0.0
  0
LINE
  5
FB
330
1F
100
AcDbEntity
  8
無題001
  6
Continuous
 62
     3
100
AcDbLine
 10
58.7027228181
 20
160.8703414052
 30
0.0
 11
61.7027228181
 21
160.8703414052
 31
0.0
  0
LINE
  5
FC
330
1F
100
AcDbEntity
  8
無題001
  6
Continuous
 62
     3
100
AcDbLine
 10
58.7027228181
 20
175.5703414052
 30
0.0
 11
58.7027228181
 21
160.1703414052
 31
0.0
  0
LINE
  5
FD
330
1F
100
AcDbEntity
  8
無題001
  6
Continuous
 62
     3
100
AcDbLine
 10
58.7027228181
 20
174.8703414052
 30
0.0
 11
61.7027228181
 21
174.8703414052
 31
0.0
  0
ARC
  5
FE
330
1F
100
AcDbEntity
  8
無題001
  6
Continuous
 62
     3
100
AcDbCircle
 10
58.1677863276
 20
160.9203414052
 30
0.0
 40
1.0
100
AcDbArc
 50
240.0000000000998
 51
270.0
  0
LINE
  5
FF
330
1F
100
AcDbEntity
  8
無題001
  6
Continuous
 62
     3
100
AcDbLine
 10
54.5027228181
 20
161.8816662706
 30
0.0
 11
57.6677863276
 21
160.0543160014
 31
0.0
  0
LINE
  5
100
330
1F
100
AcDbEntity
  8
無題001
  6
Continuous
 62
     3
100
AcDbLine
 10
58.1677863276
 20
159.9203414052
 30
0.0
 11
58.4527228181
 21
159.9203414052
 31
0.0
  0
LINE
  5
101
330
1F
100
AcDbEntity
  8
無題001
  6
Continuous
 62
     3
100
AcDbLine
 10
58.4527228181
 20
159.9203414052
 30
0.0
 11
58.7027228181
 21
160.1703414052
 31
0.0
  0
LINE
  5
102
330
1F
100
AcDbEntity
  8
無題001
  6
Continuous
 62
     3
100
AcDbLine
 10
66.0027228181
 20
159.9203414052
 30
0.0
 11
61.9527228181
 21
159.9203414052
 31
0.0
  0
LINE
  5
103
330
1F
100
AcDbEntity
  8
無題001
  6
Continuous
 62
     3
100
AcDbLine
 10
66.5027228181
 20
175.3203414052
 30
0.0
 11
66.5027228181
 21
160.4203414052
 31
0.0
  0
LINE
  5
104
330
1F
100
AcDbEntity
  8
無題001
  6
Continuous
 62
     3
100
AcDbLine
 10
70.8742254324
 20
182.4703414052
 30
0.0
 11
70.8742254324
 21
153.2703414052
 31
0.0
  0
LINE
  5
105
330
1F
100
AcDbEntity
  8
無題001
  6
Continuous
 62
     3
100
AcDbLine
 10
71.0742254324
 20
153.0703414052
 30
0.0
 11
74.2742254324
 21
153.0703414052
 31
0.0
  0
LINE
  5
106
330
1F
100
AcDbEntity
  8
無題001
  6
Continuous
 62
     3
100
AcDbLine
 10
71.0742254324
 20
153.0703414052
 30
0.0
 11
70.8742254324
 21
153.2703414052
 31
0.0
  0
LINE
  5
107
330
1F
100
AcDbEntity
  8
無題001
  6
Continuous
 62
     3
100
AcDbLine
 10
71.0742254324
 20
182.6703414052
 30
0.0
 11
74.2742254324
 21
182.6703414052
 31
0.0
  0
LINE
  5
108
330
1F
100
AcDbEntity
  8
無題001
  6
Continuous
 62
     3
100
AcDbLine
 10
71.0742254324
 20
182.6703414052
 30
0.0
 11
70.8742254324
 21
182.4703414052
 31
0.0
  0
LINE
  5
109
330
1F
100
AcDbEntity
  8
無題001
  6
Continuous
 62
     3
100
AcDbLine
 10
179.2742254316
 20
152.8703414052
 30
0.0
 11
131.8742251473
 21
152.8703414052
 31
0.0
  0
LINE
  5
10A
330
1F
100
AcDbEntity
  8
無題001
  6
Continuous
 62
     3
100
AcDbLine
 10
179.2742254316
 20
152.8703414052
 30
0.0
 11
179.3742254316
 21
152.9703414052
 31
0.0
  0
LINE
  5
10B
330
1F
100
AcDbEntity
  8
無題001
  6
Continuous
 62
     3
100
AcDbLine
 10
179.2742254316
 20
182.8703414052
 30
0.0
 11
131.8742251473
 21
182.8703414052
 31
0.0
  0
LINE
  5
10C
330
1F
100
AcDbEntity
  8
無題001
  6
Continuous
 62
     3
100
AcDbLine
 10
179.3742254316
 20
152.9703414052
 30
0.0
 11
179.3742254316
 21
182.7703414052
 31
0.0
  0
LINE
  5
10D
330
1F
100
AcDbEntity
  8
無題001
  6
Continuous
 62
     3
100
AcDbLine
 10
179.2742254316
 20
182.8703414052
 30
0.0
 11
179.3742254316
 21
182.7703414052
 31
0.0
  0
LINE
  5
10E
330
1F
100
AcDbEntity
  8
無題001
  6
Continuous
 62
     3
100
AcDbLine
 10
70.3742254324
 20
174.4703414052
 30
0.0
 11
70.8742254324
 21
174.4703414052
 31
0.0
  0
LINE
  5
10F
330
1F
100
AcDbEntity
  8
無題001
  6
Continuous
 62
     3
100
AcDbLine
 10
70.3742254324
 20
174.5703414052
 30
0.0
 11
66.5027228181
 21
174.5703414052
 31
0.0
  0
LINE
  5
110
330
1F
100
AcDbEntity
  8
無題001
  6
Continuous
 62
     3
100
AcDbLine
 10
70.3742254324
 20
161.1703414052
 30
0.0
 11
66.5027228181
 21
161.1703414052
 31
0.0
  0
LINE
  5
111
330
1F
100
AcDbEntity
  8
無題001
  6
Continuous
 62
     3
100
AcDbLine
 10
214.3742254316
 20
174.3203414052
 30
0.0
 11
214.3742254316
 21
174.2499738658
 31
0.0
  0
LINE
  5
112
330
1F
100
AcDbEntity
  8
無題001
  6
Continuous
 62
     3
100
AcDbLine
 10
214.3742254316
 20
161.4907089446
 30
0.0
 11
214.3742254316
 21
161.4203414052
 31
0.0
  0
LINE
  5
113
330
1F
100
AcDbEntity
  8
無題001
  6
Continuous
 62
     3
100
AcDbLine
 10
214.1742250024
 20
161.6203413121
 30
0.0
 11
214.1742250024
 21
174.1203414983
 31
0.0
  0
ARC
  5
114
330
1F
100
AcDbEntity
  8
無題001
  6
Continuous
 62
     3
100
AcDbCircle
 10
218.2742254326
 20
182.2703414052
 30
0.0
 40
0.5
100
AcDbArc
 50
0.0
 51
90.0
  0
ARC
  5
115
330
1F
100
AcDbEntity
  8
無題001
  6
Continuous
 62
     3
100
AcDbCircle
 10
218.2742254326
 20
176.2703414052
 30
0.0
 40
0.5
100
AcDbArc
 50
270.0
 51
0.0
  0
LINE
  5
116
330
1F
100
AcDbEntity
  8
無題001
  6
Continuous
 62
     3
100
AcDbLine
 10
217.1742254326
 20
175.7703414052
 30
0.0
 11
218.2742254326
 21
175.7703414052
 31
0.0
  0
LINE
  5
117
330
1F
100
AcDbEntity
  8
無題001
  6
Continuous
 62
     3
100
AcDbLine
 10
218.2742254326
 20
182.7703414052
 30
0.0
 11
217.1742254326
 21
182.7703414052
 31
0.0
  0
LINE
  5
118
330
1F
100
AcDbEntity
  8
無題001
  6
Continuous
 62
     3
100
AcDbLine
 10
207.2742254326
 20
175.7703414052
 30
0.0
 11
216.7742254326
 21
175.7703414052
 31
0.0
  0
LINE
  5
119
330
1F
100
AcDbEntity
  8
無題001
  6
Continuous
 62
     3
100
AcDbLine
 10
216.7742254326
 20
182.7703414052
 30
0.0
 11
207.2742254326
 21
182.7703414052
 31
0.0
  0
LINE
  5
11A
330
1F
100
AcDbEntity
  8
無題001
  6
Continuous
 62
     3
100
AcDbLine
 10
207.1742257177
 20
176.5203416123
 30
0.0
 11
207.2742255478
 21
176.5203416123
 31
0.0
  0
LINE
  5
11B
330
1F
100
AcDbEntity
  8
無題001
  6
Continuous
 62
     3
100
AcDbLine
 10
207.2742255478
 20
182.0203415825
 30
0.0
 11
207.1742257177
 21
182.0203415825
 31
0.0
  0
LINE
  5
11C
330
1F
100
AcDbEntity
  8
無題001
  6
Continuous
 62
     3
100
AcDbLine
 10
216.7742261737
 20
177.1953418626
 30
0.0
 11
217.1742254942
 21
177.1953418626
 31
0.0
  0
LINE
  5
11D
330
1F
100
AcDbEntity
  8
無題001
  6
Continuous
 62
     3
100
AcDbLine
 10
70.3742254324
 20
161.1703414052
 30
0.0
 11
70.3742254324
 21
174.5703414052
 31
0.0
  0
LINE
  5
11E
330
1F
100
AcDbEntity
  8
無題001
  6
Continuous
 62
     3
100
AcDbLine
 10
70.3742254324
 20
161.2703414052
 30
0.0
 11
70.8742254324
 21
161.2703414052
 31
0.0
  0
LINE
  5
11F
330
1F
100
AcDbEntity
  8
無題001
  6
Continuous
 62
     3
100
AcDbLine
 10
217.1742254942
 20
181.3453413322
 30
0.0
 11
216.7742261737
 21
181.3453413322
 31
0.0
  0
LINE
  5
120
330
1F
100
AcDbEntity
  8
無題001
  6
Continuous
 62
     3
100
AcDbLine
 10
206.8742254326
 20
152.9203414052
 30
0.0
 11
207.1742254326
 21
153.2203414052
 31
0.0
  0
LINE
  5
121
330
1F
100
AcDbEntity
  8
無題001
  6
Continuous
 62
     3
100
AcDbLine
 10
207.1742254326
 20
182.5203414052
 30
0.0
 11
206.8742254326
 21
182.8203414052
 31
0.0
  0
DIMENSION
  5
132
330
1F
100
AcDbEntity
  8
無題001
  6
Continuous
 62
     4
100
AcDbDimension
  2
_D1
 10
70.8742254324
 20
112.3703414052
 30
0.0
 11
62.43847412525
 21
114.6408054052
 31
0.0
 70
   160
  1
(<>)
 71
     5
 42
-1.0
 52
90.0
  3
DIMSTYEX_1
100
AcDbAlignedDimension
 13
54.0027228181
 23
162.7476916744
 33
0.0
 14
70.8742254324
 24
153.2703414052
 34
0.0
100
AcDbRotatedDimension
1001
ACAD
1000
DSTYLE
1002
{
1070
   343
1005
86
1070
   344
1005
86
1070
   271
1070
     1
1070
    43
1040
0.0
1070
   173
1070
     1
1070
   272
1070
     1
1070
   279
1070
     2
1070
   340
1005
130
1070
   140
1040
2.809856
1002
}
  0
DIMENSION
  5
13F
330
1F
100
AcDbEntity
  8
無題001
  6
Continuous
 62
     4
100
AcDbDimension
  2
_D2
 10
207.1742254326
 20
112.3703414052
 30
0.0
 11
139.0242254325
 21
114.6408054052
 31
0.0
 70
   160
 71
     5
 42
-1.0
 52
90.0
  3
DIMSTYEX_2
100
AcDbAlignedDimension
 13
70.8742254324
 23
153.2703414052
 33
0.0
 14
207.1742254326
 24
153.2203414052
 34
0.0
100
AcDbRotatedDimension
1001
ACAD
1000
DSTYLE
1002
{
1070
   343
1005
86
1070
   344
1005
86
1070
   271
1070
     5
1070
    43
1040
0.0
1070
   173
1070
     1
1070
    75
1070
     1
1070
   272
1070
     5
1070
   279
1070
     2
1070
   340
1005
130
1070
   140
1040
2.809856
1002
}
  0
DIMENSION
  5
14B
330
1F
100
AcDbEntity
  8
無題001
  6
Continuous
 62
     4
100
AcDbDimension
  2
_D3
 10
218.1742254316
 20
112.3703414051
 30
0.0
 11
212.73424406602
 21
114.6408054051
 31
0.0
 70
   160
  1
(<>)
 71
     5
 42
-1.0
 52
90.0
  3
DIMSTYEX_2
100
AcDbAlignedDimension
 13
207.1742254326
 23
153.2203414052
 33
0.0
 14
218.1742254316
 24
162.1203414052
 34
0.0
100
AcDbRotatedDimension
1001
ACAD
1000
DSTYLE
1002
{
1070
   343
1005
86
1070
   344
1005
86
1070
   271
1070
     5
1070
    43
1040
0.0
1070
   173
1070
     1
1070
    75
1070
     1
1070
   272
1070
     5
1070
   279
1070
     2
1070
   340
1005
130
1070
   140
1040
2.809856
1002
}
  0
LINE
  5
14C
330
1F
100
AcDbEntity
  8
無題001
  6
Continuous
 62
     3
100
AcDbLine
 10
77.3723013587
 20
152.8703414052
 30
0.0
 11
77.3723013587
 21
182.8703414052
 31
0.0
  0
LINE
  5
14D
330
1F
100
AcDbEntity
  8
無題001
  6
CENTER
 62
     1
100
AcDbLine
 10
52.5027228181
 20
167.8703414055
 30
0.0
 11
309.1742254326
 21
167.870341405
 31
0.0
  0
LINE
  5
14E
330
1F
100
AcDbEntity
  8
無題001
  6
Continuous
 62
     3
100
AcDbLine
 10
71.0742251473
 20
153.0703414052
 30
0.0
 11
70.8742251473
 21
153.2703414052
 31
0.0
  0
LINE
  5
14F
330
1F
100
AcDbEntity
  8
無題001
  6
Continuous
 62
     3
100
AcDbLine
 10
74.7742251473
 20
153.0703414052
 30
0.0
 11
74.7742251473
 21
167.8703414052
 31
0.0
  0
LINE
  5
150
330
1F
100
AcDbEntity
  8
無題001
  6
Continuous
 62
     3
100
AcDbLine
 10
71.0742251473
 20
182.6703414052
 30
0.0
 11
74.7742251473
 21
182.6703414052
 31
0.0
  0
LINE
  5
151
330
1F
100
AcDbEntity
  8
無題001
  6
Continuous
 62
     3
100
AcDbLine
 10
120.8742251473
 20
189.3703414052
 30
0.0
 11
128.8742251473
 21
189.3703414052
 31
0.0
  0
LINE
  5
152
330
1F
100
AcDbEntity
  8
無題001
  6
Continuous
 62
     3
100
AcDbLine
 10
70.8742251473
 20
182.4703414052
 30
0.0
 11
70.8742251473
 21
174.8703414052
 31
0.0
  0
LINE
  5
153
330
1F
100
AcDbEntity
  8
無題001
  6
Continuous
 62
     3
100
AcDbLine
 10
70.8742251473
 20
160.8703414052
 30
0.0
 11
70.8742251473
 21
153.2703414052
 31
0.0
  0
LINE
  5
154
330
1F
100
AcDbEntity
  8
無題001
  6
Continuous
 62
     3
100
AcDbLine
 10
71.0742251473
 20
153.0703414052
 30
0.0
 11
74.7742251473
 21
153.0703414052
 31
0.0
  0
LINE
  5
155
330
1F
100
AcDbEntity
  8
無題001
  6
Continuous
 62
     3
100
AcDbLine
 10
128.8742251473
 20
183.8937617641
 30
0.0
 11
120.8742251473
 21
183.8937617641
 31
0.0
  0
LINE
  5
156
330
1F
100
AcDbEntity
  8
無題001
  6
Continuous
 62
     3
100
AcDbLine
 10
71.0742251473
 20
182.6703414052
 30
0.0
 11
70.8742251473
 21
182.4703414052
 31
0.0
  0
LINE
  5
157
330
1F
100
AcDbEntity
  8
無題001
  6
Continuous
 62
     3
100
AcDbLine
 10
74.7742251473
 20
182.6703414052
 30
0.0
 11
74.7742251473
 21
167.8703414052
 31
0.0
  0
LINE
  5
158
330
1F
100
AcDbEntity
  8
無題001
  6
Continuous
 62
     3
100
AcDbLine
 10
74.7742251473
 20
154.3703414052
 30
0.0
 11
77.3723013587
 21
152.8703414052
 31
0.0
  0
LINE
  5
159
330
1F
100
AcDbEntity
  8
無題001
  6
Continuous
 62
     3
100
AcDbLine
 10
74.7742251473
 20
181.3703414052
 30
0.0
 11
77.3723013587
 21
182.8703414052
 31
0.0
  0
LINE
  5
15A
330
1F
100
AcDbEntity
  8
無題001
  6
Continuous
 62
     3
100
AcDbLine
 10
128.8742251473
 20
151.8469210462
 30
0.0
 11
120.8742251473
 21
151.8469210462
 31
0.0
  0
LINE
  5
15B
330
1F
100
AcDbEntity
  8
無題001
  6
Continuous
 62
     3
100
AcDbLine
 10
128.8742251473
 20
189.3703414052
 30
0.0
 11
128.8742251473
 21
167.8703414052
 31
0.0
  0
LINE
  5
15C
330
1F
100
AcDbEntity
  8
無題001
  6
Continuous
 62
     3
100
AcDbLine
 10
120.8742251473
 20
167.8703414052
 30
0.0
 11
120.8742251473
 21
189.3703414052
 31
0.0
  0
LINE
  5
15D
330
1F
100
AcDbEntity
  8
無題001
  6
Continuous
 62
     3
100
AcDbLine
 10
128.8742251473
 20
182.6703414052
 30
0.0
 11
131.8742251473
 21
182.6703414052
 31
0.0
  0
LINE
  5
15E
330
1F
100
AcDbEntity
  8
無題001
  6
Continuous
 62
     3
100
AcDbLine
 10
117.8742251473
 20
182.6703414052
 30
0.0
 11
120.8742251473
 21
182.6703414052
 31
0.0
  0
LINE
  5
15F
330
1F
100
AcDbEntity
  8
無題001
  6
Continuous
 62
     3
100
AcDbLine
 10
131.8742251473
 20
182.8703414052
 30
0.0
 11
131.8742251473
 21
167.8703414052
 31
0.0
  0
LINE
  5
160
330
1F
100
AcDbEntity
  8
無題001
  6
Continuous
 62
     3
100
AcDbLine
 10
117.8742251473
 20
167.8703414052
 30
0.0
 11
117.8742251473
 21
182.8703414052
 31
0.0
  0
LINE
  5
161
330
1F
100
AcDbEntity
  8
無題001
  6
Continuous
 62
     3
100
AcDbLine
 10
131.8742251473
 20
152.8703414052
 30
0.0
 11
131.8742251473
 21
168.5251042524
 31
0.0
  0
LINE
  5
162
330
1F
100
AcDbEntity
  8
無題001
  6
Continuous
 62
     3
100
AcDbLine
 10
117.8742251473
 20
153.0703414052
 30
0.0
 11
120.8742251473
 21
153.0703414052
 31
0.0
  0
LINE
  5
163
330
1F
100
AcDbEntity
  8
無題001
  6
Continuous
 62
     3
100
AcDbLine
 10
128.8742251473
 20
153.0703414052
 30
0.0
 11
131.8742251473
 21
153.0703414052
 31
0.0
  0
LINE
  5
164
330
1F
100
AcDbEntity
  8
無題001
  6
Continuous
 62
     3
100
AcDbLine
 10
120.8742251473
 20
167.8703414052
 30
0.0
 11
120.8742251473
 21
146.3703414052
 31
0.0
  0
LINE
  5
165
330
1F
100
AcDbEntity
  8
無題001
  6
Continuous
 62
     3
100
AcDbLine
 10
128.8742251473
 20
146.3703414052
 30
0.0
 11
128.8742251473
 21
167.8703414052
 31
0.0
  0
LINE
  5
166
330
1F
100
AcDbEntity
  8
無題001
  6
Continuous
 62
     3
100
AcDbLine
 10
120.8742251473
 20
146.3703414052
 30
0.0
 11
128.8742251473
 21
146.3703414052
 31
0.0
  0
LINE
  5
167
330
1F
100
AcDbEntity
  8
無題001
  6
Continuous
 62
     3
100
AcDbLine
 10
117.8742251473
 20
167.8703414052
 30
0.0
 11
117.8742251473
 21
152.8703414052
 31
0.0
  0
LINE
  5
168
330
1F
100
AcDbEntity
  8
無題001
  6
Continuous
 62
     3
100
AcDbLine
 10
117.8742251473
 20
182.8703414052
 30
0.0
 11
77.3723013587
 21
182.8703414052
 31
0.0
  0
LINE
  5
169
330
1F
100
AcDbEntity
  8
無題001
  6
Continuous
 62
     3
100
AcDbLine
 10
117.8742251473
 20
152.8703414052
 30
0.0
 11
77.3723013587
 21
152.8703414052
 31
0.0
  0
DIMENSION
  5
177
330
1F
100
AcDbEntity
  8
無題001
  6
Continuous
 62
     4
100
AcDbDimension
  2
_D4
 10
120.8742251473
 20
128.3703414052
 30
0.0
 11
95.8742251473
 21
130.6408054052
 31
0.0
 70
   160
 71
     5
 42
-1.0
 52
90.0
  3
DIMSTYEX_3
100
AcDbAlignedDimension
 13
70.8742251473
 23
153.2703414052
 33
0.0
 14
120.8742251473
 24
146.3703414052
 34
0.0
100
AcDbRotatedDimension
1001
ACAD
1000
DSTYLE
1002
{
1070
   343
1005
86
1070
   344
1005
86
1070
   271
1070
     5
1070
    43
1040
0.0
1070
   173
1070
     1
1070
   272
1070
     5
1070
   279
1070
     2
1070
   340
1005
130
1070
   140
1040
2.809856
1002
}
  0
DIMENSION
  5
183
330
1F
100
AcDbEntity
  8
無題001
  6
Continuous
 62
     4
100
AcDbDimension
  2
_D5
 10
128.8742251473
 20
128.3703414052
 30
0.0
 11
124.8742251473
 21
130.6408054052
 31
0.0
 70
   160
 71
     5
 42
-1.0
 52
90.0
  3
DIMSTYEX_2
100
AcDbAlignedDimension
 13
120.8742251473
 23
146.3703414052
 33
0.0
 14
128.8742251473
 24
146.3703414052
 34
0.0
100
AcDbRotatedDimension
1001
ACAD
1000
DSTYLE
1002
{
1070
   343
1005
86
1070
   344
1005
86
1070
   271
1070
     5
1070
    43
1040
0.0
1070
   173
1070
     1
1070
    75
1070
     1
1070
   272
1070
     5
1070
   279
1070
     2
1070
   340
1005
130
1070
   140
1040
2.809856
1002
}
  0
DIMENSION
  5
191
330
1F
100
AcDbEntity
  8
無題001
  6
Continuous
 62
     4
100
AcDbDimension
  2
_D6
 10
38.0027228181
 20
152.8703414052
 30
0.0
 11
34.79773081809999
 21
167.8703414052
 31
0.0
 70
   160
  1
φ<>{\H0.70x;\A2\S 0^ -0.01;}
 71
     5
 42
-1.0
 52
90.0
  3
DIMSTYEX_4
100
AcDbAlignedDimension
 13
77.3723013587
 23
182.8703414052
 33
0.0
 14
77.3723013587
 24
152.8703414052
 34
0.0
 50
-90.0
100
AcDbRotatedDimension
1001
ACAD
1000
DSTYLE
1002
{
1070
   343
1005
86
1070
   344
1005
86
1070
    43
1040
12.99999999999999
1070
   173
1070
     1
1070
   272
1070
     6
1070
   279
1070
     2
1070
   340
1005
130
1070
   140
1040
2.809856
1002
}
  0
LINE
  5
192
330
1F
100
AcDbEntity
  8
無題001
  6
Continuous
 62
     3
100
AcDbLine
 10
291.1742254326
 20
177.1703413882
 30
0.0
 11
297.0742254325
 21
177.1703413882
 31
0.0
  0
LINE
  5
193
330
1F
100
AcDbEntity
  8
無題001
  6
Continuous
 62
     3
100
AcDbLine
 10
297.0742254325
 20
158.5703413884
 30
0.0
 11
291.1742254326
 21
158.5703413884
 31
0.0
  0
LINE
  5
194
330
1F
100
AcDbEntity
  8
無題001
  6
Continuous
 62
     3
100
AcDbLine
 10
281.2742254325
 20
177.1703413882
 30
0.0
 11
287.1742254326
 21
177.1703413882
 31
0.0
  0
LINE
  5
195
330
1F
100
AcDbEntity
  8
無題001
  6
Continuous
 62
     3
100
AcDbLine
 10
287.1742254326
 20
158.5703413884
 30
0.0
 11
281.2742254325
 21
158.5703413884
 31
0.0
  0
LINE
  5
196
330
1F
100
AcDbEntity
  8
無題001
  6
Continuous
 62
     3
100
AcDbLine
 10
297.0742254325
 20
177.1203413884
 30
0.0
 11
301.1742254326
 21
177.1203413884
 31
0.0
  0
LINE
  5
197
330
1F
100
AcDbEntity
  8
無題001
  6
Continuous
 62
     3
100
AcDbLine
 10
301.1742254326
 20
158.6203413884
 30
0.0
 11
297.0742254325
 21
158.6203413884
 31
0.0
  0
LINE
  5
198
330
1F
100
AcDbEntity
  8
無題001
  6
Continuous
 62
     3
100
AcDbLine
 10
287.1742254326
 20
177.1203413884
 30
0.0
 11
291.1742254326
 21
177.1203413884
 31
0.0
  0
LINE
  5
199
330
1F
100
AcDbEntity
  8
無題001
  6
Continuous
 62
     3
100
AcDbLine
 10
291.1742254326
 20
158.6203413884
 30
0.0
 11
287.1742254326
 21
158.6203413884
 31
0.0
  0
LINE
  5
19A
330
1F
100
AcDbEntity
  8
無題001
  6
Continuous
 62
     3
100
AcDbLine
 10
277.1742254326
 20
177.1203413884
 30
0.0
 11
281.2742254325
 21
177.1203413884
 31
0.0
  0
LINE
  5
19B
330
1F
100
AcDbEntity
  8
無題001
  6
Continuous
 62
     3
100
AcDbLine
 10
281.2742254325
 20
158.6203413884
 30
0.0
 11
277.1742254326
 21
158.6203413884
 31
0.0
  0
LINE
  5
19C
330
1F
100
AcDbEntity
  8
無題001
  6
Continuous
 62
     3
100
AcDbLine
 10
276.1742254326
 20
176.6203413884
 30
0.0
 11
277.1742254326
 21
176.6203413884
 31
0.0
  0
LINE
  5
19D
330
1F
100
AcDbEntity
  8
無題001
  6
Continuous
 62
     3
100
AcDbLine
 10
265.1742254326
 20
176.6203413884
 30
0.0
 11
267.4242254326
 21
176.6203413884
 31
0.0
  0
LINE
  5
19E
330
1F
100
AcDbEntity
  8
無題001
  6
Continuous
 62
     3
100
AcDbLine
 10
267.4242254326
 20
159.1203413884
 30
0.0
 11
265.1742254326
 21
159.1203413884
 31
0.0
  0
LINE
  5
19F
330
1F
100
AcDbEntity
  8
無題001
  6
Continuous
 62
     3
100
AcDbLine
 10
277.1742254326
 20
159.1203413884
 30
0.0
 11
276.1742254326
 21
159.1203413884
 31
0.0
  0
LINE
  5
1A0
330
1F
100
AcDbEntity
  8
無題001
  6
Continuous
 62
     3
100
AcDbLine
 10
265.1742254326
 20
159.1203413968
 30
0.0
 11
264.1742254284
 21
159.8703413828
 31
0.0
  0
LINE
  5
1A1
330
1F
100
AcDbEntity
  8
無題001
  6
Continuous
 62
     3
100
AcDbLine
 10
301.1742254326
 20
175.8703413884
 30
0.0
 11
303.7242254324
 21
175.8703413884
 31
0.0
  0
LINE
  5
1A2
330
1F
100
AcDbEntity
  8
無題001
  6
Continuous
 62
     3
100
AcDbLine
 10
303.7242254324
 20
159.8703413884
 30
0.0
 11
301.1742254326
 21
159.8703413884
 31
0.0
  0
LINE
  5
1A3
330
1F
100
AcDbEntity
  8
無題001
  6
Continuous
 62
     3
100
AcDbLine
 10
303.7242254324
 20
175.8703413849
 30
0.0
 11
303.9742254343
 21
175.62034139
 31
0.0
  0
LINE
  5
1A4
330
1F
100
AcDbEntity
  8
無題001
  6
Continuous
 62
     3
100
AcDbLine
 10
303.9742254343
 20
160.1203413865
 30
0.0
 11
303.7242254324
 21
159.8703413917
 31
0.0
  0
LINE
  5
1A5
330
1F
100
AcDbEntity
  8
無題001
  6
Continuous
 62
     3
100
AcDbLine
 10
303.9742254324
 20
175.3703413884
 30
0.0
 11
307.1742254326
 21
175.3703413884
 31
0.0
  0
LINE
  5
1A6
330
1F
100
AcDbEntity
  8
無題001
  6
Continuous
 62
     3
100
AcDbLine
 10
307.1742254326
 20
160.3703413884
 30
0.0
 11
303.9742254324
 21
160.3703413884
 31
0.0
  0
LINE
  5
1A7
330
1F
100
AcDbEntity
  8
無題001
  6
Continuous
 62
     3
100
AcDbLine
 10
264.1742254426
 20
161.8703413984
 30
0.0
 11
262.6742254224
 21
163.3703413782
 31
0.0
  0
LINE
  5
1A8
330
1F
100
AcDbEntity
  8
無題001
  6
Continuous
 62
     3
100
AcDbLine
 10
262.6742254224
 20
172.3703413984
 30
0.0
 11
264.1742254426
 21
173.8703413782
 31
0.0
  0
LINE
  5
1A9
330
1F
100
AcDbEntity
  8
無題001
  6
Continuous
 62
     3
100
AcDbLine
 10
262.6742254224
 20
163.8703413884
 30
0.0
 11
242.1425378282
 21
163.8703413884
 31
0.0
  0
LINE
  5
1AA
330
1F
100
AcDbEntity
  8
無題001
  6
Continuous
 62
     3
100
AcDbLine
 10
242.1425375199
 20
171.8703413884
 30
0.0
 11
262.6742254224
 21
171.8703413884
 31
0.0
  0
LINE
  5
1AB
330
1F
100
AcDbEntity
  8
無題001
  6
Continuous
 62
     3
100
AcDbLine
 10
297.0742254325
 20
167.8703413884
 30
0.0
 11
297.0742254325
 21
158.5703413884
 31
0.0
  0
LINE
  5
1AC
330
1F
100
AcDbEntity
  8
無題001
  6
Continuous
 62
     3
100
AcDbLine
 10
297.0742254325
 20
177.1703413882
 30
0.0
 11
297.0742254325
 21
167.8703413884
 31
0.0
  0
LINE
  5
1AD
330
1F
100
AcDbEntity
  8
無題001
  6
Continuous
 62
     3
100
AcDbLine
 10
291.1742254326
 20
167.8703413884
 30
0.0
 11
291.1742254326
 21
158.5703413884
 31
0.0
  0
LINE
  5
1AE
330
1F
100
AcDbEntity
  8
無題001
  6
Continuous
 62
     3
100
AcDbLine
 10
291.1742254326
 20
177.1703413882
 30
0.0
 11
291.1742254326
 21
167.8703413884
 31
0.0
  0
LINE
  5
1AF
330
1F
100
AcDbEntity
  8
無題001
  6
Continuous
 62
     3
100
AcDbLine
 10
281.2742254325
 20
167.8703413884
 30
0.0
 11
281.2742254325
 21
158.5703413884
 31
0.0
  0
LINE
  5
1B0
330
1F
100
AcDbEntity
  8
無題001
  6
Continuous
 62
     3
100
AcDbLine
 10
281.2742254325
 20
177.1703413882
 30
0.0
 11
281.2742254325
 21
167.8703413884
 31
0.0
  0
LINE
  5
1B1
330
1F
100
AcDbEntity
  8
無題001
  6
Continuous
 62
     3
100
AcDbLine
 10
287.1742254326
 20
167.8703413884
 30
0.0
 11
287.1742254326
 21
158.5703413884
 31
0.0
  0
LINE
  5
1B2
330
1F
100
AcDbEntity
  8
無題001
  6
Continuous
 62
     3
100
AcDbLine
 10
287.1742254326
 20
177.1703413882
 30
0.0
 11
287.1742254326
 21
167.8703413884
 31
0.0
  0
LINE
  5
1B3
330
1F
100
AcDbEntity
  8
無題001
  6
Continuous
 62
     3
100
AcDbLine
 10
301.1742254326
 20
167.8703413884
 30
0.0
 11
301.1742254326
 21
158.6203413884
 31
0.0
  0
LINE
  5
1B4
330
1F
100
AcDbEntity
  8
無題001
  6
Continuous
 62
     3
100
AcDbLine
 10
301.1742254326
 20
177.1203413884
 30
0.0
 11
301.1742254326
 21
167.8703413884
 31
0.0
  0
LINE
  5
1B5
330
1F
100
AcDbEntity
  8
無題001
  6
Continuous
 62
     3
100
AcDbLine
 10
277.1742254326
 20
167.8703413884
 30
0.0
 11
277.1742254326
 21
177.1203413884
 31
0.0
  0
LINE
  5
1B6
330
1F
100
AcDbEntity
  8
無題001
  6
Continuous
 62
     3
100
AcDbLine
 10
277.1742254326
 20
158.6203413884
 30
0.0
 11
277.1742254326
 21
167.8703413884
 31
0.0
  0
LINE
  5
1B7
330
1F
100
AcDbEntity
  8
無題001
  6
Continuous
 62
     3
100
AcDbLine
 10
268.1742254326
 20
170.5135885569
 30
0.0
 11
276.1742254326
 21
170.5135885569
 31
0.0
  0
LINE
  5
1B8
330
1F
100
AcDbEntity
  8
無題001
  6
Continuous
 62
     3
100
AcDbLine
 10
268.1742254326
 20
170.5135885569
 30
0.0
 11
268.0277955737
 21
170.5307229095
 31
0.0
  0
LINE
  5
1B9
330
1F
100
AcDbEntity
  8
無題001
  6
Continuous
 62
     3
100
AcDbLine
 10
268.0277955737
 20
170.5307229095
 30
0.0
 11
267.8870342451
 21
170.5674431851
 31
0.0
  0
LINE
  5
1BA
330
1F
100
AcDbEntity
  8
無題001
  6
Continuous
 62
     3
100
AcDbLine
 10
267.8870342451
 20
170.5674431851
 30
0.0
 11
267.7573668671
 21
170.6337756956
 31
0.0
  0
LINE
  5
1BB
330
1F
100
AcDbEntity
  8
無題001
  6
Continuous
 62
     3
100
AcDbLine
 10
267.7573668671
 20
170.6337756956
 30
0.0
 11
267.6437550467
 21
170.7231338836
 31
0.0
  0
LINE
  5
1BC
330
1F
100
AcDbEntity
  8
無題001
  6
Continuous
 62
     3
100
AcDbLine
 10
267.6437550467
 20
170.7231338836
 30
0.0
 11
267.5505063672
 21
170.8302637412
 31
0.0
  0
LINE
  5
1BD
330
1F
100
AcDbEntity
  8
無題001
  6
Continuous
 62
     3
100
AcDbLine
 10
267.5505063672
 20
170.8302637412
 30
0.0
 11
267.4812549402
 21
170.9520743279
 31
0.0
  0
LINE
  5
1BE
330
1F
100
AcDbEntity
  8
無題001
  6
Continuous
 62
     3
100
AcDbLine
 10
267.4812549402
 20
170.9520743279
 30
0.0
 11
267.4385702175
 21
171.083438974
 31
0.0
  0
LINE
  5
1BF
330
1F
100
AcDbEntity
  8
無題001
  6
Continuous
 62
     3
100
AcDbLine
 10
267.4385702175
 20
171.083438974
 30
0.0
 11
267.4242254326
 21
171.2188214221
 31
0.0
  0
LINE
  5
1C0
330
1F
100
AcDbEntity
  8
無題001
  6
Continuous
 62
     3
100
AcDbLine
 10
267.4242254326
 20
171.2188214221
 30
0.0
 11
267.4387061021
 21
171.3535519979
 31
0.0
  0
LINE
  5
1C1
330
1F
100
AcDbEntity
  8
無題001
  6
Continuous
 62
     3
100
AcDbLine
 10
267.4387061021
 20
171.3535519979
 30
0.0
 11
267.4813941711
 21
171.4823812008
 31
0.0
  0
LINE
  5
1C2
330
1F
100
AcDbEntity
  8
無題001
  6
Continuous
 62
     3
100
AcDbLine
 10
267.4813941711
 20
171.4823812008
 30
0.0
 11
267.5507625589
 21
171.6002082083
 31
0.0
  0
LINE
  5
1C3
330
1F
100
AcDbEntity
  8
無題001
  6
Continuous
 62
     3
100
AcDbLine
 10
267.5507625589
 20
171.6002082083
 30
0.0
 11
267.6440518725
 21
171.702602175
 31
0.0
  0
LINE
  5
1C4
330
1F
100
AcDbEntity
  8
無題001
  6
Continuous
 62
     3
100
AcDbLine
 10
267.6440518725
 20
171.702602175
 30
0.0
 11
267.7577180411
 21
171.7864520302
 31
0.0
  0
LINE
  5
1C5
330
1F
100
AcDbEntity
  8
無題001
  6
Continuous
 62
     3
100
AcDbLine
 10
267.7577180411
 20
171.7864520302
 30
0.0
 11
267.8875118897
 21
171.849285517
 31
0.0
  0
LINE
  5
1C6
330
1F
100
AcDbEntity
  8
無題001
  6
Continuous
 62
     3
100
AcDbLine
 10
267.8875118897
 20
171.849285517
 30
0.0
 11
268.0281941514
 21
171.886201081
 31
0.0
  0
LINE
  5
1C7
330
1F
100
AcDbEntity
  8
無題001
  6
Continuous
 62
     3
100
AcDbLine
 10
268.0281941514
 20
171.886201081
 30
0.0
 11
268.1742254326
 21
171.8994078558
 31
0.0
  0
LINE
  5
1C8
330
1F
100
AcDbEntity
  8
無題001
  6
Continuous
 62
     3
100
AcDbLine
 10
276.1742254326
 20
171.8994078558
 30
0.0
 11
268.1742254326
 21
171.8994078558
 31
0.0
  0
LINE
  5
1C9
330
1F
100
AcDbEntity
  8
無題001
  6
Continuous
 62
     3
100
AcDbLine
 10
276.1742254326
 20
170.5135885569
 30
0.0
 11
276.1742254326
 21
171.8994078558
 31
0.0
  0
LINE
  5
1CA
330
1F
100
AcDbEntity
  8
無題001
  6
Continuous
 62
     3
100
AcDbLine
 10
268.1742254326
 20
173.5044253053
 30
0.0
 11
276.1742254326
 21
173.5044253053
 31
0.0
  0
LINE
  5
1CB
330
1F
100
AcDbEntity
  8
無題001
  6
Continuous
 62
     3
100
AcDbLine
 10
268.1742254326
 20
173.5044253053
 30
0.0
 11
268.0277955737
 21
173.5181789285
 31
0.0
  0
LINE
  5
1CC
330
1F
100
AcDbEntity
  8
無題001
  6
Continuous
 62
     3
100
AcDbLine
 10
268.0277955737
 20
173.5181789285
 30
0.0
 11
267.8870342451
 21
173.5475733272
 31
0.0
  0
LINE
  5
1CD
330
1F
100
AcDbEntity
  8
無題001
  6
Continuous
 62
     3
100
AcDbLine
 10
267.8870342451
 20
173.5475733272
 30
0.0
 11
267.7573668671
 21
173.6005195075
 31
0.0
  0
LINE
  5
1CE
330
1F
100
AcDbEntity
  8
無題001
  6
Continuous
 62
     3
100
AcDbLine
 10
267.7573668671
 20
173.6005195075
 30
0.0
 11
267.6437550467
 21
173.6714942452
 31
0.0
  0
LINE
  5
1CF
330
1F
100
AcDbEntity
  8
無題001
  6
Continuous
 62
     3
100
AcDbLine
 10
267.6437550467
 20
173.6714942452
 30
0.0
 11
267.5505063672
 21
173.7560302612
 31
0.0
  0
LINE
  5
1D0
330
1F
100
AcDbEntity
  8
無題001
  6
Continuous
 62
     3
100
AcDbLine
 10
267.5505063672
 20
173.7560302612
 30
0.0
 11
267.4812549402
 21
173.8514120694
 31
0.0
  0
LINE
  5
1D1
330
1F
100
AcDbEntity
  8
無題001
  6
Continuous
 62
     3
100
AcDbLine
 10
267.4812549402
 20
173.8514120694
 30
0.0
 11
267.4385702175
 21
173.9534045764
 31
0.0
  0
LINE
  5
1D2
330
1F
100
AcDbEntity
  8
無題001
  6
Continuous
 62
     3
100
AcDbLine
 10
267.4385702175
 20
173.9534045764
 30
0.0
 11
267.4242254326
 21
174.0575257241
 31
0.0
  0
LINE
  5
1D3
330
1F
100
AcDbEntity
  8
無題001
  6
Continuous
 62
     3
100
AcDbLine
 10
267.4242254326
 20
174.0575257241
 30
0.0
 11
267.4387061021
 21
174.1601314546
 31
0.0
  0
LINE
  5
1D4
330
1F
100
AcDbEntity
  8
無題001
  6
Continuous
 62
     3
100
AcDbLine
 10
267.4387061021
 20
174.1601314546
 30
0.0
 11
267.4813941711
 21
174.2572922347
 31
0.0
  0
LINE
  5
1D5
330
1F
100
AcDbEntity
  8
無題001
  6
Continuous
 62
     3
100
AcDbLine
 10
267.4813941711
 20
174.2572922347
 30
0.0
 11
267.5507625589
 21
174.3453077673
 31
0.0
  0
LINE
  5
1D6
330
1F
100
AcDbEntity
  8
無題001
  6
Continuous
 62
     3
100
AcDbLine
 10
267.5507625589
 20
174.3453077673
 30
0.0
 11
267.6440518725
 21
174.4211345502
 31
0.0
  0
LINE
  5
1D7
330
1F
100
AcDbEntity
  8
無題001
  6
Continuous
 62
     3
100
AcDbLine
 10
267.6440518725
 20
174.4211345502
 30
0.0
 11
267.7577180411
 21
174.4827549345
 31
0.0
  0
LINE
  5
1D8
330
1F
100
AcDbEntity
  8
無題001
  6
Continuous
 62
     3
100
AcDbLine
 10
267.7577180411
 20
174.4827549345
 30
0.0
 11
267.8875118897
 21
174.5286504797
 31
0.0
  0
LINE
  5
1D9
330
1F
100
AcDbEntity
  8
無題001
  6
Continuous
 62
     3
100
AcDbLine
 10
267.8875118897
 20
174.5286504797
 30
0.0
 11
268.0281941514
 21
174.555500579
 31
0.0
  0
LINE
  5
1DA
330
1F
100
AcDbEntity
  8
無題001
  6
Continuous
 62
     3
100
AcDbLine
 10
268.0281941514
 20
174.555500579
 30
0.0
 11
268.1742254326
 21
174.5650854771
 31
0.0
  0
LINE
  5
1DB
330
1F
100
AcDbEntity
  8
無題001
  6
Continuous
 62
     3
100
AcDbLine
 10
276.1742254326
 20
174.5650854771
 30
0.0
 11
268.1742254326
 21
174.5650854771
 31
0.0
  0
LINE
  5
1DC
330
1F
100
AcDbEntity
  8
無題001
  6
Continuous
 62
     3
100
AcDbLine
 10
276.1742254326
 20
173.5044253053
 30
0.0
 11
276.1742254326
 21
174.5650854771
 31
0.0
  0
LINE
  5
1DD
330
1F
100
AcDbEntity
  8
無題001
  6
Continuous
 62
     3
100
AcDbLine
 10
268.1742254326
 20
175.6375238506
 30
0.0
 11
276.1742254326
 21
175.6375238506
 31
0.0
  0
LINE
  5
1DE
330
1F
100
AcDbEntity
  8
無題001
  6
Continuous
 62
     3
100
AcDbLine
 10
268.1742254326
 20
175.6375238506
 30
0.0
 11
268.0277955737
 21
175.6458028796
 31
0.0
  0
LINE
  5
1DF
330
1F
100
AcDbEntity
  8
無題001
  6
Continuous
 62
     3
100
AcDbLine
 10
268.0277955737
 20
175.6458028796
 30
0.0
 11
267.8870342451
 21
175.663396371
 31
0.0
  0
LINE
  5
1E0
330
1F
100
AcDbEntity
  8
無題001
  6
Continuous
 62
     3
100
AcDbLine
 10
267.8870342451
 20
175.663396371
 30
0.0
 11
267.7573668671
 21
175.6948956453
 31
0.0
  0
LINE
  5
1E1
330
1F
100
AcDbEntity
  8
無題001
  6
Continuous
 62
     3
100
AcDbLine
 10
267.7573668671
 20
175.6948956453
 30
0.0
 11
267.6437550467
 21
175.7366816722
 31
0.0
  0
LINE
  5
1E2
330
1F
100
AcDbEntity
  8
無題001
  6
Continuous
 62
     3
100
AcDbLine
 10
267.6437550467
 20
175.7366816722
 30
0.0
 11
267.5505063672
 21
175.7857540044
 31
0.0
  0
LINE
  5
1E3
330
1F
100
AcDbEntity
  8
無題001
  6
Continuous
 62
     3
100
AcDbLine
 10
267.5505063672
 20
175.7857540044
 30
0.0
 11
267.4812549402
 21
175.8401860184
 31
0.0
  0
LINE
  5
1E4
330
1F
100
AcDbEntity
  8
無題001
  6
Continuous
 62
     3
100
AcDbLine
 10
267.4812549402
 20
175.8401860184
 30
0.0
 11
267.4385702175
 21
175.8972789516
 31
0.0
  0
LINE
  5
1E5
330
1F
100
AcDbEntity
  8
無題001
  6
Continuous
 62
     3
100
AcDbLine
 10
267.4385702175
 20
175.8972789516
 30
0.0
 11
267.4242254326
 21
175.9542872979
 31
0.0
  0
LINE
  5
1E6
330
1F
100
AcDbEntity
  8
無題001
  6
Continuous
 62
     3
100
AcDbLine
 10
267.4242254326
 20
175.9542872979
 30
0.0
 11
267.4387061021
 21
176.0091473908
 31
0.0
  0
LINE
  5
1E7
330
1F
100
AcDbEntity
  8
無題001
  6
Continuous
 62
     3
100
AcDbLine
 10
267.4387061021
 20
176.0091473908
 30
0.0
 11
267.4813941711
 21
176.0598479001
 31
0.0
  0
LINE
  5
1E8
330
1F
100
AcDbEntity
  8
無題001
  6
Continuous
 62
     3
100
AcDbLine
 10
267.4813941711
 20
176.0598479001
 30
0.0
 11
267.5507625589
 21
176.1046523909
 31
0.0
  0
LINE
  5
1E9
330
1F
100
AcDbEntity
  8
無題001
  6
Continuous
 62
     3
100
AcDbLine
 10
267.5507625589
 20
176.1046523909
 30
0.0
 11
267.6440518725
 21
176.1423680497
 31
0.0
  0
LINE
  5
1EA
330
1F
100
AcDbEntity
  8
無題001
  6
Continuous
 62
     3
100
AcDbLine
 10
267.6440518725
 20
176.1423680497
 30
0.0
 11
267.7577180411
 21
176.1723778179
 31
0.0
  0
LINE
  5
1EB
330
1F
100
AcDbEntity
  8
無題001
  6
Continuous
 62
     3
100
AcDbLine
 10
267.7577180411
 20
176.1723778179
 30
0.0
 11
267.8875118897
 21
176.1943482411
 31
0.0
  0
LINE
  5
1EC
330
1F
100
AcDbEntity
  8
無題001
  6
Continuous
 62
     3
100
AcDbLine
 10
267.8875118897
 20
176.1943482411
 30
0.0
 11
268.0281941514
 21
176.2070451913
 31
0.0
  0
LINE
  5
1ED
330
1F
100
AcDbEntity
  8
無題001
  6
Continuous
 62
     3
100
AcDbLine
 10
268.0281941514
 20
176.2070451913
 30
0.0
 11
268.1742254326
 21
176.2115489991
 31
0.0
  0
LINE
  5
1EE
330
1F
100
AcDbEntity
  8
無題001
  6
Continuous
 62
     3
100
AcDbLine
 10
276.1742254326
 20
176.2115489991
 30
0.0
 11
268.1742254326
 21
176.2115489991
 31
0.0
  0
LINE
  5
1EF
330
1F
100
AcDbEntity
  8
無題001
  6
Continuous
 62
     3
100
AcDbLine
 10
276.1742254326
 20
175.6375238506
 30
0.0
 11
276.1742254326
 21
176.2115489991
 31
0.0
  0
LINE
  5
1F0
330
1F
100
AcDbEntity
  8
無題001
  6
Continuous
 62
     3
100
AcDbLine
 10
268.1742254326
 20
176.5881392754
 30
0.0
 11
276.1742254326
 21
176.5881392754
 31
0.0
  0
LINE
  5
1F1
330
1F
100
AcDbEntity
  8
無題001
  6
Continuous
 62
     3
100
AcDbLine
 10
268.1742254326
 20
176.5881392754
 30
0.0
 11
268.0646944123
 21
176.5892047602
 31
0.0
  0
LINE
  5
1F2
330
1F
100
AcDbEntity
  8
無題001
  6
Continuous
 62
     3
100
AcDbLine
 10
268.0646944123
 20
176.5892047602
 30
0.0
 11
267.9575376069
 21
176.5909245137
 31
0.0
  0
LINE
  5
1F3
330
1F
100
AcDbEntity
  8
無題001
  6
Continuous
 62
     3
100
AcDbLine
 10
267.9575376069
 20
176.5909245137
 30
0.0
 11
267.8551044476
 21
176.5938829141
 31
0.0
  0
LINE
  5
1F4
330
1F
100
AcDbEntity
  8
無題001
  6
Continuous
 62
     3
100
AcDbLine
 10
267.8551044476
 20
176.5938829141
 30
0.0
 11
267.7594909187
 21
176.5979495841
 31
0.0
  0
LINE
  5
1F5
330
1F
100
AcDbEntity
  8
無題001
  6
Continuous
 62
     3
100
AcDbLine
 10
267.7594909187
 20
176.5979495841
 30
0.0
 11
267.6726450203
 21
176.6025774054
 31
0.0
  0
LINE
  5
1F6
330
1F
100
AcDbEntity
  8
無題001
  6
Continuous
 62
     3
100
AcDbLine
 10
267.6726450203
 20
176.6025774054
 30
0.0
 11
267.5965298738
 21
176.6072841085
 31
0.0
  0
LINE
  5
1F7
330
1F
100
AcDbEntity
  8
無題001
  6
Continuous
 62
     3
100
AcDbLine
 10
267.5965298738
 20
176.6072841085
 30
0.0
 11
267.5331298756
 21
176.6116772472
 31
0.0
  0
LINE
  5
1F8
330
1F
100
AcDbEntity
  8
無題001
  6
Continuous
 62
     3
100
AcDbLine
 10
267.5331298756
 20
176.6116772472
 30
0.0
 11
267.4838435262
 21
176.6154176561
 31
0.0
  0
LINE
  5
1F9
330
1F
100
AcDbEntity
  8
無題001
  6
Continuous
 62
     3
100
AcDbLine
 10
267.4838435262
 20
176.6154176561
 30
0.0
 11
267.4483404335
 21
176.618305741
 31
0.0
  0
LINE
  5
1FA
330
1F
100
AcDbEntity
  8
無題001
  6
Continuous
 62
     3
100
AcDbLine
 10
267.4483404335
 20
176.618305741
 30
0.0
 11
267.4269229991
 21
176.6201050942
 31
0.0
  0
LINE
  5
1FB
330
1F
100
AcDbEntity
  8
無題001
  6
Continuous
 62
     3
100
AcDbLine
 10
267.4269229991
 20
176.6201050942
 30
0.0
 11
267.4268575239
 21
176.6201239711
 31
0.0
  0
LINE
  5
1FC
330
1F
100
AcDbEntity
  8
無題001
  6
Continuous
 62
     3
100
AcDbLine
 10
267.4268575239
 20
176.6201239711
 30
0.0
 11
267.4475490351
 21
176.6183979401
 31
0.0
  0
LINE
  5
1FD
330
1F
100
AcDbEntity
  8
無題001
  6
Continuous
 62
     3
100
AcDbLine
 10
276.1742254326
 20
176.5881392754
 30
0.0
 11
276.1742254326
 21
176.6203413884
 31
0.0
  0
LINE
  5
1FE
330
1F
100
AcDbEntity
  8
無題001
  6
Continuous
 62
     3
100
AcDbLine
 10
268.1742254326
 20
167.1203413884
 30
0.0
 11
268.0277955737
 21
167.1382479203
 31
0.0
  0
LINE
  5
1FF
330
1F
100
AcDbEntity
  8
無題001
  6
Continuous
 62
     3
100
AcDbLine
 10
268.0277955737
 20
167.1382479203
 30
0.0
 11
267.8870342451
 21
167.1767037438
 31
0.0
  0
LINE
  5
200
330
1F
100
AcDbEntity
  8
無題001
  6
Continuous
 62
     3
100
AcDbLine
 10
267.8870342451
 20
167.1767037438
 30
0.0
 11
267.7573668671
 21
167.2463240608
 31
0.0
  0
LINE
  5
201
330
1F
100
AcDbEntity
  8
無題001
  6
Continuous
 62
     3
100
AcDbLine
 10
267.7573668671
 20
167.2463240608
 30
0.0
 11
267.6437550467
 21
167.340461725
 31
0.0
  0
LINE
  5
202
330
1F
100
AcDbEntity
  8
無題001
  6
Continuous
 62
     3
100
AcDbLine
 10
267.6437550467
 20
167.340461725
 30
0.0
 11
267.5505063672
 21
167.4538758745
 31
0.0
  0
LINE
  5
203
330
1F
100
AcDbEntity
  8
無題001
  6
Continuous
 62
     3
100
AcDbLine
 10
267.5505063672
 20
167.4538758745
 30
0.0
 11
267.4812549402
 21
167.5835706821
 31
0.0
  0
LINE
  5
204
330
1F
100
AcDbEntity
  8
無題001
  6
Continuous
 62
     3
100
AcDbLine
 10
267.4812549402
 20
167.5835706821
 30
0.0
 11
267.4385702175
 21
167.724308391
 31
0.0
  0
LINE
  5
205
330
1F
100
AcDbEntity
  8
無題001
  6
Continuous
 62
     3
100
AcDbLine
 10
267.4385702175
 20
167.724308391
 30
0.0
 11
267.4242254326
 21
167.8703413889
 31
0.0
  0
LINE
  5
206
330
1F
100
AcDbEntity
  8
無題001
  6
Continuous
 62
     3
100
AcDbLine
 10
267.4242254326
 20
167.8703413889
 30
0.0
 11
267.4387061021
 21
168.0166853013
 31
0.0
  0
LINE
  5
207
330
1F
100
AcDbEntity
  8
無題001
  6
Continuous
 62
     3
100
AcDbLine
 10
267.4387061021
 20
168.0166853013
 30
0.0
 11
267.4813941711
 21
168.1575698486
 31
0.0
  0
LINE
  5
208
330
1F
100
AcDbEntity
  8
無題001
  6
Continuous
 62
     3
100
AcDbLine
 10
267.4813941711
 20
168.1575698486
 30
0.0
 11
267.5507625589
 21
168.2872702374
 31
0.0
  0
LINE
  5
209
330
1F
100
AcDbEntity
  8
無題001
  6
Continuous
 62
     3
100
AcDbLine
 10
267.5507625589
 20
168.2872702374
 30
0.0
 11
267.6440518725
 21
168.4006428345
 31
0.0
  0
LINE
  5
20A
330
1F
100
AcDbEntity
  8
無題001
  6
Continuous
 62
     3
100
AcDbLine
 10
267.6440518725
 20
168.4006428345
 30
0.0
 11
267.7577180411
 21
168.4939567804
 31
0.0
  0
LINE
  5
20B
330
1F
100
AcDbEntity
  8
無題001
  6
Continuous
 62
     3
100
AcDbLine
 10
267.7577180411
 20
168.4939567804
 30
0.0
 11
267.8875118897
 21
168.56416238
 31
0.0
  0
LINE
  5
20C
330
1F
100
AcDbEntity
  8
無題001
  6
Continuous
 62
     3
100
AcDbLine
 10
267.8875118897
 20
168.56416238
 30
0.0
 11
268.0281941514
 21
168.6055233484
 31
0.0
  0
LINE
  5
20D
330
1F
100
AcDbEntity
  8
無題001
  6
Continuous
 62
     3
100
AcDbLine
 10
268.0281941514
 20
168.6055233484
 30
0.0
 11
268.1742254326
 21
168.6203413884
 31
0.0
  0
LINE
  5
20E
330
1F
100
AcDbEntity
  8
無題001
  6
Continuous
 62
     3
100
AcDbLine
 10
276.1742254326
 20
168.6203413884
 30
0.0
 11
268.1742254326
 21
168.6203413884
 31
0.0
  0
LINE
  5
20F
330
1F
100
AcDbEntity
  8
無題001
  6
Continuous
 62
     3
100
AcDbLine
 10
276.1742254326
 20
167.1203413884
 30
0.0
 11
276.1742254326
 21
168.6203413884
 31
0.0
  0
LINE
  5
210
330
1F
100
AcDbEntity
  8
無題001
  6
Continuous
 62
     3
100
AcDbLine
 10
268.1742254326
 20
167.1203413884
 30
0.0
 11
276.1742254326
 21
167.1203413884
 31
0.0
  0
LINE
  5
211
330
1F
100
AcDbEntity
  8
無題001
  6
Continuous
 62
     3
100
AcDbLine
 10
268.1742254326
 20
163.8412749207
 30
0.0
 11
276.1742254326
 21
163.8412749207
 31
0.0
  0
LINE
  5
212
330
1F
100
AcDbEntity
  8
無題001
  6
Continuous
 62
     3
100
AcDbLine
 10
268.1742254326
 20
163.8412749207
 30
0.0
 11
268.0277955737
 21
163.8572275253
 31
0.0
  0
LINE
  5
213
330
1F
100
AcDbEntity
  8
無題001
  6
Continuous
 62
     3
100
AcDbLine
 10
268.0277955737
 20
163.8572275253
 30
0.0
 11
267.8870342451
 21
163.891564346
 31
0.0
  0
LINE
  5
214
330
1F
100
AcDbEntity
  8
無題001
  6
Continuous
 62
     3
100
AcDbLine
 10
267.8870342451
 20
163.891564346
 30
0.0
 11
267.7573668671
 21
163.9538734075
 31
0.0
  0
LINE
  5
215
330
1F
100
AcDbEntity
  8
無題001
  6
Continuous
 62
     3
100
AcDbLine
 10
267.7573668671
 20
163.9538734075
 30
0.0
 11
267.6437550467
 21
164.0384589419
 31
0.0
  0
LINE
  5
216
330
1F
100
AcDbEntity
  8
無題001
  6
Continuous
 62
     3
100
AcDbLine
 10
267.6437550467
 20
164.0384589419
 30
0.0
 11
267.5505063672
 21
164.1408911072
 31
0.0
  0
LINE
  5
217
330
1F
100
AcDbEntity
  8
無題001
  6
Continuous
 62
     3
100
AcDbLine
 10
267.5505063672
 20
164.1408911072
 30
0.0
 11
267.4812549402
 21
164.2587252768
 31
0.0
  0
LINE
  5
218
330
1F
100
AcDbEntity
  8
無題001
  6
Continuous
 62
     3
100
AcDbLine
 10
267.4812549402
 20
164.2587252768
 30
0.0
 11
267.4385702175
 21
164.387410008
 31
0.0
  0
LINE
  5
219
330
1F
100
AcDbEntity
  8
無題001
  6
Continuous
 62
     3
100
AcDbLine
 10
267.4385702175
 20
164.387410008
 30
0.0
 11
267.4242254326
 21
164.5218613556
 31
0.0
  0
LINE
  5
21A
330
1F
100
AcDbEntity
  8
無題001
  6
Continuous
 62
     3
100
AcDbLine
 10
267.4242254326
 20
164.5218613556
 30
0.0
 11
267.4387061021
 21
164.6575390705
 31
0.0
  0
LINE
  5
21B
330
1F
100
AcDbEntity
  8
無題001
  6
Continuous
 62
     3
100
AcDbLine
 10
267.4387061021
 20
164.6575390705
 30
0.0
 11
267.4813941711
 21
164.7890305669
 31
0.0
  0
LINE
  5
21C
330
1F
100
AcDbEntity
  8
無題001
  6
Continuous
 62
     3
100
AcDbLine
 10
267.4813941711
 20
164.7890305669
 30
0.0
 11
267.5507625589
 21
164.9108586285
 31
0.0
  0
LINE
  5
21D
330
1F
100
AcDbEntity
  8
無題001
  6
Continuous
 62
     3
100
AcDbLine
 10
267.5507625589
 20
164.9108586285
 30
0.0
 11
267.6440518725
 21
165.0179499061
 31
0.0
  0
LINE
  5
21E
330
1F
100
AcDbEntity
  8
無題001
  6
Continuous
 62
     3
100
AcDbLine
 10
267.6440518725
 20
165.0179499061
 30
0.0
 11
267.7577180411
 21
165.1065217402
 31
0.0
  0
LINE
  5
21F
330
1F
100
AcDbEntity
  8
無題001
  6
Continuous
 62
     3
100
AcDbLine
 10
267.7577180411
 20
165.1065217402
 30
0.0
 11
267.8875118897
 21
165.1734112863
 31
0.0
  0
LINE
  5
220
330
1F
100
AcDbEntity
  8
無題001
  6
Continuous
 62
     3
100
AcDbLine
 10
267.8875118897
 20
165.1734112863
 30
0.0
 11
268.0281941514
 21
165.2129208272
 31
0.0
  0
LINE
  5
221
330
1F
100
AcDbEntity
  8
無題001
  6
Continuous
 62
     3
100
AcDbLine
 10
268.0281941514
 20
165.2129208272
 30
0.0
 11
268.1742254326
 21
165.2270942197
 31
0.0
  0
LINE
  5
222
330
1F
100
AcDbEntity
  8
無題001
  6
Continuous
 62
     3
100
AcDbLine
 10
276.1742254326
 20
165.2270942197
 30
0.0
 11
268.1742254326
 21
165.2270942197
 31
0.0
  0
LINE
  5
223
330
1F
100
AcDbEntity
  8
無題001
  6
Continuous
 62
     3
100
AcDbLine
 10
276.1742254326
 20
163.8412749207
 30
0.0
 11
276.1742254326
 21
165.2270942197
 31
0.0
  0
LINE
  5
224
330
1F
100
AcDbEntity
  8
無題001
  6
Continuous
 62
     3
100
AcDbLine
 10
268.1742254326
 20
161.1755972995
 30
0.0
 11
276.1742254326
 21
161.1755972995
 31
0.0
  0
LINE
  5
225
330
1F
100
AcDbEntity
  8
無題001
  6
Continuous
 62
     3
100
AcDbLine
 10
268.1742254326
 20
161.1755972995
 30
0.0
 11
268.0277955737
 21
161.1871673368
 31
0.0
  0
LINE
  5
226
330
1F
100
AcDbEntity
  8
無題001
  6
Continuous
 62
     3
100
AcDbLine
 10
268.0277955737
 20
161.1871673368
 30
0.0
 11
267.8870342451
 21
161.2121576852
 31
0.0
  0
LINE
  5
227
330
1F
100
AcDbEntity
  8
無題001
  6
Continuous
 62
     3
100
AcDbLine
 10
267.8870342451
 20
161.2121576852
 30
0.0
 11
267.7573668671
 21
161.2576695011
 31
0.0
  0
LINE
  5
228
330
1F
100
AcDbEntity
  8
無題001
  6
Continuous
 62
     3
100
AcDbLine
 10
267.7573668671
 20
161.2576695011
 30
0.0
 11
267.6437550467
 21
161.3198255251
 31
0.0
  0
LINE
  5
229
330
1F
100
AcDbEntity
  8
無題001
  6
Continuous
 62
     3
100
AcDbLine
 10
267.6437550467
 20
161.3198255251
 30
0.0
 11
267.5505063672
 21
161.3956813376
 31
0.0
  0
LINE
  5
22A
330
1F
100
AcDbEntity
  8
無題001
  6
Continuous
 62
     3
100
AcDbLine
 10
267.5505063672
 20
161.3956813376
 30
0.0
 11
267.4812549402
 21
161.4837156852
 31
0.0
  0
LINE
  5
22B
330
1F
100
AcDbEntity
  8
無題001
  6
Continuous
 62
     3
100
AcDbLine
 10
267.4812549402
 20
161.4837156852
 30
0.0
 11
267.4385702175
 21
161.580756355
 31
0.0
  0
LINE
  5
22C
330
1F
100
AcDbEntity
  8
無題001
  6
Continuous
 62
     3
100
AcDbLine
 10
267.4385702175
 20
161.580756355
 30
0.0
 11
267.4242254326
 21
161.6831570534
 31
0.0
  0
LINE
  5
22D
330
1F
100
AcDbEntity
  8
無題001
  6
Continuous
 62
     3
100
AcDbLine
 10
267.4242254326
 20
161.6831570534
 30
0.0
 11
267.4387061021
 21
161.7875128683
 31
0.0
  0
LINE
  5
22E
330
1F
100
AcDbEntity
  8
無題001
  6
Continuous
 62
     3
100
AcDbLine
 10
267.4387061021
 20
161.7875128683
 30
0.0
 11
267.4813941711
 21
161.8895929259
 31
0.0
  0
LINE
  5
22F
330
1F
100
AcDbEntity
  8
無題001
  6
Continuous
 62
     3
100
AcDbLine
 10
267.4813941711
 20
161.8895929259
 30
0.0
 11
267.5507625589
 21
161.9850014419
 31
0.0
  0
LINE
  5
230
330
1F
100
AcDbEntity
  8
無題001
  6
Continuous
 62
     3
100
AcDbLine
 10
267.5507625589
 20
161.9850014419
 30
0.0
 11
267.6440518725
 21
162.0695077238
 31
0.0
  0
LINE
  5
231
330
1F
100
AcDbEntity
  8
無題001
  6
Continuous
 62
     3
100
AcDbLine
 10
267.6440518725
 20
162.0695077238
 30
0.0
 11
267.7577180411
 21
162.1398531873
 31
0.0
  0
LINE
  5
232
330
1F
100
AcDbEntity
  8
無題001
  6
Continuous
 62
     3
100
AcDbLine
 10
267.7577180411
 20
162.1398531873
 30
0.0
 11
267.8875118897
 21
162.1932433531
 31
0.0
  0
LINE
  5
233
330
1F
100
AcDbEntity
  8
無題001
  6
Continuous
 62
     3
100
AcDbLine
 10
267.8875118897
 20
162.1932433531
 30
0.0
 11
268.0281941514
 21
162.2248864967
 31
0.0
  0
LINE
  5
234
330
1F
100
AcDbEntity
  8
無題001
  6
Continuous
 62
     3
100
AcDbLine
 10
268.0281941514
 20
162.2248864967
 30
0.0
 11
268.1742254326
 21
162.2362574713
 31
0.0
  0
LINE
  5
235
330
1F
100
AcDbEntity
  8
無題001
  6
Continuous
 62
     3
100
AcDbLine
 10
276.1742254326
 20
162.2362574713
 30
0.0
 11
268.1742254326
 21
162.2362574713
 31
0.0
  0
LINE
  5
236
330
1F
100
AcDbEntity
  8
無題001
  6
Continuous
 62
     3
100
AcDbLine
 10
276.1742254326
 20
161.1755972995
 30
0.0
 11
276.1742254326
 21
162.2362574713
 31
0.0
  0
LINE
  5
237
330
1F
100
AcDbEntity
  8
無題001
  6
Continuous
 62
     3
100
AcDbLine
 10
268.1742254326
 20
159.5291337775
 30
0.0
 11
276.1742254326
 21
159.5291337775
 31
0.0
  0
LINE
  5
238
330
1F
100
AcDbEntity
  8
無題001
  6
Continuous
 62
     3
100
AcDbLine
 10
268.1742254326
 20
159.5291337775
 30
0.0
 11
268.0277955737
 21
159.5345598146
 31
0.0
  0
LINE
  5
239
330
1F
100
AcDbEntity
  8
無題001
  6
Continuous
 62
     3
100
AcDbLine
 10
268.0277955737
 20
159.5345598146
 30
0.0
 11
267.8870342451
 21
159.5463991364
 31
0.0
  0
LINE
  5
23A
330
1F
100
AcDbEntity
  8
無題001
  6
Continuous
 62
     3
100
AcDbLine
 10
267.8870342451
 20
159.5463991364
 30
0.0
 11
267.7573668671
 21
159.5681849459
 31
0.0
  0
LINE
  5
23B
330
1F
100
AcDbEntity
  8
無題001
  6
Continuous
 62
     3
100
AcDbLine
 10
267.7573668671
 20
159.5681849459
 30
0.0
 11
267.6437550467
 21
159.5984487679
 31
0.0
  0
LINE
  5
23C
330
1F
100
AcDbEntity
  8
無題001
  6
Continuous
 62
     3
100
AcDbLine
 10
267.6437550467
 20
159.5984487679
 30
0.0
 11
267.5505063672
 21
159.6361798676
 31
0.0
  0
LINE
  5
23D
330
1F
100
AcDbEntity
  8
無題001
  6
Continuous
 62
     3
100
AcDbLine
 10
267.5505063672
 20
159.6361798676
 30
0.0
 11
267.4812549402
 21
159.6810119619
 31
0.0
  0
LINE
  5
23E
330
1F
100
AcDbEntity
  8
無題001
  6
Continuous
 62
     3
100
AcDbLine
 10
267.4812549402
 20
159.6810119619
 30
0.0
 11
267.4385702175
 21
159.7316350079
 31
0.0
  0
LINE
  5
23F
330
1F
100
AcDbEntity
  8
無題001
  6
Continuous
 62
     3
100
AcDbLine
 10
267.4385702175
 20
159.7316350079
 30
0.0
 11
267.4242254326
 21
159.7863954791
 31
0.0
  0
LINE
  5
240
330
1F
100
AcDbEntity
  8
無題001
  6
Continuous
 62
     3
100
AcDbLine
 10
267.4242254326
 20
159.7863954791
 30
0.0
 11
267.4387061021
 21
159.8435421676
 31
0.0
  0
LINE
  5
241
330
1F
100
AcDbEntity
  8
無題001
  6
Continuous
 62
     3
100
AcDbLine
 10
267.4387061021
 20
159.8435421676
 30
0.0
 11
267.4813941711
 21
159.9006700224
 31
0.0
  0
LINE
  5
242
330
1F
100
AcDbEntity
  8
無題001
  6
Continuous
 62
     3
100
AcDbLine
 10
267.4813941711
 20
159.9006700224
 30
0.0
 11
267.5507625589
 21
159.9551339116
 31
0.0
  0
LINE
  5
243
330
1F
100
AcDbEntity
  8
無題001
  6
Continuous
 62
     3
100
AcDbLine
 10
267.5507625589
 20
159.9551339116
 30
0.0
 11
267.6440518725
 21
160.0041898821
 31
0.0
  0
LINE
  5
244
330
1F
100
AcDbEntity
  8
無題001
  6
Continuous
 62
     3
100
AcDbLine
 10
267.6440518725
 20
160.0041898821
 30
0.0
 11
267.7577180411
 21
160.0455995161
 31
0.0
  0
LINE
  5
245
330
1F
100
AcDbEntity
  8
無題001
  6
Continuous
 62
     3
100
AcDbLine
 10
267.7577180411
 20
160.0455995161
 30
0.0
 11
267.8875118897
 21
160.0773621326
 31
0.0
  0
LINE
  5
246
330
1F
100
AcDbEntity
  8
無題001
  6
Continuous
 62
     3
100
AcDbLine
 10
267.8875118897
 20
160.0773621326
 30
0.0
 11
268.0281941514
 21
160.0963214972
 31
0.0
  0
LINE
  5
247
330
1F
100
AcDbEntity
  8
無題001
  6
Continuous
 62
     3
100
AcDbLine
 10
268.0281941514
 20
160.0963214972
 30
0.0
 11
268.1742254326
 21
160.103158926
 31
0.0
  0
LINE
  5
248
330
1F
100
AcDbEntity
  8
無題001
  6
Continuous
 62
     3
100
AcDbLine
 10
276.1742254326
 20
160.1031589263
 30
0.0
 11
268.1742254326
 21
160.1031589263
 31
0.0
  0
LINE
  5
249
330
1F
100
AcDbEntity
  8
無題001
  6
Continuous
 62
     3
100
AcDbLine
 10
276.1742254326
 20
159.5291337775
 30
0.0
 11
276.1742254326
 21
160.1031589263
 31
0.0
  0
LINE
  5
24A
330
1F
100
AcDbEntity
  8
無題001
  6
Continuous
 62
     3
100
AcDbLine
 10
267.4242254326
 20
159.1203413884
 30
0.0
 11
267.4360688492
 21
159.1213683206
 31
0.0
  0
LINE
  5
24B
330
1F
100
AcDbEntity
  8
無題001
  6
Continuous
 62
     3
100
AcDbLine
 10
267.4360688492
 20
159.1213683206
 30
0.0
 11
267.4558607906
 21
159.1230047149
 31
0.0
  0
LINE
  5
24C
330
1F
100
AcDbEntity
  8
無題001
  6
Continuous
 62
     3
100
AcDbLine
 10
267.4558607906
 20
159.1230047149
 30
0.0
 11
267.4910480362
 21
159.1258092577
 31
0.0
  0
LINE
  5
24D
330
1F
100
AcDbEntity
  8
無題001
  6
Continuous
 62
     3
100
AcDbLine
 10
267.4910480362
 20
159.1258092577
 30
0.0
 11
267.5427435393
 21
159.1296996634
 31
0.0
  0
LINE
  5
24E
330
1F
100
AcDbEntity
  8
無題001
  6
Continuous
 62
     3
100
AcDbLine
 10
267.5427435393
 20
159.1296996634
 30
0.0
 11
267.6077320055
 21
159.1341556673
 31
0.0
  0
LINE
  5
24F
330
1F
100
AcDbEntity
  8
無題001
  6
Continuous
 62
     3
100
AcDbLine
 10
267.6077320055
 20
159.1341556673
 30
0.0
 11
267.6835047936
 21
159.1387312805
 31
0.0
  0
LINE
  5
250
330
1F
100
AcDbEntity
  8
無題001
  6
Continuous
 62
     3
100
AcDbLine
 10
267.6835047936
 20
159.1387312805
 30
0.0
 11
267.7689357312
 21
159.1431252487
 31
0.0
  0
LINE
  5
251
330
1F
100
AcDbEntity
  8
無題001
  6
Continuous
 62
     3
100
AcDbLine
 10
267.7689357312
 20
159.1431252487
 30
0.0
 11
267.8628601071
 21
159.1470310785
 31
0.0
  0
LINE
  5
252
330
1F
100
AcDbEntity
  8
無題001
  6
Continuous
 62
     3
100
AcDbLine
 10
267.8628601071
 20
159.1470310785
 30
0.0
 11
267.9632294167
 21
159.1500437694
 31
0.0
  0
LINE
  5
253
330
1F
100
AcDbEntity
  8
無題001
  6
Continuous
 62
     3
100
AcDbLine
 10
267.9632294167
 20
159.1500437694
 30
0.0
 11
268.0677310415
 21
159.1517696827
 31
0.0
  0
LINE
  5
254
330
1F
100
AcDbEntity
  8
無題001
  6
Continuous
 62
     3
100
AcDbLine
 10
268.0677310415
 20
159.1517696827
 30
0.0
 11
268.1742254326
 21
159.1525435011
 31
0.0
  0
LINE
  5
255
330
1F
100
AcDbEntity
  8
無題001
  6
Continuous
 62
     3
100
AcDbLine
 10
276.1742254326
 20
159.1525435011
 30
0.0
 11
268.1742254326
 21
159.1525435011
 31
0.0
  0
LINE
  5
256
330
1F
100
AcDbEntity
  8
無題001
  6
Continuous
 62
     3
100
AcDbLine
 10
276.1742254326
 20
159.1203413884
 30
0.0
 11
276.1742254326
 21
159.1525435011
 31
0.0
  0
LINE
  5
257
330
1F
100
AcDbEntity
  8
無題001
  6
Continuous
 62
     3
100
AcDbLine
 10
265.1742254326
 20
167.8703413884
 30
0.0
 11
265.1742254326
 21
176.6203413884
 31
0.0
  0
LINE
  5
258
330
1F
100
AcDbEntity
  8
無題001
  6
Continuous
 62
     3
100
AcDbLine
 10
265.1742254326
 20
159.1203413884
 30
0.0
 11
265.1742254326
 21
167.8703413884
 31
0.0
  0
LINE
  5
259
330
1F
100
AcDbEntity
  8
無題001
  6
Continuous
 62
     3
100
AcDbLine
 10
264.1742254284
 20
159.8703413828
 30
0.0
 11
264.1742254284
 21
175.8703413938
 31
0.0
  0
LINE
  5
25A
330
1F
100
AcDbEntity
  8
無題001
  6
Continuous
 62
     3
100
AcDbLine
 10
268.1742254326
 20
164.0202934219
 30
0.0
 11
268.1742254326
 21
163.8412749207
 31
0.0
  0
ARC
  5
25B
330
1F
100
AcDbEntity
  8
無題001
  6
Continuous
 62
     3
100
AcDbCircle
 10
268.1440327911
 20
164.7429812345
 30
0.0
 40
0.7233182356
100
AcDbArc
 50
189.1621367596009
 51
272.3923269215999
  0
LINE
  5
25C
330
1F
100
AcDbEntity
  8
無題001
  6
Continuous
 62
     3
100
AcDbLine
 10
268.1742254326
 20
171.8994078558
 30
0.0
 11
268.1742254326
 21
171.7203893546
 31
0.0
  0
ARC
  5
25D
330
1F
100
AcDbEntity
  8
無題001
  6
Continuous
 62
     3
100
AcDbCircle
 10
268.1480067301
 20
170.9931623308
 30
0.0
 40
0.7276995015
100
AcDbArc
 50
87.93521061870051
 51
171.2035932661993
  0
LINE
  5
25E
330
1F
100
AcDbEntity
  8
無題001
  6
Continuous
 62
     3
100
AcDbLine
 10
303.7242254324
 20
167.8703413884
 30
0.0
 11
303.7242254324
 21
159.8703413884
 31
0.0
  0
LINE
  5
25F
330
1F
100
AcDbEntity
  8
無題001
  6
Continuous
 62
     3
100
AcDbLine
 10
303.7242254324
 20
175.8703413884
 30
0.0
 11
303.7242254324
 21
167.8703413884
 31
0.0
  0
LINE
  5
260
330
1F
100
AcDbEntity
  8
無題001
  6
Continuous
 62
     3
100
AcDbLine
 10
303.9742254343
 20
175.62034139
 30
0.0
 11
303.9742254343
 21
160.1203413865
 31
0.0
  0
LINE
  5
261
330
1F
100
AcDbEntity
  8
無題001
  6
Continuous
 62
     3
100
AcDbLine
 10
268.1742254326
 20
164.0202934219
 30
0.0
 11
276.1742254326
 21
164.0202934219
 31
0.0
  0
LINE
  5
262
330
1F
100
AcDbEntity
  8
無題001
  6
Continuous
 62
     3
100
AcDbLine
 10
276.1742254326
 20
171.7203893546
 30
0.0
 11
268.1742254326
 21
171.7203893546
 31
0.0
  0
LINE
  5
263
330
1F
100
AcDbEntity
  8
無題001
  6
Continuous
 62
     3
100
AcDbLine
 10
307.1742254326
 20
167.8703413884
 30
0.0
 11
307.1742254326
 21
160.3703413884
 31
0.0
  0
LINE
  5
264
330
1F
100
AcDbEntity
  8
無題001
  6
Continuous
 62
     3
100
AcDbLine
 10
307.1742254326
 20
175.3703413884
 30
0.0
 11
307.1742254326
 21
167.8703413884
 31
0.0
  0
LINE
  5
265
330
1F
100
AcDbEntity
  8
無題001
  6
Continuous
 62
     3
100
AcDbLine
 10
268.1742254326
 20
161.5063803577
 30
0.0
 11
268.1742254326
 21
161.1755972995
 31
0.0
  0
ARC
  5
266
330
1F
100
AcDbEntity
  8
無題001
  6
Continuous
 62
     3
100
AcDbCircle
 10
268.1116702043
 20
162.2640294154
 30
0.0
 40
0.7602271052
100
AcDbArc
 50
211.6886143980004
 51
274.7199152990983
  0
LINE
  5
267
330
1F
100
AcDbEntity
  8
無題001
  6
Continuous
 62
     3
100
AcDbLine
 10
268.1742254326
 20
174.5650854771
 30
0.0
 11
268.1742254326
 21
174.2343024189
 31
0.0
  0
ARC
  5
268
330
1F
100
AcDbEntity
  8
無題001
  6
Continuous
 62
     3
100
AcDbCircle
 10
268.1122084102
 20
173.474560225
 30
0.0
 40
0.7622691862
100
AcDbArc
 50
85.33334755350054
 51
147.8407325114998
  0
LINE
  5
269
330
1F
100
AcDbEntity
  8
無題001
  6
Continuous
 62
     3
100
AcDbLine
 10
268.1742254326
 20
161.5063803577
 30
0.0
 11
276.1742254326
 21
161.5063803577
 31
0.0
  0
LINE
  5
26A
330
1F
100
AcDbEntity
  8
無題001
  6
Continuous
 62
     3
100
AcDbLine
 10
276.1742254326
 20
174.2343024189
 30
0.0
 11
268.1742254326
 21
174.2343024189
 31
0.0
  0
LINE
  5
26B
330
1F
100
AcDbEntity
  8
無題001
  6
Continuous
 62
     3
100
AcDbLine
 10
262.6742254224
 20
163.3703413782
 30
0.0
 11
262.6742254224
 21
172.3703413984
 31
0.0
  0
LINE
  5
26C
330
1F
100
AcDbEntity
  8
無題001
  6
Continuous
 62
     3
100
AcDbLine
 10
268.1742254326
 20
176.2115489991
 30
0.0
 11
268.1742254326
 21
175.7793601059
 31
0.0
  0
LINE
  5
26D
330
1F
100
AcDbEntity
  8
無題001
  6
Continuous
 62
     3
100
AcDbLine
 10
267.7007418208
 20
175.7149342141
 30
0.0
 11
267.917710325
 21
175.7620511296
 31
0.0
  0
LINE
  5
26E
330
1F
100
AcDbEntity
  8
無題001
  6
Continuous
 62
     3
100
AcDbLine
 10
267.917710325
 20
175.7620511296
 30
0.0
 11
268.1742254326
 21
175.7793601059
 31
0.0
  0
LINE
  5
26F
330
1F
100
AcDbEntity
  8
無題001
  6
Continuous
 62
     3
100
AcDbLine
 10
268.1742254326
 20
159.9613226707
 30
0.0
 11
268.1742254326
 21
159.5291337775
 31
0.0
  0
LINE
  5
270
330
1F
100
AcDbEntity
  8
無題001
  6
Continuous
 62
     3
100
AcDbLine
 10
268.1742254326
 20
159.9613226707
 30
0.0
 11
267.917710325
 21
159.978631647
 31
0.0
  0
LINE
  5
271
330
1F
100
AcDbEntity
  8
無題001
  6
Continuous
 62
     3
100
AcDbLine
 10
267.917710325
 20
159.978631647
 30
0.0
 11
267.7085015141
 21
160.02336385
 31
0.0
  0
LINE
  5
272
330
1F
100
AcDbEntity
  8
無題001
  6
Continuous
 62
     3
100
AcDbLine
 10
268.1742254326
 20
159.9613226707
 30
0.0
 11
276.1742254326
 21
159.9613226707
 31
0.0
  0
LINE
  5
273
330
1F
100
AcDbEntity
  8
無題001
  6
Continuous
 62
     3
100
AcDbLine
 10
276.1742254326
 20
175.7793601059
 30
0.0
 11
268.1742254326
 21
175.7793601059
 31
0.0
  0
LINE
  5
274
330
1F
100
AcDbEntity
  8
2
  6
Continuous
 62
   179
100
AcDbLine
 10
246.6742254226
 20
168.8922627132
 30
0.0
 11
246.6742254226
 21
168.8164498027
 31
0.0
  0
ARC
  5
275
330
1F
100
AcDbEntity
  8
無題001
  6
Continuous
 62
     4
100
AcDbCircle
 10
240.6425376209
 20
165.8703413642
 30
0.0
 40
2.5000000513
100
AcDbArc
 50
306.8698970051
 51
53.13010171420004
  0
ARC
  5
276
330
1F
100
AcDbEntity
  8
無題001
  6
Continuous
 62
     4
100
AcDbCircle
 10
243.6425376829
 20
169.8703414462
 30
0.0
 40
2.5000000513
100
AcDbArc
 50
126.8698982862002
 51
233.1301029953001
  0
ARC
  5
277
330
1F
100
AcDbEntity
  8
無題001
  6
Continuous
 62
     4
100
AcDbCircle
 10
243.6425376824
 20
165.8703413306
 30
0.0
 40
2.5000000513
100
AcDbArc
 50
126.8698970051
 51
233.1301017142
  0
DIMENSION
  5
284
330
1F
100
AcDbEntity
  8
無題001
  6
Continuous
 62
     4
100
AcDbDimension
  2
_D7
 10
207.1742254326
 20
104.3703414052
 30
0.0
 11
130.58847412535
 21
106.6408054052
 31
0.0
 70
   160
  1
(<>)
 71
     5
 42
-1.0
 52
90.0
  3
DIMSTYEX_1
100
AcDbAlignedDimension
 13
54.0027228181
 23
162.7476916744
 33
0.0
 14
207.1742254326
 24
153.2203414052
 34
0.0
100
AcDbRotatedDimension
1001
ACAD
1000
DSTYLE
1002
{
1070
   343
1005
86
1070
   344
1005
86
1070
   271
1070
     1
1070
    43
1040
0.0
1070
   173
1070
     1
1070
   272
1070
     1
1070
   279
1070
     2
1070
   340
1005
130
1070
   140
1040
2.809856
1002
}
  0
LINE
  5
285
330
1F
100
AcDbEntity
  8
無題001
  6
Continuous
 62
     3
100
AcDbLine
 10
265.1742254326
 20
176.6203414135
 30
0.0
 11
264.1742254285
 21
175.8703414274
 31
0.0
  0
DIMENSION
  5
293
330
1F
100
AcDbEntity
  8
無題001
  6
Continuous
 62
     4
100
AcDbDimension
  2
_D8
 10
66.5027228181
 20
120.3703414052
 30
0.0
 11
60.2527228181
 21
122.6408054052
 31
0.0
 70
   160
 71
     5
 42
-1.0
 52
90.0
  3
DIMSTYEX_5
100
AcDbAlignedDimension
 13
54.0027228181
 23
162.7476916744
 33
0.0
 14
66.5027228181
 24
160.4203414052
 34
0.0
100
AcDbRotatedDimension
1001
ACAD
1000
DSTYLE
1002
{
1070
   343
1005
86
1070
   344
1005
86
1070
    43
1040
0.0
1070
   173
1070
     1
1070
   272
1070
     6
1070
   279
1070
     2
1070
   340
1005
130
1070
   140
1040
2.809856
1002
}
  0
DIMENSION
  5
2A0
330
1F
100
AcDbEntity
  8
無題001
  6
Continuous
 62
     4
100
AcDbDimension
  2
_D9
 10
179.3742254326
 20
128.3703414052
 30
0.0
 11
154.12422528995
 21
130.6408054052
 31
0.0
 70
   160
  1
(<>)
 71
     5
 42
-1.0
 52
90.0
  3
DIMSTYEX_5
100
AcDbAlignedDimension
 13
128.8742251473
 23
146.3703414052
 33
0.0
 14
179.3742254326
 24
152.9703414062
 34
0.0
100
AcDbRotatedDimension
1001
ACAD
1000
DSTYLE
1002
{
1070
   343
1005
86
1070
   344
1005
86
1070
    43
1040
0.0
1070
   173
1070
     1
1070
   272
1070
     6
1070
   279
1070
     2
1070
   340
1005
130
1070
   140
1040
2.809856
1002
}
  0
DIMENSION
  5
2AD
330
1F
100
AcDbEntity
  8
無題001
  6
Continuous
 62
     4
100
AcDbDimension
  2
_D10
 10
179.3742254326
 20
120.3703414052
 30
0.0
 11
125.12422528995
 21
122.6408054052
 31
0.0
 70
   160
 71
     5
 42
-1.0
 52
90.0
  3
DIMSTYEX_5
100
AcDbAlignedDimension
 13
70.8742251473
 23
153.2703414052
 33
0.0
 14
179.3742254326
 24
152.9703414062
 34
0.0
100
AcDbRotatedDimension
1001
ACAD
1000
DSTYLE
1002
{
1070
   343
1005
86
1070
   344
1005
86
1070
    43
1040
0.0
1070
   173
1070
     1
1070
   272
1070
     6
1070
   279
1070
     2
1070
   340
1005
130
1070
   140
1040
2.809856
1002
}
  0
DIMENSION
  5
2BA
330
1F
100
AcDbEntity
  8
無題001
  6
Continuous
 62
     4
100
AcDbDimension
  2
_D11
 10
207.1742254326
 20
120.3703414052
 30
0.0
 11
193.2742254326
 21
122.6408054052
 31
0.0
 70
   160
  1
(<>)
 71
     5
 42
-1.0
 52
90.0
  3
DIMSTYEX_5
100
AcDbAlignedDimension
 13
179.3742254326
 23
152.9203414052
 33
0.0
 14
207.1742254326
 24
153.2203414052
 34
0.0
100
AcDbRotatedDimension
1001
ACAD
1000
DSTYLE
1002
{
1070
   343
1005
86
1070
   344
1005
86
1070
    43
1040
0.0
1070
   173
1070
     1
1070
   272
1070
     6
1070
   279
1070
     2
1070
   340
1005
130
1070
   140
1040
2.809856
1002
}
  0
DIMENSION
  5
2C9
330
1F
100
AcDbEntity
  8
無題001
  6
Continuous
 62
     4
100
AcDbDimension
  2
_D12
 10
307.1742254326
 20
104.3703414052
 30
0.0
 11
257.1742254326
 21
106.6408054052
 31
0.0
 70
   160
  1
(300)
 71
     5
 42
-1.0
 52
90.0
  3
DIMSTYEX_6
100
AcDbAlignedDimension
 13
207.1742254326
 23
153.2203414052
 33
0.0
 14
307.1742254326
 24
160.3703413884
 34
0.0
100
AcDbRotatedDimension
1001
ACAD
1000
DSTYLE
1002
{
1070
   343
1005
86
1070
   344
1005
86
1070
    43
1040
0.0
1070
   173
1070
     1
1070
   272
1070
     6
1070
   279
1070
     2
1070
   340
1005
2C7
1070
   140
1040
2.809856
1002
}
  0
LINE
  5
2CA
330
1F
100
AcDbEntity
  8
無題001
  6
Continuous
 62
     1
100
AcDbLine
 10
301.1742254326
 20
175.3703413884
 30
0.0
 11
303.9742254343
 21
175.3703413884
 31
0.0
  0
LINE
  5
2CB
330
1F
100
AcDbEntity
  8
無題001
  6
Continuous
 62
     1
100
AcDbLine
 10
301.1742254326
 20
160.3703414217
 30
0.0
 11
303.9742254343
 21
160.3703414217
 31
0.0
  0
LINE
  5
2CC
330
1F
100
AcDbEntity
  8
無題001
  6
Continuous
 62
     3
100
AcDbLine
 10
307.1742254326
 20
180.8703409996
 30
0.0
 11
249.1841891787
 21
180.8703412656
 31
0.0
  0
LINE
  5
2CD
330
1F
100
AcDbEntity
  8
無題001
  6
Continuous
 62
     3
100
AcDbLine
 10
247.1451973347
 20
180.8703413201
 30
0.0
 11
218.7742254326
 21
180.8703414052
 31
0.0
  0
LINE
  5
2CE
330
1F
100
AcDbEntity
  8
無題001
  6
Continuous
 62
     3
100
AcDbLine
 10
307.1742254326
 20
177.6703409997
 30
0.0
 11
249.1841889876
 21
177.6703412657
 31
0.0
  0
LINE
  5
2CF
330
1F
100
AcDbEntity
  8
無題001
  6
Continuous
 62
     3
100
AcDbLine
 10
247.1451966907
 20
177.6703413127
 30
0.0
 11
218.7742254326
 21
177.6703414052
 31
0.0
  0
LINE
  5
2D0
330
1F
100
AcDbEntity
  8
無題001
  6
Continuous
 62
     3
100
AcDbLine
 10
307.1742254326
 20
180.8703414052
 30
0.0
 11
307.1742254326
 21
177.6703414052
 31
0.0
  0
ARC
  5
2D1
330
1F
100
AcDbEntity
  8
無題001
  6
Continuous
 62
     4
100
AcDbCircle
 10
247.9508590835
 20
180.0703409515
 30
0.0
 40
1.1353816289
100
AcDbArc
 50
135.2020405605999
 51
224.7979531291996
  0
ARC
  5
2D2
330
1F
100
AcDbEntity
  8
無題001
  6
Continuous
 62
     4
100
AcDbCircle
 10
246.3395345355
 20
180.0703413608
 30
0.0
 40
1.1353816289
100
AcDbArc
 50
315.2020468707
 51
44.7979594395999
  0
ARC
  5
2D3
330
1F
100
AcDbEntity
  8
無題001
  6
Continuous
 62
     4
100
AcDbCircle
 10
246.3395342172
 20
178.4703409515
 30
0.0
 40
1.1353816289
100
AcDbArc
 50
315.2020468707
 51
44.7979594395999
  0
ARC
  5
2D4
330
1F
100
AcDbEntity
  8
無題001
  6
Continuous
 62
     4
100
AcDbCircle
 10
249.9898512421
 20
180.0703409515
 30
0.0
 40
1.1353816289
100
AcDbArc
 50
135.2020405614995
 51
224.7979531283993
  0
ARC
  5
2D5
330
1F
100
AcDbEntity
  8
無題001
  6
Continuous
 62
     4
100
AcDbCircle
 10
249.9898515604
 20
178.4703405422
 30
0.0
 40
1.1353816289
100
AcDbArc
 50
135.2020405574002
 51
224.7979531304998
  0
ARC
  5
2D6
330
1F
100
AcDbEntity
  8
無題001
  6
Continuous
 62
     4
100
AcDbCircle
 10
248.3785267822
 20
178.4703405422
 30
0.0
 40
1.1353816289
100
AcDbArc
 50
315.2020468695002
 51
44.79795944259985
  0
DIMENSION
  5
2E3
330
1F
100
AcDbEntity
  8
無題001
  6
Continuous
 62
     4
100
AcDbDimension
  2
_D13
 10
46.0027228181
 20
159.9203414052
 30
0.0
 11
43.73225881809999
 21
167.8703414052
 31
0.0
 70
   160
  1
φ<>
 71
     5
 42
-1.0
 52
90.0
  3
DIMSTYEX_4
100
AcDbAlignedDimension
 13
58.1677863276
 23
175.8203414052
 33
0.0
 14
58.1677863276
 24
159.9203414052
 34
0.0
 50
-90.0
100
AcDbRotatedDimension
1001
ACAD
1000
DSTYLE
1002
{
1070
   343
1005
86
1070
   344
1005
86
1070
    43
1040
12.99999999999999
1070
   173
1070
     1
1070
   272
1070
     6
1070
   279
1070
     2
1070
   340
1005
130
1070
   140
1040
2.809856
1002
}
  0
MTEXT
  5
2E5
330
1F
100
AcDbEntity
  8
無題001
  6
Continuous
 62
     7
100
AcDbMText
 10
155.8160190292
 20
91.1516951374
 30
0.0
 40
5.0
 41
0.0
 71
     7
 72
     5
  1
{\fＭＳ ゴシック|b0|i0|c128|p49;\W1.0;\LＥＭＳＦ－３０６０ＫーＲＢＴ\l}
  7
MTSTANDARD2
 73
     1
 44
0.75
  0
ARC
  5
2E6
330
1F
100
AcDbEntity
  8
無題001
  6
CENTER
 62
     1
100
AcDbCircle
 10
-12.8253038696
 20
167.8703414055
 30
0.0
 40
19.5
100
AcDbArc
 50
11.83700415589997
 51
68.09527981910001
  0
ARC
  5
2E7
330
1F
100
AcDbEntity
  8
無題001
  6
CENTER
 62
     1
100
AcDbCircle
 10
-12.8253038696
 20
167.8703414055
 30
0.0
 40
19.5
100
AcDbArc
 50
288.7661052702001
 51
319.0715768393999
  0
ARC
  5
2E8
330
1F
100
AcDbEntity
  8
無題001
  6
CENTER
 62
     1
100
AcDbCircle
 10
-12.8253038696
 20
167.8703414055
 30
0.0
 40
19.5
100
AcDbArc
 50
192.0162895533
 51
249.4452818059
  0
ARC
  5
2E9
330
1F
100
AcDbEntity
  8
無題001
  6
CENTER
 62
     1
100
AcDbCircle
 10
-12.8253038696
 20
167.8703414055
 30
0.0
 40
19.5
100
AcDbArc
 50
110.5843860742
 51
139.4513859085
  0
CIRCLE
  5
2EA
330
1F
100
AcDbEntity
  8
無題001
  6
Continuous
 62
     3
100
AcDbCircle
 10
-24.0100443784
 20
183.8438062691
 30
0.0
 40
2.1
  0
ARC
  5
2EB
330
1F
100
AcDbEntity
  8
無題001
  6
Continuous
 62
     3
100
AcDbCircle
 10
-12.8253038696
 20
167.8703414055
 30
0.0
 40
23.0
100
AcDbArc
 50
224.1604804298
 51
249.1930522238
  0
ARC
  5
2EC
330
1F
100
AcDbEntity
  8
無題001
  6
Continuous
 62
     3
100
AcDbCircle
 10
-12.8253038696
 20
167.8703414055
 30
0.0
 40
23.0
100
AcDbArc
 50
44.16048042980001
 51
69.19305222380001
  0
ARC
  5
2ED
330
1F
100
AcDbEntity
  8
無題001
  6
Continuous
 62
     3
100
AcDbCircle
 10
-12.8253038696
 20
167.8703414055
 30
0.0
 40
23.0
100
AcDbArc
 50
110.8069477762
 51
135.8395195702
  0
LINE
  5
2EE
330
1F
100
AcDbEntity
  8
無題001
  6
CENTER
 62
     1
100
AcDbLine
 10
-27.0646862492
 20
188.2062869682
 30
0.0
 11
1.7080958827
 21
147.1144955182
 31
0.0
  0
CIRCLE
  5
2EF
330
1F
100
AcDbEntity
  8
無題001
  6
Continuous
 62
     3
100
AcDbCircle
 10
-24.0100443784
 20
151.8968765419
 30
0.0
 40
2.1
  0
ARC
  5
2F0
330
1F
100
AcDbEntity
  8
無題001
  6
Continuous
 62
     3
100
AcDbCircle
 10
-12.8253038696
 20
167.8703414055
 30
0.0
 40
23.0
100
AcDbArc
 50
290.8069477762
 51
315.8395195702
  0
LINE
  5
2F1
330
1F
100
AcDbEntity
  8
無題001
  6
Continuous
 62
     3
100
AcDbLine
 10
3.6746961304
 20
183.8937617645
 30
0.0
 11
3.6746961304
 21
151.8469210465
 31
0.0
  0
LINE
  5
2F2
330
1F
100
AcDbEntity
  8
無題001
  6
Continuous
 62
     3
100
AcDbLine
 10
-29.3253038696
 20
183.8937617645
 30
0.0
 11
-29.3253038696
 21
151.8469210465
 31
0.0
  0
LINE
  5
2F3
330
1F
100
AcDbEntity
  8
無題001
  6
Continuous
 62
     3
100
AcDbLine
 10
-4.6552365504
 20
189.3703414055
 30
0.0
 11
-20.9953711887
 21
189.3703414055
 31
0.0
  0
LINE
  5
2F4
330
1F
100
AcDbEntity
  8
無題001
  6
CENTER
 62
     1
100
AcDbLine
 10
1.7093530196
 20
188.6279826704
 30
0.0
 11
-27.0864092244
 21
147.503372219
 31
0.0
  0
CIRCLE
  5
2F5
330
1F
100
AcDbEntity
  8
無題001
  6
Continuous
 62
     3
100
AcDbCircle
 10
-1.6405633607
 20
151.8968765419
 30
0.0
 40
2.1
  0
CIRCLE
  5
2F6
330
1F
100
AcDbEntity
  8
無題001
  6
Continuous
 62
     3
100
AcDbCircle
 10
-1.6405633607
 20
183.8438062691
 30
0.0
 40
2.1
  0
LINE
  5
2F7
330
1F
100
AcDbEntity
  8
無題001
  6
Continuous
 62
     3
100
AcDbLine
 10
-4.6552365504
 20
146.3703414055
 30
0.0
 11
-20.9953711887
 21
146.3703414055
 31
0.0
  0
CIRCLE
  5
2F8
330
1F
100
AcDbEntity
  8
無題001
  6
Continuous
 62
     3
100
AcDbCircle
 10
-12.8253038696
 20
167.8703414055
 30
0.0
 40
15.0
  0
LINE
  5
2F9
330
1F
100
AcDbEntity
  8
無題001
  6
CENTER
 62
     1
100
AcDbLine
 10
-31.3253038696
 20
167.8703414055
 30
0.0
 11
5.420835608
 21
167.8703414055
 31
0.0
  0
LINE
  5
2FA
330
1F
100
AcDbEntity
  8
無題001
  6
CENTER
 62
     1
100
AcDbLine
 10
-12.8253038696
 20
199.3703414055
 30
0.0
 11
-12.8253038696
 21
144.3703414055
 31
0.0
  0
CIRCLE
  5
2FB
330
1F
100
AcDbEntity
  8
無題001
  6
Continuous
 62
     3
100
AcDbCircle
 10
-12.8253038698
 20
167.8703414055
 30
0.0
 40
1.4999999997
  0
CIRCLE
  5
2FC
330
1F
100
AcDbEntity
  8
無題001
  6
Continuous
 62
     3
100
AcDbCircle
 10
-12.8253038696
 20
167.8703414055
 30
0.0
 40
7.9499999997
  0
CIRCLE
  5
2FD
330
1F
100
AcDbEntity
  8
無題001
  6
Continuous
 62
     3
100
AcDbCircle
 10
-12.8253038698
 20
167.8703414055
 30
0.0
 40
5.1226497305
  0
CIRCLE
  5
2FE
330
1F
100
AcDbEntity
  8
無題001
  6
Continuous
 62
     3
100
AcDbCircle
 10
-12.8253038698
 20
167.8703414055
 30
0.0
 40
5.9886751343
  0
CIRCLE
  5
2FF
330
1F
100
AcDbEntity
  8
無題001
  6
Continuous
 62
     3
100
AcDbCircle
 10
-12.8253038696
 20
167.8703414055
 30
0.0
 40
4.0
  0
LINE
  5
300
330
1F
100
AcDbEntity
  8
無題001
  6
Continuous
 62
     3
100
AcDbLine
 10
-16.157633041
 20
165.6577451267
 30
0.0
 11
-13.9811727153
 21
166.9143250817
 31
0.0
  0
LINE
  5
301
330
1F
100
AcDbEntity
  8
無題001
  6
Continuous
 62
     3
100
AcDbLine
 10
-15.6075190509
 20
169.1879789548
 30
0.0
 11
-16.407633041
 21
169.6499249824
 31
0.0
  0
ARC
  5
302
330
1F
100
AcDbEntity
  8
無題001
  6
Continuous
 62
     3
100
AcDbCircle
 10
-12.8253038696
 20
167.8703414055
 30
0.0
 40
3.0536862969
100
AcDbArc
 50
325.3040382116
 51
334.6959617883001
  0
LINE
  5
303
330
1F
100
AcDbEntity
  8
無題001
  6
Continuous
 62
     3
100
AcDbLine
 10
-14.2311727153
 20
167.3473377836
 30
0.0
 11
-16.407633041
 21
166.0907578286
 31
0.0
  0
LINE
  5
304
330
1F
100
AcDbEntity
  8
無題001
  6
Continuous
 62
     3
100
AcDbLine
 10
-13.0753038696
 20
163.8781615498
 30
0.0
 11
-13.0753038696
 21
164.802053605
 31
0.0
  0
LINE
  5
305
330
1F
100
AcDbEntity
  8
無題001
  6
Continuous
 62
     3
100
AcDbLine
 10
-10.2930886882
 20
169.6209916567
 30
0.0
 11
-9.4929746981
 21
170.0829376843
 31
0.0
  0
LINE
  5
306
330
1F
100
AcDbEntity
  8
無題001
  6
Continuous
 62
     3
100
AcDbLine
 10
-13.0753038696
 20
171.8703414055
 30
0.0
 11
-13.0753038696
 21
169.3493613513
 31
0.0
  0
LINE
  5
307
330
1F
100
AcDbEntity
  8
無題001
  6
Continuous
 62
     3
100
AcDbLine
 10
-10.0430886882
 20
169.1879789548
 30
0.0
 11
-10.2930886882
 21
169.6209916567
 31
0.0
  0
ARC
  5
308
330
1F
100
AcDbEntity
  8
無題001
  6
Continuous
 62
     3
100
AcDbCircle
 10
-12.8253038696
 20
167.8703414055
 30
0.0
 40
3.0536862969
100
AcDbArc
 50
205.3040382116002
 51
214.6959617883001
  0
LINE
  5
309
330
1F
100
AcDbEntity
  8
無題001
  6
Continuous
 62
     3
100
AcDbLine
 10
-11.6694350238
 20
166.9143250817
 30
0.0
 11
-9.4929746981
 21
165.6577451267
 31
0.0
  0
ARC
  5
30A
330
1F
100
AcDbEntity
  8
無題001
  6
Continuous
 62
     3
100
AcDbCircle
 10
-12.8253038696
 20
167.8703414055
 30
0.0
 40
3.7
100
AcDbArc
 50
326.1257117937001
 51
333.8742882062
  0
ARC
  5
30B
330
1F
100
AcDbEntity
  8
無題001
  6
Continuous
 62
     3
100
AcDbCircle
 10
-12.8253038696
 20
167.8703414055
 30
0.0
 40
3.7
100
AcDbArc
 50
86.12571179380001
 51
93.87428820619999
  0
ARC
  5
30C
330
1F
100
AcDbEntity
  8
無題001
  6
Continuous
 62
     3
100
AcDbCircle
 10
-12.8253038696
 20
167.8703414055
 30
0.0
 40
3.7
100
AcDbArc
 50
206.1257117936999
 51
213.8742882062001
  0
LINE
  5
30D
330
1F
100
AcDbEntity
  8
無題001
  6
Continuous
 62
     3
100
AcDbLine
 10
-12.5753038696
 20
169.3493613513
 30
0.0
 11
-12.5753038696
 21
171.8703414055
 31
0.0
  0
LINE
  5
30E
330
1F
100
AcDbEntity
  8
無題001
  6
Continuous
 62
     3
100
AcDbLine
 10
-13.0753038696
 20
164.802053605
 30
0.0
 11
-12.5753038696
 21
164.802053605
 31
0.0
  0
LINE
  5
30F
330
1F
100
AcDbEntity
  8
無題001
  6
Continuous
 62
     3
100
AcDbLine
 10
-15.3575190509
 20
169.6209916567
 30
0.0
 11
-15.6075190509
 21
169.1879789548
 31
0.0
  0
LINE
  5
310
330
1F
100
AcDbEntity
  8
無題001
  6
Continuous
 62
     3
100
AcDbLine
 10
-9.2429746981
 20
166.0907578286
 30
0.0
 11
-11.4194350238
 21
167.3473377836
 31
0.0
  0
LINE
  5
311
330
1F
100
AcDbEntity
  8
無題001
  6
Continuous
 62
     3
100
AcDbLine
 10
-9.2429746981
 20
169.6499249824
 30
0.0
 11
-10.0430886882
 21
169.1879789548
 31
0.0
  0
ARC
  5
312
330
1F
100
AcDbEntity
  8
無題001
  6
Continuous
 62
     3
100
AcDbCircle
 10
-12.8253038696
 20
167.8703414055
 30
0.0
 40
3.0536862969
100
AcDbArc
 50
85.30403821159993
 51
94.69596178840003
  0
LINE
  5
313
330
1F
100
AcDbEntity
  8
無題001
  6
Continuous
 62
     3
100
AcDbLine
 10
-12.5753038696
 20
164.802053605
 30
0.0
 11
-12.5753038696
 21
163.8781615498
 31
0.0
  0
LINE
  5
314
330
1F
100
AcDbEntity
  8
無題001
  6
Continuous
 62
     3
100
AcDbLine
 10
-16.157633041
 20
170.0829376843
 30
0.0
 11
-15.3575190509
 21
169.6209916567
 31
0.0
  0
DIMENSION
  5
321
330
1F
100
AcDbEntity
  8
無題001
  6
Continuous
 62
     4
100
AcDbDimension
  2
_D14
 10
-37.32530386959999
 20
146.3703414055
 30
0.0
 11
-39.5957678696
 21
167.8703414055
 31
0.0
 70
   160
 71
     5
 42
-1.0
 52
90.0
  3
DIMSTYEX_5
100
AcDbAlignedDimension
 13
-20.9953711888
 23
189.3703414055
 33
0.0
 14
-20.9953711887
 24
146.3703414055
 34
0.0
 50
-90.0
100
AcDbRotatedDimension
1001
ACAD
1000
DSTYLE
1002
{
1070
   343
1005
86
1070
   344
1005
86
1070
    43
1040
0.0
1070
   173
1070
     1
1070
   272
1070
     6
1070
   279
1070
     2
1070
   340
1005
130
1070
   140
1040
2.809856
1002
}
  0
DIMENSION
  5
32E
330
1F
100
AcDbEntity
  8
無題001
  6
Continuous
 62
     4
100
AcDbDimension
  2
_D15
 10
3.6746961305
 20
137.3703414055
 30
0.0
 11
-12.82530386955
 21
139.6408054055
 31
0.0
 70
   160
 71
     5
 42
-1.0
 52
90.0
  3
DIMSTYEX_5
100
AcDbAlignedDimension
 13
-29.3253038696
 23
151.8469210465
 33
0.0
 14
3.6746961305
 24
151.8469210466
 34
0.0
100
AcDbRotatedDimension
1001
ACAD
1000
DSTYLE
1002
{
1070
   343
1005
86
1070
   344
1005
86
1070
    43
1040
0.0
1070
   173
1070
     1
1070
   272
1070
     6
1070
   279
1070
     2
1070
   340
1005
130
1070
   140
1040
2.809856
1002
}
  0
DIMENSION
  5
339
330
1F
100
AcDbEntity
  8
無題001
  6
Continuous
 62
     4
100
AcDbDimension
  2
_D16
 10
-31.4905705091
 20
162.2260680886
 30
0.0
 11
12.8979269463524
 21
177.2870268840928
 31
0.0
 70
   163
  1
<>
 71
     5
 42
-1.0
  3
DIMSTYEX_7
100
AcDbDiametricDimension
 15
5.839962769999996
 25
173.5146147224
 35
0.0
 40
0.0
1001
ACAD
1000
DSTYLE
1002
{
1070
   343
1005
86
1070
   344
1005
86
1070
    43
1040
0.0
1070
   173
1070
     1
1070
    75
1070
     1
1070
    76
1070
     1
1070
   272
1070
     6
1070
   172
1070
     1
1070
   340
1005
130
1070
   140
1040
2.809856
1070
   288
1070
     1
1002
}
  0
DIMENSION
  5
347
330
1F
100
AcDbEntity
  8
無題001
  6
Continuous
 62
     4
100
AcDbDimension
  2
_D17
 10
-4.260417281423445
 20
195.034691191639
 30
0.0
 11
-3.577675589085916
 21
197.2000711944331
 31
0.0
 70
   165
 71
     5
 42
-1.0
  3
DIMSTYEX_8
100
AcDb3PointAngularDimension
 13
1.7093530196
 23
188.6279826704
 33
0.0
 14
-12.8253038696
 24
193.067089584
 34
0.0
 15
-12.8253038696
 25
167.8703414055
 35
0.0
1001
ACAD
1000
DSTYLE
1002
{
1070
   343
1005
86
1070
   344
1005
86
1070
    43
1040
0.0
1070
   173
1070
     1
1070
    76
1070
     1
1070
   272
1070
     6
1070
   279
1070
     2
1070
   340
1005
130
1070
   140
1040
2.809856
1002
}
  0
DIMENSION
  5
350
330
1F
100
AcDbEntity
  8
無題001
  6
Continuous
 62
     4
100
AcDbDimension
  2
_D18
 10
-12.8253038696
 20
167.8703414055
 30
0.0
 11
-18.69905476045648
 21
178.0852165624105
 31
0.0
 70
   164
  1
<>
 71
     5
 42
-1.0
  3
DIMSTYEX_7
100
AcDbRadialDimension
 15
-28.3602121344
 25
184.8310791607
 35
0.0
 40
0.0
1001
ACAD
1000
DSTYLE
1002
{
1070
   343
1005
86
1070
   344
1005
86
1070
    43
1040
0.0
1070
   173
1070
     1
1070
    75
1070
     1
1070
    76
1070
     1
1070
   272
1070
     6
1070
   172
1070
     1
1070
   340
1005
130
1070
   140
1040
2.809856
1070
   288
1070
     1
1002
}
  0
MTEXT
  5
352
330
1F
100
AcDbEntity
  8
無題001
  6
Continuous
 62
     4
100
AcDbMText
 10
10.2539493983
 20
137.4443338155
 30
0.0
 40
4.0
 41
0.0
 71
     7
 72
     5
  1
{\fＭＳ ゴシック|b0|i0|c128|p49;\W1.0;本体取付穴　　　\P４－φ４．２貫通}
  7
MTSTANDARD3
 73
     1
 44
0.78125
  0
LEADER
  5
353
330
1F
100
AcDbEntity
  8
無題001
  6
Continuous
 62
     4
100
AcDbLeader
  3
Standard
 76
     3
 10
0.1633693849
 20
150.8217827556
 30
0.0
 10
10.2539493983
 20
141.6603338155
 30
0.0
 10
29.4539493983
 20
141.6603338155
 30
0.0
1001
ACAD
1000
DSTYLE
1002
{
1070
   176
1070
     0
1002
}
  0
DIMENSION
  5
360
330
1F
100
AcDbEntity
  8
無題001
  6
Continuous
 62
     4
100
AcDbDimension
  2
_D19
 10
315.1742254326
 20
158.6203413884
 30
0.0
 11
312.9037614325999
 21
167.8703413884
 31
0.0
 70
   160
  1
φ<>
 71
     5
 42
-1.0
 52
90.0
  3
DIMSTYEX_5
100
AcDbAlignedDimension
 13
301.1742254326
 23
177.1203413884
 33
0.0
 14
301.1742254326
 24
158.6203413884
 34
0.0
 50
-90.0
100
AcDbRotatedDimension
1001
ACAD
1000
DSTYLE
1002
{
1070
   343
1005
86
1070
   344
1005
86
1070
    43
1040
0.0
1070
   173
1070
     1
1070
   272
1070
     6
1070
   279
1070
     2
1070
   340
1005
130
1070
   140
1040
2.809856
1002
}
  0
MTEXT
  5
361
330
1F
100
AcDbEntity
  8
無題001
  6
Continuous
 62
     4
100
AcDbMText
 10
86.2831562532
 20
133.3134617969
 30
0.0
 40
4.0
 41
0.0
 71
     7
 72
     5
  1
{\fＭＳ ゴシック|b0|i0|c128|p49;\W1.0;（クランプ不可）}
  7
MTSTANDARD3
 73
     1
 44
0.78125
  0
MTEXT
  5
362
330
1F
100
AcDbEntity
  8
無題001
  6
Continuous
 62
     4
100
AcDbMText
 10
143.8784230133
 20
133.3134617969
 30
0.0
 40
4.0
 41
0.0
 71
     7
 72
     5
  1
{\fＭＳ ゴシック|b0|i0|c128|p49;\W1.0;（クランプ不可）}
  7
MTSTANDARD3
 73
     1
 44
0.78125
  0
LINE
  5
363
330
1F
100
AcDbEntity
  8
無題001
  6
Continuous
 62
     7
100
AcDbLine
 10
69.1208443301
 20
186.7441055598
 30
0.0
 11
78.5901413212
 21
186.7441055598
 31
0.0
  0
LINE
  5
364
330
1F
100
AcDbEntity
  8
無題001
  6
Continuous
 62
     7
100
AcDbLine
 10
69.1208438875
 20
186.7441047933
 30
0.0
 11
68.0452282961
 21
184.8810839396
 31
0.0
  0
LINE
  5
365
330
1F
100
AcDbEntity
  8
無題001
  6
Continuous
 62
     7
100
AcDbLine
 10
78.5901413212
 20
186.7441055598
 30
0.0
 11
79.6657573552
 21
184.8810839396
 31
0.0
  0
MTEXT
  5
366
330
1F
100
AcDbEntity
  8
無題001
  6
Continuous
 62
     4
100
AcDbMText
 10
79.4369890196
 20
194.6646787563
 30
0.0
 40
4.0
 41
0.0
 71
     7
 72
     5
  1
{\fＭＳ ゴシック|b0|i0|c128|p49;\W1.0;防塵カバー部}
  7
MTSTANDARD3
 73
     1
 44
0.78125
  0
LEADER
  5
367
330
1F
100
AcDbEntity
  8
無題001
  6
Continuous
 62
     4
100
AcDbLeader
  3
Standard
 76
     3
 10
73.8554928257
 20
186.7441055598
 30
0.0
 10
79.4369890196
 20
193.8806787563
 30
0.0
 10
93.8369890196
 20
193.8806787563
 30
0.0
1001
ACAD
1000
DSTYLE
1002
{
1070
   176
1070
     0
1002
}
  0
INSERT
  5
385
330
1F
100
AcDbEntity
  8
無題001
  6
Continuous
 62
     4
100
AcDbBlockReference
  2
BLK0
 10
0.0
 20
0.0
 30
0.0
  0
ENDSEC
  0
SECTION
  2
OBJECTS
  0
DICTIONARY
  5
C
330
0
100
AcDbDictionary
281
     1
  3
ACAD_GROUP
350
D
  3
ACAD_LAYOUT
350
1A
  3
ACAD_MATERIAL
350
43
  3
ACAD_MLEADERSTYLE
350
6B
  3
ACAD_MLINESTYLE
350
17
  3
ACAD_PLOTSETTINGS
350
19
  3
ACAD_PLOTSTYLENAME
350
E
  3
ACAD_SCALELIST
350
47
  3
ACAD_TABLESTYLE
350
69
  3
ACAD_VISUALSTYLE
350
2A
  3
AcDbVariableDictionary
350
395
  0
DICTIONARY
  5
39C
330
8
100
AcDbDictionary
280
     1
281
     1
  3
ACAD_XREC_ROUNDTRIP
360
39D
  0
DICTIONARY
  5
D
102
{ACAD_REACTORS
330
C
102
}
330
C
100
AcDbDictionary
281
     1
  0
DICTIONARY
  5
1A
102
{ACAD_REACTORS
330
C
102
}
330
C
100
AcDbDictionary
281
     1
  3
Layout1
350
1E
  3
Model
350
22
  0
DICTIONARY
  5
43
102
{ACAD_REACTORS
330
C
102
}
330
C
100
AcDbDictionary
281
     1
  3
ByBlock
350
45
  3
ByLayer
350
44
  3
Global
350
46
  0
DICTIONARY
  5
6B
102
{ACAD_REACTORS
330
C
102
}
330
C
100
AcDbDictionary
281
     1
  3
Standard
350
6C
  0
DICTIONARY
  5
17
102
{ACAD_REACTORS
330
C
102
}
330
C
100
AcDbDictionary
281
     1
  3
Standard
350
18
  0
DICTIONARY
  5
19
102
{ACAD_REACTORS
330
C
102
}
330
C
100
AcDbDictionary
281
     1
  0
ACDBDICTIONARYWDFLT
  5
E
102
{ACAD_REACTORS
330
C
102
}
330
C
100
AcDbDictionary
281
     1
  3
Normal
350
F
100
AcDbDictionaryWithDefault
340
F
  0
DICTIONARY
  5
47
102
{ACAD_REACTORS
330
C
102
}
330
C
100
AcDbDictionary
281
     1
  3
A0
350
48
  3
A1
350
49
  3
A2
350
4A
  3
A3
350
4B
  3
A4
350
4C
  3
A5
350
4D
  3
A6
350
4E
  3
A7
350
4F
  3
A8
350
50
  3
A9
350
51
  3
B0
350
52
  3
B1
350
53
  3
B2
350
54
  3
B3
350
55
  3
B4
350
56
  3
B5
350
57
  3
B6
350
58
  3
B7
350
59
  3
B8
350
5A
  3
B9
350
5B
  3
C0
350
5C
  3
C1
350
5D
  3
C2
350
5E
  3
C3
350
5F
  3
C4
350
60
  3
C5
350
61
  3
C6
350
62
  3
C7
350
63
  3
C8
350
64
  3
C9
350
65
  3
D0
350
66
  3
D1
350
67
  3
D2
350
68
  0
DICTIONARY
  5
69
102
{ACAD_REACTORS
330
C
102
}
330
C
100
AcDbDictionary
281
     1
  3
Standard
350
6A
  0
DICTIONARY
  5
2A
102
{ACAD_REACTORS
330
C
102
}
330
C
100
AcDbDictionary
281
     1
  3
2dWireframe
350
2F
  3
Basic
350
32
  3
Brighten
350
36
  3
ColorChange
350
3A
  3
Conceptual
350
34
  3
Dim
350
35
  3
EdgeColorOff
350
3D
  3
Facepattern
350
39
  3
Flat
350
2B
  3
FlatWithEdges
350
2C
  3
Gouraud
350
2D
  3
GouraudWithEdges
350
2E
  3
Hidden
350
31
  3
JitterOff
350
3B
  3
Linepattern
350
38
  3
OverhangOff
350
3C
  3
Realistic
350
33
  3
Shaded
350
42
  3
Shaded with edges
350
41
  3
Shades of Gray
350
3E
  3
Sketchy
350
3F
  3
Thicken
350
37
  3
Wireframe
350
30
  3
X-Ray
350
40
  0
DICTIONARY
  5
395
102
{ACAD_REACTORS
330
C
102
}
330
C
100
AcDbDictionary
281
     1
  3
CANNOSCALE
350
39E
  3
CMLEADERSTYLE
350
397
  3
CTABLESTYLE
350
396
  3
DIMASSOC
350
39A
  3
HIDETEXT
350
39B
  3
MSLTSCALE
350
39F
  0
XRECORD
  5
39D
102
{ACAD_REACTORS
330
39C
102
}
330
39C
100
AcDbXrecord
280
     1
102
VTR_0.000_0.000_1.000_1.000_VISUALSTYLE
340
2F
102
VTR_0.000_0.000_1.000_1.000_GRIDDISPLAY
 70
     3
102
VTR_0.000_0.000_1.000_1.000_GRIDMAJOR
 70
     5
102
VTR_0.000_0.000_1.000_1.000_DEFAULTLIGHTING
280
     1
102
VTR_0.000_0.000_1.000_1.000_DEFAULTLIGHTINGTYPE
 70
     1
102
VTR_0.000_0.000_1.000_1.000_BRIGHTNESS
141
0.0
102
VTR_0.000_0.000_1.000_1.000_CONTRAST
142
0.0
  0
LAYOUT
  5
1E
102
{ACAD_REACTORS
330
1A
102
}
330
1A
100
AcDbPlotSettings
  1

  2
none_device
  4

  6

 40
0.0
 41
0.0
 42
0.0
 43
0.0
 44
0.0
 45
0.0
 46
0.0
 47
0.0
 48
0.0
 49
0.0
140
0.0
141
0.0
142
1.0
143
1.0
 70
   688
 72
     0
 73
     0
 74
     5
  7

 75
    16
147
1.0
148
0.0
149
0.0
100
AcDbLayout
  1
Layout1
 70
     1
 71
     1
 10
0.0
 20
0.0
 11
12.0
 21
9.0
 12
0.0
 22
0.0
 32
0.0
 14
1.000000000000000E+20
 24
1.000000000000000E+20
 34
1.000000000000000E+20
 15
-1.000000000000000E+20
 25
-1.000000000000000E+20
 35
-1.000000000000000E+20
146
0.0
 13
0.0
 23
0.0
 33
0.0
 16
1.0
 26
0.0
 36
0.0
 17
0.0
 27
1.0
 37
0.0
 76
     0
330
1B
  0
LAYOUT
  5
22
102
{ACAD_REACTORS
330
1A
102
}
330
1A
100
AcDbPlotSettings
  1

  2
none_device
  4
Letter_(8.50_x_11.00_Inches)
  6

 40
6.35
 41
6.35
 42
6.35000508
 43
6.35000508
 44
215.9
 45
279.4
 46
0.0
 47
0.0
 48
0.0
 49
0.0
140
0.0
141
0.0
142
1.0
143
1.0
 70
  1712
 72
     0
 73
     0
 74
     0
  7

 75
     0
147
1.0
148
0.0
149
0.0
100
AcDbLayout
  1
Model
 70
     1
 71
     0
 10
-41.1637678696
 20
0.0
 11
316.1742254326
 21
199.3703414055
 12
0.0
 22
0.0
 32
0.0
 14
-41.1637678696
 24
0.0
 34
0.0
 15
316.1742254326
 25
199.3703414055
 35
0.0
146
0.0
 13
0.0
 23
0.0
 33
0.0
 16
1.0
 26
0.0
 36
0.0
 17
0.0
 27
1.0
 37
0.0
 76
     0
330
1F
331
29
  0
MATERIAL
  5
45
102
{ACAD_REACTORS
330
43
102
}
102
{ACAD_XDICTIONARY
360
3D2
102
}
330
43
100
AcDbMaterial
  1
ByBlock
  0
MATERIAL
  5
44
102
{ACAD_REACTORS
330
43
102
}
102
{ACAD_XDICTIONARY
360
3D0
102
}
330
43
100
AcDbMaterial
  1
ByLayer
  0
MATERIAL
  5
46
102
{ACAD_REACTORS
330
43
102
}
102
{ACAD_XDICTIONARY
360
3D4
102
}
330
43
100
AcDbMaterial
  1
Global
  0
MLEADERSTYLE
  5
6C
102
{ACAD_REACTORS
330
6B
102
}
102
{ACAD_XDICTIONARY
360
3D7
102
}
330
6B
100
AcDbMLeaderStyle
170
     2
171
     1
172
     0
 90
        2
 40
0.0
 41
0.0
173
     1
 91
-1056964608
340
14
 92
       -2
290
     1
 42
0.09
291
     1
 43
0.36
  3
Standard
341
0
 44
0.18
300

342
11
174
     1
178
     6
175
     1
176
     0
 93
-1056964608
 45
0.18
292
     0
297
     0
 46
0.18
343
0
 94
-1056964608
 47
1.0
 49
1.0
140
1.0
293
     1
141
0.0
294
     1
177
     0
142
1.0
295
     0
296
     0
143
0.125
1001
ACAD_MLEADERVER
1070
     2
  0
MLINESTYLE
  5
18
102
{ACAD_REACTORS
330
17
102
}
330
17
100
AcDbMlineStyle
  2
Standard
 70
     0
  3

 62
   256
 51
90.0
 52
90.0
 71
     2
 49
0.5
 62
   256
  6
BYLAYER
 49
-0.5
 62
   256
  6
BYLAYER
  0
ACDBPLACEHOLDER
  5
F
102
{ACAD_REACTORS
330
E
102
}
330
E
  0
SCALE
  5
48
102
{ACAD_REACTORS
330
47
102
}
330
47
100
AcDbScale
 70
     0
300
1:1
140
1.0
141
1.0
290
     1
  0
SCALE
  5
49
102
{ACAD_REACTORS
330
47
102
}
330
47
100
AcDbScale
 70
     0
300
1:2
140
1.0
141
2.0
290
     0
  0
SCALE
  5
4A
102
{ACAD_REACTORS
330
47
102
}
330
47
100
AcDbScale
 70
     0
300
1:4
140
1.0
141
4.0
290
     0
  0
SCALE
  5
4B
102
{ACAD_REACTORS
330
47
102
}
330
47
100
AcDbScale
 70
     0
300
1:5
140
1.0
141
5.0
290
     0
  0
SCALE
  5
4C
102
{ACAD_REACTORS
330
47
102
}
330
47
100
AcDbScale
 70
     0
300
1:8
140
1.0
141
8.0
290
     0
  0
SCALE
  5
4D
102
{ACAD_REACTORS
330
47
102
}
330
47
100
AcDbScale
 70
     0
300
1:10
140
1.0
141
10.0
290
     0
  0
SCALE
  5
4E
102
{ACAD_REACTORS
330
47
102
}
330
47
100
AcDbScale
 70
     0
300
1:16
140
1.0
141
16.0
290
     0
  0
SCALE
  5
4F
102
{ACAD_REACTORS
330
47
102
}
330
47
100
AcDbScale
 70
     0
300
1:20
140
1.0
141
20.0
290
     0
  0
SCALE
  5
50
102
{ACAD_REACTORS
330
47
102
}
330
47
100
AcDbScale
 70
     0
300
1:30
140
1.0
141
30.0
290
     0
  0
SCALE
  5
51
102
{ACAD_REACTORS
330
47
102
}
330
47
100
AcDbScale
 70
     0
300
1:40
140
1.0
141
40.0
290
     0
  0
SCALE
  5
52
102
{ACAD_REACTORS
330
47
102
}
330
47
100
AcDbScale
 70
     0
300
1:50
140
1.0
141
50.0
290
     0
  0
SCALE
  5
53
102
{ACAD_REACTORS
330
47
102
}
330
47
100
AcDbScale
 70
     0
300
1:100
140
1.0
141
100.0
290
     0
  0
SCALE
  5
54
102
{ACAD_REACTORS
330
47
102
}
330
47
100
AcDbScale
 70
     0
300
2:1
140
2.0
141
1.0
290
     0
  0
SCALE
  5
55
102
{ACAD_REACTORS
330
47
102
}
330
47
100
AcDbScale
 70
     0
300
4:1
140
4.0
141
1.0
290
     0
  0
SCALE
  5
56
102
{ACAD_REACTORS
330
47
102
}
330
47
100
AcDbScale
 70
     0
300
8:1
140
8.0
141
1.0
290
     0
  0
SCALE
  5
57
102
{ACAD_REACTORS
330
47
102
}
330
47
100
AcDbScale
 70
     0
300
10:1
140
10.0
141
1.0
290
     0
  0
SCALE
  5
58
102
{ACAD_REACTORS
330
47
102
}
330
47
100
AcDbScale
 70
     0
300
100:1
140
100.0
141
1.0
290
     0
  0
SCALE
  5
59
102
{ACAD_REACTORS
330
47
102
}
330
47
100
AcDbScale
 70
     0
300
1/128" = 1'-0"
140
0.0078125
141
12.0
290
     0
  0
SCALE
  5
5A
102
{ACAD_REACTORS
330
47
102
}
330
47
100
AcDbScale
 70
     0
300
1/64" = 1'-0"
140
0.015625
141
12.0
290
     0
  0
SCALE
  5
5B
102
{ACAD_REACTORS
330
47
102
}
330
47
100
AcDbScale
 70
     0
300
1/32" = 1'-0"
140
0.03125
141
12.0
290
     0
  0
SCALE
  5
5C
102
{ACAD_REACTORS
330
47
102
}
330
47
100
AcDbScale
 70
     0
300
1/16" = 1'-0"
140
0.0625
141
12.0
290
     0
  0
SCALE
  5
5D
102
{ACAD_REACTORS
330
47
102
}
330
47
100
AcDbScale
 70
     0
300
3/32" = 1'-0"
140
0.09375
141
12.0
290
     0
  0
SCALE
  5
5E
102
{ACAD_REACTORS
330
47
102
}
330
47
100
AcDbScale
 70
     0
300
1/8" = 1'-0"
140
0.125
141
12.0
290
     0
  0
SCALE
  5
5F
102
{ACAD_REACTORS
330
47
102
}
330
47
100
AcDbScale
 70
     0
300
3/16" = 1'-0"
140
0.1875
141
12.0
290
     0
  0
SCALE
  5
60
102
{ACAD_REACTORS
330
47
102
}
330
47
100
AcDbScale
 70
     0
300
1/4" = 1'-0"
140
0.25
141
12.0
290
     0
  0
SCALE
  5
61
102
{ACAD_REACTORS
330
47
102
}
330
47
100
AcDbScale
 70
     0
300
3/8" = 1'-0"
140
0.375
141
12.0
290
     0
  0
SCALE
  5
62
102
{ACAD_REACTORS
330
47
102
}
330
47
100
AcDbScale
 70
     0
300
1/2" = 1'-0"
140
0.5
141
12.0
290
     0
  0
SCALE
  5
63
102
{ACAD_REACTORS
330
47
102
}
330
47
100
AcDbScale
 70
     0
300
3/4" = 1'-0"
140
0.75
141
12.0
290
     0
  0
SCALE
  5
64
102
{ACAD_REACTORS
330
47
102
}
330
47
100
AcDbScale
 70
     0
300
1" = 1'-0"
140
1.0
141
12.0
290
     0
  0
SCALE
  5
65
102
{ACAD_REACTORS
330
47
102
}
330
47
100
AcDbScale
 70
     0
300
1-1/2" = 1'-0"
140
1.5
141
12.0
290
     0
  0
SCALE
  5
66
102
{ACAD_REACTORS
330
47
102
}
330
47
100
AcDbScale
 70
     0
300
3" = 1'-0"
140
3.0
141
12.0
290
     0
  0
SCALE
  5
67
102
{ACAD_REACTORS
330
47
102
}
330
47
100
AcDbScale
 70
     0
300
6" = 1'-0"
140
6.0
141
12.0
290
     0
  0
SCALE
  5
68
102
{ACAD_REACTORS
330
47
102
}
330
47
100
AcDbScale
 70
     0
300
1'-0" = 1'-0"
140
12.0
141
12.0
290
     0
  0
TABLESTYLE
  5
6A
102
{ACAD_REACTORS
330
69
102
}
330
69
100
AcDbTableStyle
  3
Standard
 70
     0
 71
     0
 40
0.06
 41
0.06
280
     0
281
     0
  7
Standard
140
0.18
170
     2
 62
     0
 63
   257
283
     0
274
    -2
284
     1
 64
     0
275
    -2
285
     1
 65
     0
276
    -2
286
     1
 66
     0
277
    -2
287
     1
 67
     0
278
    -2
288
     1
 68
     0
279
    -2
289
     1
 69
     0
  7
Standard
140
0.25
170
     5
 62
     0
 63
   257
283
     0
274
    -2
284
     1
 64
     0
275
    -2
285
     1
 65
     0
276
    -2
286
     1
 66
     0
277
    -2
287
     1
 67
     0
278
    -2
288
     1
 68
     0
279
    -2
289
     1
 69
     0
  7
Standard
140
0.18
170
     5
 62
     0
 63
   257
283
     0
274
    -2
284
     1
 64
     0
275
    -2
285
     1
 65
     0
276
    -2
286
     1
 66
     0
277
    -2
287
     1
 67
     0
278
    -2
288
     1
 68
     0
279
    -2
289
     1
 69
     0
  0
VISUALSTYLE
  5
2F
102
{ACAD_REACTORS
330
2A
102
}
102
{ACAD_XDICTIONARY
360
3A8
102
}
330
2A
100
AcDbVisualStyle
  2
2dWireframe
 70
     4
 71
     0
 72
     2
 73
     0
 90
        0
 40
0.6
 41
30.0
 62
     5
 63
     7
 74
     1
 91
        4
 64
     7
 65
   257
 75
     1
175
     1
 42
1.0
 92
        0
 66
   257
 43
1.0
 76
     1
 77
     6
 78
     2
 67
     7
 79
     5
170
     0
171
     0
290
     0
174
     0
 93
        1
 44
0.0
173
     0
291
     0
 45
0.0
1001
ACAD
1000
AcDbSavedByObjectVersion
1070
     0
  0
VISUALSTYLE
  5
32
102
{ACAD_REACTORS
330
2A
102
}
102
{ACAD_XDICTIONARY
360
3AE
102
}
330
2A
100
AcDbVisualStyle
  2
Basic
 70
     7
 71
     1
 72
     0
 73
     1
 90
        0
 40
0.6
 41
30.0
 62
     5
 63
     7
 74
     0
 91
        4
 64
     7
 65
   257
 75
     1
175
     1
 42
1.0
 92
        8
 66
     7
 43
1.0
 76
     1
 77
     6
 78
     2
 67
     7
 79
     5
170
     0
171
     0
290
     0
174
     0
 93
        1
 44
0.0
173
     0
291
     1
 45
0.0
1001
ACAD
1000
AcDbSavedByObjectVersion
1070
     0
  0
VISUALSTYLE
  5
36
102
{ACAD_REACTORS
330
2A
102
}
102
{ACAD_XDICTIONARY
360
3B6
102
}
330
2A
100
AcDbVisualStyle
  2
Brighten
 70
    12
 71
     2
 72
     2
 73
     0
 90
        0
 40
0.6
 41
30.0
 62
     5
 63
     7
 74
     1
 91
        4
 64
     7
 65
   257
 75
     1
175
     1
 42
1.0
 92
        8
 66
     7
 43
1.0
 76
     1
 77
     6
 78
     2
 67
     7
 79
     5
170
     0
171
     0
290
     0
174
     0
 93
        1
 44
50.0
173
     0
291
     1
 45
0.0
1001
ACAD
1000
AcDbSavedByObjectVersion
1070
     0
  0
VISUALSTYLE
  5
3A
102
{ACAD_REACTORS
330
2A
102
}
102
{ACAD_XDICTIONARY
360
3BE
102
}
330
2A
100
AcDbVisualStyle
  2
ColorChange
 70
    16
 71
     2
 72
     2
 73
     3
 90
        0
 40
0.6
 41
30.0
 62
     5
 63
     8
 74
     1
 91
        4
 64
     7
 65
   257
 75
     1
175
     1
 42
1.0
 92
        8
 66
     8
 43
1.0
 76
     1
 77
     6
 78
     2
 67
     7
 79
     5
170
     0
171
     0
290
     0
174
     0
 93
        1
 44
0.0
173
     0
291
     1
 45
0.0
1001
ACAD
1000
AcDbSavedByObjectVersion
1070
     0
  0
VISUALSTYLE
  5
34
102
{ACAD_REACTORS
330
2A
102
}
102
{ACAD_XDICTIONARY
360
3B2
102
}
330
2A
100
AcDbVisualStyle
  2
Conceptual
 70
     9
 71
     3
 72
     2
 73
     0
 90
        0
 40
0.6
 41
30.0
 62
     5
 63
     7
 74
     2
 91
        2
 64
     7
 65
   257
 75
     1
175
     1
 42
179.0
 92
        8
 66
     7
 43
1.0
 76
     1
 77
     6
 78
     2
 67
     7
 79
     3
170
     0
171
     0
290
     0
174
     0
 93
        1
 44
0.0
173
     0
291
     0
 45
0.0
1001
ACAD
1000
AcDbSavedByObjectVersion
1070
     0
  0
VISUALSTYLE
  5
35
102
{ACAD_REACTORS
330
2A
102
}
102
{ACAD_XDICTIONARY
360
3B4
102
}
330
2A
100
AcDbVisualStyle
  2
Dim
 70
    11
 71
     2
 72
     2
 73
     0
 90
        0
 40
0.6
 41
30.0
 62
     5
 63
     7
 74
     1
 91
        4
 64
     7
 65
   257
 75
     1
175
     1
 42
1.0
 92
        8
 66
     7
 43
1.0
 76
     1
 77
     6
 78
     2
 67
     7
 79
     5
170
     0
171
     0
290
     0
174
     0
 93
        1
 44
-50.0
173
     0
291
     1
 45
0.0
1001
ACAD
1000
AcDbSavedByObjectVersion
1070
     0
  0
VISUALSTYLE
  5
3D
102
{ACAD_REACTORS
330
2A
102
}
102
{ACAD_XDICTIONARY
360
3C4
102
}
330
2A
100
AcDbVisualStyle
  2
EdgeColorOff
 70
    22
 71
     2
 72
     2
 73
     0
 90
        0
 40
0.6
 41
30.0
 62
     5
 63
     7
 74
     1
 91
        4
 64
     7
 65
   257
 75
     1
175
     1
 42
1.0
 92
        8
 66
     7
 43
1.0
 76
     1
 77
     6
 78
     2
 67
     7
 79
     5
170
     0
171
     0
290
     0
174
     0
 93
        1
 44
0.0
173
     0
291
     1
 45
0.0
1001
ACAD
1000
AcDbSavedByObjectVersion
1070
     0
  0
VISUALSTYLE
  5
39
102
{ACAD_REACTORS
330
2A
102
}
102
{ACAD_XDICTIONARY
360
3BC
102
}
330
2A
100
AcDbVisualStyle
  2
Facepattern
 70
    15
 71
     2
 72
     2
 73
     0
 90
        0
 40
0.6
 41
30.0
 62
     5
 63
     7
 74
     1
 91
        4
 64
     7
 65
   257
 75
     1
175
     1
 42
1.0
 92
        8
 66
     7
 43
1.0
 76
     1
 77
     6
 78
     2
 67
     7
 79
     5
170
     0
171
     0
290
     0
174
     0
 93
        1
 44
0.0
173
     0
291
     1
 45
0.0
1001
ACAD
1000
AcDbSavedByObjectVersion
1070
     0
  0
VISUALSTYLE
  5
2B
102
{ACAD_REACTORS
330
2A
102
}
102
{ACAD_XDICTIONARY
360
3A0
102
}
330
2A
100
AcDbVisualStyle
  2
Flat
 70
     0
 71
     2
 72
     1
 73
     1
 90
        2
 40
0.6
 41
30.0
 62
     5
 63
     7
 74
     0
 91
        0
 64
     7
 65
   257
 75
     1
175
     1
 42
1.0
 92
        8
 66
     7
 43
1.0
 76
     1
 77
     6
 78
     2
 67
     7
 79
     5
170
     0
171
     0
290
     0
174
     0
 93
       13
 44
0.0
173
     0
291
     1
 45
0.0
1001
ACAD
1000
AcDbSavedByObjectVersion
1070
     0
  0
VISUALSTYLE
  5
2C
102
{ACAD_REACTORS
330
2A
102
}
102
{ACAD_XDICTIONARY
360
3A2
102
}
330
2A
100
AcDbVisualStyle
  2
FlatWithEdges
 70
     1
 71
     2
 72
     1
 73
     1
 90
        2
 40
0.6
 41
30.0
 62
     5
 63
     7
 74
     1
 91
        0
 64
     7
 65
   257
 75
     1
175
     1
 42
1.0
 92
        0
 66
   257
 43
1.0
 76
     1
 77
     6
 78
     2
 67
     7
 79
     5
170
     0
171
     0
290
     0
174
     0
 93
       13
 44
0.0
173
     0
291
     1
 45
0.0
1001
ACAD
1000
AcDbSavedByObjectVersion
1070
     0
  0
VISUALSTYLE
  5
2D
102
{ACAD_REACTORS
330
2A
102
}
102
{ACAD_XDICTIONARY
360
3A4
102
}
330
2A
100
AcDbVisualStyle
  2
Gouraud
 70
     2
 71
     2
 72
     2
 73
     1
 90
        2
 40
0.6
 41
30.0
 62
     5
 63
     7
 74
     0
 91
        0
 64
     7
 65
   257
 75
     1
175
     1
 42
1.0
 92
        0
 66
     7
 43
1.0
 76
     1
 77
     6
 78
     2
 67
     7
 79
     5
170
     0
171
     0
290
     0
174
     0
 93
       13
 44
0.0
173
     0
291
     1
 45
0.0
1001
ACAD
1000
AcDbSavedByObjectVersion
1070
     0
  0
VISUALSTYLE
  5
2E
102
{ACAD_REACTORS
330
2A
102
}
102
{ACAD_XDICTIONARY
360
3A6
102
}
330
2A
100
AcDbVisualStyle
  2
GouraudWithEdges
 70
     3
 71
     2
 72
     2
 73
     1
 90
        2
 40
0.6
 41
30.0
 62
     5
 63
     7
 74
     1
 91
        0
 64
     7
 65
   257
 75
     1
175
     1
 42
1.0
 92
        0
 66
   257
 43
1.0
 76
     1
 77
     6
 78
     2
 67
     7
 79
     5
170
     0
171
     0
290
     0
174
     0
 93
       13
 44
0.0
173
     0
291
     1
 45
0.0
1001
ACAD
1000
AcDbSavedByObjectVersion
1070
     0
  0
VISUALSTYLE
  5
31
102
{ACAD_REACTORS
330
2A
102
}
102
{ACAD_XDICTIONARY
360
3AC
102
}
330
2A
100
AcDbVisualStyle
  2
Hidden
 70
     6
 71
     1
 72
     2
 73
     2
 90
        0
 40
0.6
 41
30.0
 62
     5
 63
     7
 74
     2
 91
        2
 64
     7
 65
   257
 75
     2
175
     1
 42
40.0
 92
        0
 66
   257
 43
1.0
 76
     1
 77
     6
 78
     2
 67
     7
 79
     3
170
     0
171
     0
290
     0
174
     0
 93
        1
 44
0.0
173
     0
291
     0
 45
0.0
1001
ACAD
1000
AcDbSavedByObjectVersion
1070
     0
  0
VISUALSTYLE
  5
3B
102
{ACAD_REACTORS
330
2A
102
}
102
{ACAD_XDICTIONARY
360
3C0
102
}
330
2A
100
AcDbVisualStyle
  2
JitterOff
 70
    20
 71
     2
 72
     2
 73
     0
 90
        0
 40
0.6
 41
30.0
 62
     5
 63
     7
 74
     1
 91
        4
 64
     7
 65
   257
 75
     1
175
     1
 42
1.0
 92
       10
 66
     7
 43
1.0
 76
     1
 77
     6
 78
     2
 67
     7
 79
     5
170
     0
171
     0
290
     0
174
     0
 93
        1
 44
0.0
173
     0
291
     1
 45
0.0
1001
ACAD
1000
AcDbSavedByObjectVersion
1070
     0
  0
VISUALSTYLE
  5
38
102
{ACAD_REACTORS
330
2A
102
}
102
{ACAD_XDICTIONARY
360
3BA
102
}
330
2A
100
AcDbVisualStyle
  2
Linepattern
 70
    14
 71
     2
 72
     2
 73
     0
 90
        0
 40
0.6
 41
30.0
 62
     5
 63
     7
 74
     1
 91
        4
 64
     7
 65
   257
 75
     7
175
     7
 42
1.0
 92
        8
 66
     7
 43
1.0
 76
     1
 77
     6
 78
     2
 67
     7
 79
     5
170
     0
171
     0
290
     0
174
     0
 93
        1
 44
0.0
173
     0
291
     1
 45
0.0
1001
ACAD
1000
AcDbSavedByObjectVersion
1070
     0
  0
VISUALSTYLE
  5
3C
102
{ACAD_REACTORS
330
2A
102
}
102
{ACAD_XDICTIONARY
360
3C2
102
}
330
2A
100
AcDbVisualStyle
  2
OverhangOff
 70
    21
 71
     2
 72
     2
 73
     0
 90
        0
 40
0.6
 41
30.0
 62
     5
 63
     7
 74
     1
 91
        4
 64
     7
 65
   257
 75
     1
175
     1
 42
1.0
 92
        9
 66
     7
 43
1.0
 76
     1
 77
     6
 78
     2
 67
     7
 79
     5
170
     0
171
     0
290
     0
174
     0
 93
        1
 44
0.0
173
     0
291
     1
 45
0.0
1001
ACAD
1000
AcDbSavedByObjectVersion
1070
     0
  0
VISUALSTYLE
  5
33
102
{ACAD_REACTORS
330
2A
102
}
102
{ACAD_XDICTIONARY
360
3B0
102
}
330
2A
100
AcDbVisualStyle
  2
Realistic
 70
     8
 71
     2
 72
     3
 73
     0
 90
        2
 40
0.6
 41
30.0
 62
     5
 63
     7
 74
     0
 91
        0
 64
     7
 65
   257
 75
     1
175
     1
 42
1.0
 92
        8
 66
   257
 43
1.0
 76
     1
 77
     6
 78
     2
 67
     7
 79
     3
170
     0
171
     0
290
     0
174
     0
 93
       13
 44
0.0
173
     0
291
     0
 45
0.0
1001
ACAD
1000
AcDbSavedByObjectVersion
1070
     0
  0
VISUALSTYLE
  5
42
102
{ACAD_REACTORS
330
2A
102
}
102
{ACAD_XDICTIONARY
360
3CE
102
}
330
2A
100
AcDbVisualStyle
  2
Shaded
 70
    27
 71
     2
 72
     2
 73
     1
 90
        2
 40
0.6
 41
30.0
 62
     5
 63
     7
 74
     0
 91
        4
 64
     7
 65
   257
 75
     1
175
     1
 42
1.0
 92
        8
 66
   257
 43
1.0
 76
     1
 77
     6
 78
     2
 67
     8
 79
     3
170
     0
171
     0
290
     0
174
     0
 93
        5
 44
0.0
173
     0
291
     0
 45
0.0
1001
ACAD
1000
AcDbSavedByObjectVersion
1070
     0
  0
VISUALSTYLE
  5
41
102
{ACAD_REACTORS
330
2A
102
}
102
{ACAD_XDICTIONARY
360
3CC
102
}
330
2A
100
AcDbVisualStyle
  2
Shaded with edges
 70
    26
 71
     2
 72
     2
 73
     1
 90
        2
 40
0.6
 41
30.0
 62
     5
 63
     7
 74
     1
 91
       10
 64
     7
 65
   257
 75
     2
175
     1
 42
1.0
 92
        8
 66
   257
 43
1.0
 76
     1
 77
     6
 78
     2
 67
     7
 79
     3
170
     0
171
     0
290
     0
174
     0
 93
        5
 44
0.0
173
     0
291
     0
 45
0.0
1001
ACAD
1000
AcDbSavedByObjectVersion
1070
     0
  0
VISUALSTYLE
  5
3E
102
{ACAD_REACTORS
330
2A
102
}
102
{ACAD_XDICTIONARY
360
3C6
102
}
330
2A
100
AcDbVisualStyle
  2
Shades of Gray
 70
    23
 71
     2
 72
     2
 73
     3
 90
        0
 40
0.6
 41
30.0
 62
     5
 63
     7
 74
     2
 91
        2
 64
     7
 65
     7
 75
     1
175
     1
 42
40.0
 92
        8
 66
     7
 43
1.0
 76
     1
 77
     6
 78
     2
 67
     7
 79
     3
170
     0
171
     0
290
     0
174
     0
 93
        1
 44
0.0
173
     0
291
     0
 45
0.0
1001
ACAD
1000
AcDbSavedByObjectVersion
1070
     0
  0
VISUALSTYLE
  5
3F
102
{ACAD_REACTORS
330
2A
102
}
102
{ACAD_XDICTIONARY
360
3C8
102
}
330
2A
100
AcDbVisualStyle
  2
Sketchy
 70
    24
 71
     1
 72
     2
 73
     2
 90
        0
 40
0.6
 41
30.0
 62
     5
 63
     7
 74
     2
 91
        2
 64
     7
 65
     7
 75
     1
175
     1
 42
40.0
 92
       11
 66
     7
 43
1.0
 76
     1
 77
     6
 78
     2
 67
     7
 79
     6
170
     0
171
     0
290
     0
174
     0
 93
        1
 44
0.0
173
     0
291
     0
 45
0.0
1001
ACAD
1000
AcDbSavedByObjectVersion
1070
     0
  0
VISUALSTYLE
  5
37
102
{ACAD_REACTORS
330
2A
102
}
102
{ACAD_XDICTIONARY
360
3B8
102
}
330
2A
100
AcDbVisualStyle
  2
Thicken
 70
    13
 71
     2
 72
     2
 73
     0
 90
        0
 40
0.6
 41
30.0
 62
     5
 63
     7
 74
     1
 91
        4
 64
     7
 65
   257
 75
     1
175
     1
 42
1.0
 92
       12
 66
     7
 43
1.0
 76
     1
 77
     6
 78
     2
 67
     7
 79
     5
170
     0
171
     0
290
     0
174
     0
 93
        1
 44
0.0
173
     0
291
     1
 45
0.0
1001
ACAD
1000
AcDbSavedByObjectVersion
1070
     0
  0
VISUALSTYLE
  5
30
102
{ACAD_REACTORS
330
2A
102
}
102
{ACAD_XDICTIONARY
360
3AA
102
}
330
2A
100
AcDbVisualStyle
  2
Wireframe
 70
     5
 71
     0
 72
     2
 73
     0
 90
        0
 40
0.6
 41
30.0
 62
     5
 63
     7
 74
     1
 91
        4
 64
     7
 65
   257
 75
     1
175
     1
 42
1.0
 92
        0
 66
   257
 43
1.0
 76
     1
 77
     6
 78
     2
 67
     7
 79
     3
170
     0
171
     0
290
     0
174
     0
 93
        1
 44
0.0
173
     0
291
     0
 45
0.0
1001
ACAD
1000
AcDbSavedByObjectVersion
1070
     0
  0
VISUALSTYLE
  5
40
102
{ACAD_REACTORS
330
2A
102
}
102
{ACAD_XDICTIONARY
360
3CA
102
}
330
2A
100
AcDbVisualStyle
  2
X-Ray
 70
    25
 71
     2
 72
     2
 73
     1
 90
        1
 40
0.5
 41
30.0
 62
     5
 63
     7
 74
     1
 91
        0
 64
     7
 65
   257
 75
     1
175
     1
 42
1.0
 92
        8
 66
     7
 43
1.0
 76
     1
 77
     6
 78
     2
 67
     7
 79
     3
170
     0
171
     0
290
     0
174
     0
 93
       13
 44
0.0
173
     0
291
     0
 45
0.0
1001
ACAD
1000
AcDbSavedByObjectVersion
1070
     0
  0
DICTIONARYVAR
  5
39E
102
{ACAD_REACTORS
330
395
102
}
330
395
100
DictionaryVariables
280
     0
  1
1:1
  0
DICTIONARYVAR
  5
397
102
{ACAD_REACTORS
330
395
102
}
330
395
100
DictionaryVariables
280
     0
  1
Standard
  0
DICTIONARYVAR
  5
396
102
{ACAD_REACTORS
330
395
102
}
330
395
100
DictionaryVariables
280
     0
  1
Standard
  0
DICTIONARYVAR
  5
39A
102
{ACAD_REACTORS
330
395
102
}
330
395
100
DictionaryVariables
280
     0
  1
2
  0
DICTIONARYVAR
  5
39B
102
{ACAD_REACTORS
330
395
102
}
330
395
100
DictionaryVariables
280
     0
  1
1
  0
DICTIONARYVAR
  5
39F
102
{ACAD_REACTORS
330
395
102
}
330
395
100
DictionaryVariables
280
     0
  1
1
  0
DICTIONARY
  5
3D2
330
45
100
AcDbDictionary
280
     1
281
     1
  3
ACAD_XREC_ROUNDTRIP
360
3D3
  0
DICTIONARY
  5
3D0
330
44
100
AcDbDictionary
280
     1
281
     1
  3
ACAD_XREC_ROUNDTRIP
360
3D1
  0
DICTIONARY
  5
3D4
330
46
100
AcDbDictionary
280
     1
281
     1
  3
ACAD_XREC_ROUNDTRIP
360
3D5
  0
DICTIONARY
  5
3D7
330
6C
100
AcDbDictionary
280
     1
281
     1
  3
ACAD_XREC_ROUNDTRIP
360
3D8
  0
DICTIONARY
  5
3A8
330
2F
100
AcDbDictionary
280
     1
281
     1
  3
ACAD_XREC_ROUNDTRIP
360
3A9
  0
DICTIONARY
  5
3AE
330
32
100
AcDbDictionary
280
     1
281
     1
  3
ACAD_XREC_ROUNDTRIP
360
3AF
  0
DICTIONARY
  5
3B6
330
36
100
AcDbDictionary
280
     1
281
     1
  3
ACAD_XREC_ROUNDTRIP
360
3B7
  0
DICTIONARY
  5
3BE
330
3A
100
AcDbDictionary
280
     1
281
     1
  3
ACAD_XREC_ROUNDTRIP
360
3BF
  0
DICTIONARY
  5
3B2
330
34
100
AcDbDictionary
280
     1
281
     1
  3
ACAD_XREC_ROUNDTRIP
360
3B3
  0
DICTIONARY
  5
3B4
330
35
100
AcDbDictionary
280
     1
281
     1
  3
ACAD_XREC_ROUNDTRIP
360
3B5
  0
DICTIONARY
  5
3C4
330
3D
100
AcDbDictionary
280
     1
281
     1
  3
ACAD_XREC_ROUNDTRIP
360
3C5
  0
DICTIONARY
  5
3BC
330
39
100
AcDbDictionary
280
     1
281
     1
  3
ACAD_XREC_ROUNDTRIP
360
3BD
  0
DICTIONARY
  5
3A0
330
2B
100
AcDbDictionary
280
     1
281
     1
  3
ACAD_XREC_ROUNDTRIP
360
3A1
  0
DICTIONARY
  5
3A2
330
2C
100
AcDbDictionary
280
     1
281
     1
  3
ACAD_XREC_ROUNDTRIP
360
3A3
  0
DICTIONARY
  5
3A4
330
2D
100
AcDbDictionary
280
     1
281
     1
  3
ACAD_XREC_ROUNDTRIP
360
3A5
  0
DICTIONARY
  5
3A6
330
2E
100
AcDbDictionary
280
     1
281
     1
  3
ACAD_XREC_ROUNDTRIP
360
3A7
  0
DICTIONARY
  5
3AC
330
31
100
AcDbDictionary
280
     1
281
     1
  3
ACAD_XREC_ROUNDTRIP
360
3AD
  0
DICTIONARY
  5
3C0
330
3B
100
AcDbDictionary
280
     1
281
     1
  3
ACAD_XREC_ROUNDTRIP
360
3C1
  0
DICTIONARY
  5
3BA
330
38
100
AcDbDictionary
280
     1
281
     1
  3
ACAD_XREC_ROUNDTRIP
360
3BB
  0
DICTIONARY
  5
3C2
330
3C
100
AcDbDictionary
280
     1
281
     1
  3
ACAD_XREC_ROUNDTRIP
360
3C3
  0
DICTIONARY
  5
3B0
330
33
100
AcDbDictionary
280
     1
281
     1
  3
ACAD_XREC_ROUNDTRIP
360
3B1
  0
DICTIONARY
  5
3CE
330
42
100
AcDbDictionary
280
     1
281
     1
  3
ACAD_XREC_ROUNDTRIP
360
3CF
  0
DICTIONARY
  5
3CC
330
41
100
AcDbDictionary
280
     1
281
     1
  3
ACAD_XREC_ROUNDTRIP
360
3CD
  0
DICTIONARY
  5
3C6
330
3E
100
AcDbDictionary
280
     1
281
     1
  3
ACAD_XREC_ROUNDTRIP
360
3C7
  0
DICTIONARY
  5
3C8
330
3F
100
AcDbDictionary
280
     1
281
     1
  3
ACAD_XREC_ROUNDTRIP
360
3C9
  0
DICTIONARY
  5
3B8
330
37
100
AcDbDictionary
280
     1
281
     1
  3
ACAD_XREC_ROUNDTRIP
360
3B9
  0
DICTIONARY
  5
3AA
330
30
100
AcDbDictionary
280
     1
281
     1
  3
ACAD_XREC_ROUNDTRIP
360
3AB
  0
DICTIONARY
  5
3CA
330
40
100
AcDbDictionary
280
     1
281
     1
  3
ACAD_XREC_ROUNDTRIP
360
3CB
  0
XRECORD
  5
3D3
102
{ACAD_REACTORS
330
3D2
102
}
330
3D2
100
AcDbXrecord
280
     1
102
MATERIAL
148
0.0
149
0.0
149
0.0
 93
        0
 94
      127
282
     0
 72
     1
 77
     1
171
     1
175
     1
179
     1
273
     0
  0
XRECORD
  5
3D1
102
{ACAD_REACTORS
330
3D0
102
}
330
3D0
100
AcDbXrecord
280
     1
102
MATERIAL
148
0.0
149
0.0
149
0.0
 93
        0
 94
      127
282
     0
 72
     1
 77
     1
171
     1
175
     1
179
     1
273
     0
  0
XRECORD
  5
3D5
102
{ACAD_REACTORS
330
3D4
102
}
330
3D4
100
AcDbXrecord
280
     1
102
MATERIAL
148
0.0
149
0.0
149
0.0
 93
        0
 94
      127
282
     0
 72
     1
 77
     1
171
     1
175
     1
179
     1
273
     0
  0
XRECORD
  5
3D8
102
{ACAD_REACTORS
330
3D7
102
}
330
3D7
100
AcDbXrecord
280
     1
102
ACAD_ROUNDTRIP_2010_MLEADER_STYLE
  0
XRECORD
  5
3A9
102
{ACAD_REACTORS
330
3A8
102
}
330
3A8
100
AcDbXrecord
280
     1
102
RTVSPropertyOp0
 70
     1
102
RTVSPropertyOp1
 70
     1
102
RTVSPropertyOp2
 70
     1
102
RTVSPropertyOp3
 70
     1
102
RTVSPropertyOp4
 70
     1
102
RTVSPropertyOp5
 70
     1
102
RTVSPropertyOp6
 70
     1
102
RTVSPropertyOp7
 70
     1
102
RTVSPropertyOp8
 70
     1
102
RTVSPropertyOp9
 70
     1
102
RTVSPropertyOp10
 70
     1
102
RTVSPropertyOp11
 70
     1
102
RTVSPropertyOp12
 70
     1
102
RTVSPropertyOp13
 70
     1
102
RTVSPropertyOp14
 70
     1
102
RTVSPropertyOp15
 70
     1
102
RTVSPropertyOp16
 70
     1
102
RTVSPropertyOp17
 70
     1
102
RTVSPropertyOp18
 70
     1
102
RTVSPropertyOp19
 70
     1
102
RTVSPropertyOp20
 70
     1
102
RTVSPropertyOp21
 70
     1
102
RTVSPropertyOp22
 70
     1
102
RTVSPropertyOp23
 70
     1
102
RTVSPropertyOp24
 70
     1
102
RTVSPropertyOp25
 70
     1
102
RTVSPropertyOp26
 70
     1
102
RTVSPropertyOp27
 70
     1
102
RTVSPropertyOp28
 70
     1
102
RTVSPropertyOp29
 70
     1
102
RTVSPropertyOp30
 70
     1
102
RTVSPropertyOp31
 70
     1
102
RTVSPropertyOp32
 70
     1
102
RTVSPropertyOp33
 70
     1
102
RTVSPropertyOp34
 70
     1
102
RTVSPropertyOp35
 70
     1
102
RTVSPropertyOp36
 70
     1
102
RTVSPropertyOp37
 70
     1
102
RTVSPropertyOp38
 70
     1
102
RTVSPropertyOp39
 70
     1
102
RTVSPropertyOp40
 70
     1
102
RTVSPropertyOp41
 70
     1
102
RTVSPropertyOp42
 70
     1
102
RTVSPropertyOp43
 70
     1
102
RTVSPropertyOp44
 70
     1
102
RTVSPropertyOp45
 70
     1
102
RTVSPropertyOp46
 70
     1
102
RTVSPropertyOp47
 70
     1
102
RTVSPropertyOp48
 70
     1
102
RTVSPropertyOp49
 70
     1
102
RTVSPropertyOp50
 70
     1
102
RTVSPropertyOp51
 70
     0
102
RTVSPropertyOp52
 70
     0
102
RTVSPropertyOp53
 70
     1
102
RTVSPropertyOp54
 70
     1
102
RTVSPropertyOp55
 70
     1
102
RTVSPropertyOp56
 70
     1
102
RTVSPropertyOp57
 70
     1
102
RTVSPost2010Prop28
280
     1
102
RTVSPost2010PropOp28
 70
     1
102
RTVSPost2010Prop29
280
     1
102
RTVSPost2010PropOp29
 70
     1
102
RTVSPost2010Prop30
280
     0
102
RTVSPost2010PropOp30
 70
     1
102
RTVSPost2010Prop31
280
     0
102
RTVSPost2010PropOp31
 70
     1
102
RTVSPost2010Prop32
280
     0
102
RTVSPost2010PropOp32
 70
     1
102
RTVSPost2010Prop33
280
     0
102
RTVSPost2010PropOp33
 70
     1
102
RTVSPost2010Prop34
280
     0
102
RTVSPost2010PropOp34
 70
     1
102
RTVSPost2010Prop35
280
     0
102
RTVSPost2010PropOp35
 70
     1
102
RTVSPost2010Prop36
280
     0
102
RTVSPost2010PropOp36
 70
     1
102
RTVSPost2010Prop37
 90
       50
102
RTVSPost2010PropOp37
 70
     1
102
RTVSPost2010Prop38
140
0.0
102
RTVSPost2010PropOp38
 70
     1
102
RTVSPost2010Prop39
140
1.0
102
RTVSPost2010PropOp39
 70
     1
102
RTVSPost2010Prop40
 90
        0
102
RTVSPost2010PropOp40
 70
     1
102
RTVSPost2010Prop41ColorIndex
 90
       18
102
RTVSPost2010Prop41ColorRGB
 90
        0
102
RTVSPost2010PropOp41
 70
     1
102
RTVSPost2010Prop42
 90
       50
102
RTVSPost2010PropOp42
 70
     1
102
RTVSPost2010Prop43
 90
        3
102
RTVSPost2010PropOp43
 70
     1
102
RTVSPost2010Prop44ColorIndex
 90
        5
102
RTVSPost2010Prop44ColorRGB
 90
      255
102
RTVSPost2010PropOp44
 70
     1
102
RTVSPost2010Prop45
280
     0
102
RTVSPost2010PropOp45
 70
     1
102
RTVSPost2010Prop46
 90
       50
102
RTVSPost2010PropOp46
 70
     1
102
RTVSPost2010Prop47
 90
       50
102
RTVSPost2010PropOp47
 70
     1
102
RTVSPost2010Prop48
 90
       50
102
RTVSPost2010PropOp48
 70
     1
102
RTVSPost2010Prop49
280
     0
102
RTVSPost2010PropOp49
 70
     1
102
RTVSPost2010Prop50
 90
       50
102
RTVSPost2010PropOp50
 70
     1
102
RTVSPost2010Prop51ColorIndex
 90
      256
102
RTVSPost2010Prop51ColorRGB
 90
-16777216
102
RTVSPost2010PropOp51
 70
     0
102
RTVSPost2010Prop52
140
1.0
102
RTVSPost2010PropOp52
 70
     0
102
RTVSPost2010Prop53
 90
        2
102
RTVSPost2010PropOp53
 70
     1
102
RTVSPost2010Prop54
  1
strokes_ogs.tif
102
RTVSPost2010PropOp54
 70
     1
102
RTVSPost2010Prop55
280
     0
102
RTVSPost2010PropOp55
 70
     1
102
RTVSPost2010Prop56
140
1.0
102
RTVSPost2010PropOp56
 70
     1
102
RTVSPost2010Prop57
140
1.0
102
RTVSPost2010PropOp57
 70
     1
  0
XRECORD
  5
3AF
102
{ACAD_REACTORS
330
3AE
102
}
330
3AE
100
AcDbXrecord
280
     1
102
RTVSPropertyOp0
 70
     1
102
RTVSPropertyOp1
 70
     1
102
RTVSPropertyOp2
 70
     1
102
RTVSPropertyOp3
 70
     1
102
RTVSPropertyOp4
 70
     1
102
RTVSPropertyOp5
 70
     1
102
RTVSPropertyOp6
 70
     1
102
RTVSPropertyOp7
 70
     1
102
RTVSPropertyOp8
 70
     1
102
RTVSPropertyOp9
 70
     1
102
RTVSPropertyOp10
 70
     1
102
RTVSPropertyOp11
 70
     1
102
RTVSPropertyOp12
 70
     1
102
RTVSPropertyOp13
 70
     1
102
RTVSPropertyOp14
 70
     1
102
RTVSPropertyOp15
 70
     1
102
RTVSPropertyOp16
 70
     1
102
RTVSPropertyOp17
 70
     1
102
RTVSPropertyOp18
 70
     1
102
RTVSPropertyOp19
 70
     1
102
RTVSPropertyOp20
 70
     1
102
RTVSPropertyOp21
 70
     1
102
RTVSPropertyOp22
 70
     1
102
RTVSPropertyOp23
 70
     1
102
RTVSPropertyOp24
 70
     1
102
RTVSPropertyOp25
 70
     1
102
RTVSPropertyOp26
 70
     1
102
RTVSPropertyOp27
 70
     1
102
RTVSPropertyOp28
 70
     1
102
RTVSPropertyOp29
 70
     1
102
RTVSPropertyOp30
 70
     1
102
RTVSPropertyOp31
 70
     1
102
RTVSPropertyOp32
 70
     1
102
RTVSPropertyOp33
 70
     1
102
RTVSPropertyOp34
 70
     1
102
RTVSPropertyOp35
 70
     1
102
RTVSPropertyOp36
 70
     1
102
RTVSPropertyOp37
 70
     1
102
RTVSPropertyOp38
 70
     1
102
RTVSPropertyOp39
 70
     1
102
RTVSPropertyOp40
 70
     1
102
RTVSPropertyOp41
 70
     1
102
RTVSPropertyOp42
 70
     1
102
RTVSPropertyOp43
 70
     1
102
RTVSPropertyOp44
 70
     1
102
RTVSPropertyOp45
 70
     1
102
RTVSPropertyOp46
 70
     1
102
RTVSPropertyOp47
 70
     1
102
RTVSPropertyOp48
 70
     1
102
RTVSPropertyOp49
 70
     1
102
RTVSPropertyOp50
 70
     1
102
RTVSPropertyOp51
 70
     0
102
RTVSPropertyOp52
 70
     0
102
RTVSPropertyOp53
 70
     1
102
RTVSPropertyOp54
 70
     1
102
RTVSPropertyOp55
 70
     1
102
RTVSPropertyOp56
 70
     1
102
RTVSPropertyOp57
 70
     1
102
RTVSPost2010Prop28
280
     0
102
RTVSPost2010PropOp28
 70
     1
102
RTVSPost2010Prop29
280
     1
102
RTVSPost2010PropOp29
 70
     1
102
RTVSPost2010Prop30
280
     1
102
RTVSPost2010PropOp30
 70
     1
102
RTVSPost2010Prop31
280
     0
102
RTVSPost2010PropOp31
 70
     1
102
RTVSPost2010Prop32
280
     0
102
RTVSPost2010PropOp32
 70
     1
102
RTVSPost2010Prop33
280
     0
102
RTVSPost2010PropOp33
 70
     1
102
RTVSPost2010Prop34
280
     0
102
RTVSPost2010PropOp34
 70
     1
102
RTVSPost2010Prop35
280
     0
102
RTVSPost2010PropOp35
 70
     1
102
RTVSPost2010Prop36
280
     0
102
RTVSPost2010PropOp36
 70
     1
102
RTVSPost2010Prop37
 90
       50
102
RTVSPost2010PropOp37
 70
     1
102
RTVSPost2010Prop38
140
0.0
102
RTVSPost2010PropOp38
 70
     1
102
RTVSPost2010Prop39
140
1.0
102
RTVSPost2010PropOp39
 70
     1
102
RTVSPost2010Prop40
 90
        0
102
RTVSPost2010PropOp40
 70
     1
102
RTVSPost2010Prop41ColorIndex
 90
       18
102
RTVSPost2010Prop41ColorRGB
 90
        0
102
RTVSPost2010PropOp41
 70
     1
102
RTVSPost2010Prop42
 90
       50
102
RTVSPost2010PropOp42
 70
     1
102
RTVSPost2010Prop43
 90
        3
102
RTVSPost2010PropOp43
 70
     1
102
RTVSPost2010Prop44ColorIndex
 90
        5
102
RTVSPost2010Prop44ColorRGB
 90
      255
102
RTVSPost2010PropOp44
 70
     1
102
RTVSPost2010Prop45
280
     0
102
RTVSPost2010PropOp45
 70
     1
102
RTVSPost2010Prop46
 90
       50
102
RTVSPost2010PropOp46
 70
     1
102
RTVSPost2010Prop47
 90
       50
102
RTVSPost2010PropOp47
 70
     1
102
RTVSPost2010Prop48
 90
       50
102
RTVSPost2010PropOp48
 70
     1
102
RTVSPost2010Prop49
280
     0
102
RTVSPost2010PropOp49
 70
     1
102
RTVSPost2010Prop50
 90
       50
102
RTVSPost2010PropOp50
 70
     1
102
RTVSPost2010Prop51ColorIndex
 90
      256
102
RTVSPost2010Prop51ColorRGB
 90
-16777216
102
RTVSPost2010PropOp51
 70
     0
102
RTVSPost2010Prop52
140
1.0
102
RTVSPost2010PropOp52
 70
     0
102
RTVSPost2010Prop53
 90
        2
102
RTVSPost2010PropOp53
 70
     1
102
RTVSPost2010Prop54
  1
strokes_ogs.tif
102
RTVSPost2010PropOp54
 70
     1
102
RTVSPost2010Prop55
280
     0
102
RTVSPost2010PropOp55
 70
     1
102
RTVSPost2010Prop56
140
1.0
102
RTVSPost2010PropOp56
 70
     1
102
RTVSPost2010Prop57
140
1.0
102
RTVSPost2010PropOp57
 70
     1
  0
XRECORD
  5
3B7
102
{ACAD_REACTORS
330
3B6
102
}
330
3B6
100
AcDbXrecord
280
     1
102
RTVSPropertyOp0
 70
     1
102
RTVSPropertyOp1
 70
     1
102
RTVSPropertyOp2
 70
     1
102
RTVSPropertyOp3
 70
     1
102
RTVSPropertyOp4
 70
     1
102
RTVSPropertyOp5
 70
     1
102
RTVSPropertyOp6
 70
     1
102
RTVSPropertyOp7
 70
     1
102
RTVSPropertyOp8
 70
     1
102
RTVSPropertyOp9
 70
     1
102
RTVSPropertyOp10
 70
     1
102
RTVSPropertyOp11
 70
     1
102
RTVSPropertyOp12
 70
     1
102
RTVSPropertyOp13
 70
     1
102
RTVSPropertyOp14
 70
     1
102
RTVSPropertyOp15
 70
     1
102
RTVSPropertyOp16
 70
     1
102
RTVSPropertyOp17
 70
     1
102
RTVSPropertyOp18
 70
     1
102
RTVSPropertyOp19
 70
     1
102
RTVSPropertyOp20
 70
     1
102
RTVSPropertyOp21
 70
     1
102
RTVSPropertyOp22
 70
     1
102
RTVSPropertyOp23
 70
     1
102
RTVSPropertyOp24
 70
     1
102
RTVSPropertyOp25
 70
     1
102
RTVSPropertyOp26
 70
     1
102
RTVSPropertyOp27
 70
     1
102
RTVSPropertyOp28
 70
     1
102
RTVSPropertyOp29
 70
     1
102
RTVSPropertyOp30
 70
     1
102
RTVSPropertyOp31
 70
     1
102
RTVSPropertyOp32
 70
     1
102
RTVSPropertyOp33
 70
     1
102
RTVSPropertyOp34
 70
     1
102
RTVSPropertyOp35
 70
     1
102
RTVSPropertyOp36
 70
     1
102
RTVSPropertyOp37
 70
     1
102
RTVSPropertyOp38
 70
     1
102
RTVSPropertyOp39
 70
     1
102
RTVSPropertyOp40
 70
     1
102
RTVSPropertyOp41
 70
     1
102
RTVSPropertyOp42
 70
     1
102
RTVSPropertyOp43
 70
     1
102
RTVSPropertyOp44
 70
     1
102
RTVSPropertyOp45
 70
     1
102
RTVSPropertyOp46
 70
     1
102
RTVSPropertyOp47
 70
     1
102
RTVSPropertyOp48
 70
     1
102
RTVSPropertyOp49
 70
     1
102
RTVSPropertyOp50
 70
     1
102
RTVSPropertyOp51
 70
     0
102
RTVSPropertyOp52
 70
     0
102
RTVSPropertyOp53
 70
     1
102
RTVSPropertyOp54
 70
     1
102
RTVSPropertyOp55
 70
     1
102
RTVSPropertyOp56
 70
     1
102
RTVSPropertyOp57
 70
     1
102
RTVSPost2010Prop28
280
     0
102
RTVSPost2010PropOp28
 70
     1
102
RTVSPost2010Prop29
280
     1
102
RTVSPost2010PropOp29
 70
     1
102
RTVSPost2010Prop30
280
     1
102
RTVSPost2010PropOp30
 70
     1
102
RTVSPost2010Prop31
280
     0
102
RTVSPost2010PropOp31
 70
     1
102
RTVSPost2010Prop32
280
     0
102
RTVSPost2010PropOp32
 70
     1
102
RTVSPost2010Prop33
280
     0
102
RTVSPost2010PropOp33
 70
     1
102
RTVSPost2010Prop34
280
     0
102
RTVSPost2010PropOp34
 70
     1
102
RTVSPost2010Prop35
280
     0
102
RTVSPost2010PropOp35
 70
     1
102
RTVSPost2010Prop36
280
     0
102
RTVSPost2010PropOp36
 70
     1
102
RTVSPost2010Prop37
 90
       50
102
RTVSPost2010PropOp37
 70
     1
102
RTVSPost2010Prop38
140
0.0
102
RTVSPost2010PropOp38
 70
     1
102
RTVSPost2010Prop39
140
1.0
102
RTVSPost2010PropOp39
 70
     1
102
RTVSPost2010Prop40
 90
        0
102
RTVSPost2010PropOp40
 70
     1
102
RTVSPost2010Prop41ColorIndex
 90
       18
102
RTVSPost2010Prop41ColorRGB
 90
        0
102
RTVSPost2010PropOp41
 70
     1
102
RTVSPost2010Prop42
 90
       50
102
RTVSPost2010PropOp42
 70
     1
102
RTVSPost2010Prop43
 90
        3
102
RTVSPost2010PropOp43
 70
     1
102
RTVSPost2010Prop44ColorIndex
 90
        5
102
RTVSPost2010Prop44ColorRGB
 90
      255
102
RTVSPost2010PropOp44
 70
     1
102
RTVSPost2010Prop45
280
     0
102
RTVSPost2010PropOp45
 70
     1
102
RTVSPost2010Prop46
 90
       50
102
RTVSPost2010PropOp46
 70
     1
102
RTVSPost2010Prop47
 90
       50
102
RTVSPost2010PropOp47
 70
     1
102
RTVSPost2010Prop48
 90
       50
102
RTVSPost2010PropOp48
 70
     1
102
RTVSPost2010Prop49
280
     0
102
RTVSPost2010PropOp49
 70
     1
102
RTVSPost2010Prop50
 90
       50
102
RTVSPost2010PropOp50
 70
     1
102
RTVSPost2010Prop51ColorIndex
 90
      256
102
RTVSPost2010Prop51ColorRGB
 90
-16777216
102
RTVSPost2010PropOp51
 70
     0
102
RTVSPost2010Prop52
140
1.0
102
RTVSPost2010PropOp52
 70
     0
102
RTVSPost2010Prop53
 90
        2
102
RTVSPost2010PropOp53
 70
     1
102
RTVSPost2010Prop54
  1
strokes_ogs.tif
102
RTVSPost2010PropOp54
 70
     1
102
RTVSPost2010Prop55
280
     0
102
RTVSPost2010PropOp55
 70
     1
102
RTVSPost2010Prop56
140
1.0
102
RTVSPost2010PropOp56
 70
     1
102
RTVSPost2010Prop57
140
1.0
102
RTVSPost2010PropOp57
 70
     1
  0
XRECORD
  5
3BF
102
{ACAD_REACTORS
330
3BE
102
}
330
3BE
100
AcDbXrecord
280
     1
102
RTVSPropertyOp0
 70
     1
102
RTVSPropertyOp1
 70
     1
102
RTVSPropertyOp2
 70
     1
102
RTVSPropertyOp3
 70
     1
102
RTVSPropertyOp4
 70
     1
102
RTVSPropertyOp5
 70
     1
102
RTVSPropertyOp6
 70
     1
102
RTVSPropertyOp7
 70
     1
102
RTVSPropertyOp8
 70
     1
102
RTVSPropertyOp9
 70
     1
102
RTVSPropertyOp10
 70
     1
102
RTVSPropertyOp11
 70
     1
102
RTVSPropertyOp12
 70
     1
102
RTVSPropertyOp13
 70
     1
102
RTVSPropertyOp14
 70
     1
102
RTVSPropertyOp15
 70
     1
102
RTVSPropertyOp16
 70
     1
102
RTVSPropertyOp17
 70
     1
102
RTVSPropertyOp18
 70
     1
102
RTVSPropertyOp19
 70
     1
102
RTVSPropertyOp20
 70
     1
102
RTVSPropertyOp21
 70
     1
102
RTVSPropertyOp22
 70
     1
102
RTVSPropertyOp23
 70
     1
102
RTVSPropertyOp24
 70
     1
102
RTVSPropertyOp25
 70
     1
102
RTVSPropertyOp26
 70
     1
102
RTVSPropertyOp27
 70
     1
102
RTVSPropertyOp28
 70
     1
102
RTVSPropertyOp29
 70
     1
102
RTVSPropertyOp30
 70
     1
102
RTVSPropertyOp31
 70
     1
102
RTVSPropertyOp32
 70
     1
102
RTVSPropertyOp33
 70
     1
102
RTVSPropertyOp34
 70
     1
102
RTVSPropertyOp35
 70
     1
102
RTVSPropertyOp36
 70
     1
102
RTVSPropertyOp37
 70
     1
102
RTVSPropertyOp38
 70
     1
102
RTVSPropertyOp39
 70
     1
102
RTVSPropertyOp40
 70
     1
102
RTVSPropertyOp41
 70
     1
102
RTVSPropertyOp42
 70
     1
102
RTVSPropertyOp43
 70
     1
102
RTVSPropertyOp44
 70
     1
102
RTVSPropertyOp45
 70
     1
102
RTVSPropertyOp46
 70
     1
102
RTVSPropertyOp47
 70
     1
102
RTVSPropertyOp48
 70
     1
102
RTVSPropertyOp49
 70
     1
102
RTVSPropertyOp50
 70
     1
102
RTVSPropertyOp51
 70
     0
102
RTVSPropertyOp52
 70
     0
102
RTVSPropertyOp53
 70
     1
102
RTVSPropertyOp54
 70
     1
102
RTVSPropertyOp55
 70
     1
102
RTVSPropertyOp56
 70
     1
102
RTVSPropertyOp57
 70
     1
102
RTVSPost2010Prop28
280
     0
102
RTVSPost2010PropOp28
 70
     1
102
RTVSPost2010Prop29
280
     1
102
RTVSPost2010PropOp29
 70
     1
102
RTVSPost2010Prop30
280
     1
102
RTVSPost2010PropOp30
 70
     1
102
RTVSPost2010Prop31
280
     0
102
RTVSPost2010PropOp31
 70
     1
102
RTVSPost2010Prop32
280
     0
102
RTVSPost2010PropOp32
 70
     1
102
RTVSPost2010Prop33
280
     0
102
RTVSPost2010PropOp33
 70
     1
102
RTVSPost2010Prop34
280
     0
102
RTVSPost2010PropOp34
 70
     1
102
RTVSPost2010Prop35
280
     0
102
RTVSPost2010PropOp35
 70
     1
102
RTVSPost2010Prop36
280
     0
102
RTVSPost2010PropOp36
 70
     1
102
RTVSPost2010Prop37
 90
       50
102
RTVSPost2010PropOp37
 70
     1
102
RTVSPost2010Prop38
140
0.0
102
RTVSPost2010PropOp38
 70
     1
102
RTVSPost2010Prop39
140
1.0
102
RTVSPost2010PropOp39
 70
     1
102
RTVSPost2010Prop40
 90
        0
102
RTVSPost2010PropOp40
 70
     1
102
RTVSPost2010Prop41ColorIndex
 90
       18
102
RTVSPost2010Prop41ColorRGB
 90
        0
102
RTVSPost2010PropOp41
 70
     1
102
RTVSPost2010Prop42
 90
       50
102
RTVSPost2010PropOp42
 70
     1
102
RTVSPost2010Prop43
 90
        3
102
RTVSPost2010PropOp43
 70
     1
102
RTVSPost2010Prop44ColorIndex
 90
        5
102
RTVSPost2010Prop44ColorRGB
 90
      255
102
RTVSPost2010PropOp44
 70
     1
102
RTVSPost2010Prop45
280
     0
102
RTVSPost2010PropOp45
 70
     1
102
RTVSPost2010Prop46
 90
       50
102
RTVSPost2010PropOp46
 70
     1
102
RTVSPost2010Prop47
 90
       50
102
RTVSPost2010PropOp47
 70
     1
102
RTVSPost2010Prop48
 90
       50
102
RTVSPost2010PropOp48
 70
     1
102
RTVSPost2010Prop49
280
     0
102
RTVSPost2010PropOp49
 70
     1
102
RTVSPost2010Prop50
 90
       50
102
RTVSPost2010PropOp50
 70
     1
102
RTVSPost2010Prop51ColorIndex
 90
      256
102
RTVSPost2010Prop51ColorRGB
 90
-16777216
102
RTVSPost2010PropOp51
 70
     0
102
RTVSPost2010Prop52
140
1.0
102
RTVSPost2010PropOp52
 70
     0
102
RTVSPost2010Prop53
 90
        2
102
RTVSPost2010PropOp53
 70
     1
102
RTVSPost2010Prop54
  1
strokes_ogs.tif
102
RTVSPost2010PropOp54
 70
     1
102
RTVSPost2010Prop55
280
     0
102
RTVSPost2010PropOp55
 70
     1
102
RTVSPost2010Prop56
140
1.0
102
RTVSPost2010PropOp56
 70
     1
102
RTVSPost2010Prop57
140
1.0
102
RTVSPost2010PropOp57
 70
     1
  0
XRECORD
  5
3B3
102
{ACAD_REACTORS
330
3B2
102
}
330
3B2
100
AcDbXrecord
280
     1
102
RTVSPropertyOp0
 70
     1
102
RTVSPropertyOp1
 70
     1
102
RTVSPropertyOp2
 70
     1
102
RTVSPropertyOp3
 70
     1
102
RTVSPropertyOp4
 70
     1
102
RTVSPropertyOp5
 70
     1
102
RTVSPropertyOp6
 70
     1
102
RTVSPropertyOp7
 70
     1
102
RTVSPropertyOp8
 70
     1
102
RTVSPropertyOp9
 70
     1
102
RTVSPropertyOp10
 70
     1
102
RTVSPropertyOp11
 70
     1
102
RTVSPropertyOp12
 70
     1
102
RTVSPropertyOp13
 70
     1
102
RTVSPropertyOp14
 70
     1
102
RTVSPropertyOp15
 70
     1
102
RTVSPropertyOp16
 70
     1
102
RTVSPropertyOp17
 70
     1
102
RTVSPropertyOp18
 70
     1
102
RTVSPropertyOp19
 70
     1
102
RTVSPropertyOp20
 70
     1
102
RTVSPropertyOp21
 70
     1
102
RTVSPropertyOp22
 70
     1
102
RTVSPropertyOp23
 70
     1
102
RTVSPropertyOp24
 70
     1
102
RTVSPropertyOp25
 70
     1
102
RTVSPropertyOp26
 70
     1
102
RTVSPropertyOp27
 70
     1
102
RTVSPropertyOp28
 70
     1
102
RTVSPropertyOp29
 70
     1
102
RTVSPropertyOp30
 70
     1
102
RTVSPropertyOp31
 70
     1
102
RTVSPropertyOp32
 70
     1
102
RTVSPropertyOp33
 70
     1
102
RTVSPropertyOp34
 70
     1
102
RTVSPropertyOp35
 70
     1
102
RTVSPropertyOp36
 70
     1
102
RTVSPropertyOp37
 70
     1
102
RTVSPropertyOp38
 70
     1
102
RTVSPropertyOp39
 70
     1
102
RTVSPropertyOp40
 70
     1
102
RTVSPropertyOp41
 70
     1
102
RTVSPropertyOp42
 70
     1
102
RTVSPropertyOp43
 70
     1
102
RTVSPropertyOp44
 70
     1
102
RTVSPropertyOp45
 70
     1
102
RTVSPropertyOp46
 70
     1
102
RTVSPropertyOp47
 70
     1
102
RTVSPropertyOp48
 70
     1
102
RTVSPropertyOp49
 70
     1
102
RTVSPropertyOp50
 70
     1
102
RTVSPropertyOp51
 70
     0
102
RTVSPropertyOp52
 70
     0
102
RTVSPropertyOp53
 70
     1
102
RTVSPropertyOp54
 70
     1
102
RTVSPropertyOp55
 70
     1
102
RTVSPropertyOp56
 70
     1
102
RTVSPropertyOp57
 70
     1
102
RTVSPost2010Prop28
280
     0
102
RTVSPost2010PropOp28
 70
     1
102
RTVSPost2010Prop29
280
     1
102
RTVSPost2010PropOp29
 70
     1
102
RTVSPost2010Prop30
280
     1
102
RTVSPost2010PropOp30
 70
     1
102
RTVSPost2010Prop31
280
     0
102
RTVSPost2010PropOp31
 70
     1
102
RTVSPost2010Prop32
280
     0
102
RTVSPost2010PropOp32
 70
     1
102
RTVSPost2010Prop33
280
     0
102
RTVSPost2010PropOp33
 70
     1
102
RTVSPost2010Prop34
280
     0
102
RTVSPost2010PropOp34
 70
     1
102
RTVSPost2010Prop35
280
     0
102
RTVSPost2010PropOp35
 70
     1
102
RTVSPost2010Prop36
280
     0
102
RTVSPost2010PropOp36
 70
     1
102
RTVSPost2010Prop37
 90
       50
102
RTVSPost2010PropOp37
 70
     1
102
RTVSPost2010Prop38
140
0.0
102
RTVSPost2010PropOp38
 70
     1
102
RTVSPost2010Prop39
140
1.0
102
RTVSPost2010PropOp39
 70
     1
102
RTVSPost2010Prop40
 90
        0
102
RTVSPost2010PropOp40
 70
     1
102
RTVSPost2010Prop41ColorIndex
 90
       18
102
RTVSPost2010Prop41ColorRGB
 90
        0
102
RTVSPost2010PropOp41
 70
     1
102
RTVSPost2010Prop42
 90
       50
102
RTVSPost2010PropOp42
 70
     1
102
RTVSPost2010Prop43
 90
        3
102
RTVSPost2010PropOp43
 70
     1
102
RTVSPost2010Prop44ColorIndex
 90
        5
102
RTVSPost2010Prop44ColorRGB
 90
      255
102
RTVSPost2010PropOp44
 70
     1
102
RTVSPost2010Prop45
280
     0
102
RTVSPost2010PropOp45
 70
     1
102
RTVSPost2010Prop46
 90
       50
102
RTVSPost2010PropOp46
 70
     1
102
RTVSPost2010Prop47
 90
       50
102
RTVSPost2010PropOp47
 70
     1
102
RTVSPost2010Prop48
 90
       50
102
RTVSPost2010PropOp48
 70
     1
102
RTVSPost2010Prop49
280
     0
102
RTVSPost2010PropOp49
 70
     1
102
RTVSPost2010Prop50
 90
       50
102
RTVSPost2010PropOp50
 70
     1
102
RTVSPost2010Prop51ColorIndex
 90
      256
102
RTVSPost2010Prop51ColorRGB
 90
-16777216
102
RTVSPost2010PropOp51
 70
     0
102
RTVSPost2010Prop52
140
1.0
102
RTVSPost2010PropOp52
 70
     0
102
RTVSPost2010Prop53
 90
        2
102
RTVSPost2010PropOp53
 70
     1
102
RTVSPost2010Prop54
  1
strokes_ogs.tif
102
RTVSPost2010PropOp54
 70
     1
102
RTVSPost2010Prop55
280
     0
102
RTVSPost2010PropOp55
 70
     1
102
RTVSPost2010Prop56
140
1.0
102
RTVSPost2010PropOp56
 70
     1
102
RTVSPost2010Prop57
140
1.0
102
RTVSPost2010PropOp57
 70
     1
  0
XRECORD
  5
3B5
102
{ACAD_REACTORS
330
3B4
102
}
330
3B4
100
AcDbXrecord
280
     1
102
RTVSPropertyOp0
 70
     1
102
RTVSPropertyOp1
 70
     1
102
RTVSPropertyOp2
 70
     1
102
RTVSPropertyOp3
 70
     1
102
RTVSPropertyOp4
 70
     1
102
RTVSPropertyOp5
 70
     1
102
RTVSPropertyOp6
 70
     1
102
RTVSPropertyOp7
 70
     1
102
RTVSPropertyOp8
 70
     1
102
RTVSPropertyOp9
 70
     1
102
RTVSPropertyOp10
 70
     1
102
RTVSPropertyOp11
 70
     1
102
RTVSPropertyOp12
 70
     1
102
RTVSPropertyOp13
 70
     1
102
RTVSPropertyOp14
 70
     1
102
RTVSPropertyOp15
 70
     1
102
RTVSPropertyOp16
 70
     1
102
RTVSPropertyOp17
 70
     1
102
RTVSPropertyOp18
 70
     1
102
RTVSPropertyOp19
 70
     1
102
RTVSPropertyOp20
 70
     1
102
RTVSPropertyOp21
 70
     1
102
RTVSPropertyOp22
 70
     1
102
RTVSPropertyOp23
 70
     1
102
RTVSPropertyOp24
 70
     1
102
RTVSPropertyOp25
 70
     1
102
RTVSPropertyOp26
 70
     1
102
RTVSPropertyOp27
 70
     1
102
RTVSPropertyOp28
 70
     1
102
RTVSPropertyOp29
 70
     1
102
RTVSPropertyOp30
 70
     1
102
RTVSPropertyOp31
 70
     1
102
RTVSPropertyOp32
 70
     1
102
RTVSPropertyOp33
 70
     1
102
RTVSPropertyOp34
 70
     1
102
RTVSPropertyOp35
 70
     1
102
RTVSPropertyOp36
 70
     1
102
RTVSPropertyOp37
 70
     1
102
RTVSPropertyOp38
 70
     1
102
RTVSPropertyOp39
 70
     1
102
RTVSPropertyOp40
 70
     1
102
RTVSPropertyOp41
 70
     1
102
RTVSPropertyOp42
 70
     1
102
RTVSPropertyOp43
 70
     1
102
RTVSPropertyOp44
 70
     1
102
RTVSPropertyOp45
 70
     1
102
RTVSPropertyOp46
 70
     1
102
RTVSPropertyOp47
 70
     1
102
RTVSPropertyOp48
 70
     1
102
RTVSPropertyOp49
 70
     1
102
RTVSPropertyOp50
 70
     1
102
RTVSPropertyOp51
 70
     0
102
RTVSPropertyOp52
 70
     0
102
RTVSPropertyOp53
 70
     1
102
RTVSPropertyOp54
 70
     1
102
RTVSPropertyOp55
 70
     1
102
RTVSPropertyOp56
 70
     1
102
RTVSPropertyOp57
 70
     1
102
RTVSPost2010Prop28
280
     0
102
RTVSPost2010PropOp28
 70
     1
102
RTVSPost2010Prop29
280
     1
102
RTVSPost2010PropOp29
 70
     1
102
RTVSPost2010Prop30
280
     1
102
RTVSPost2010PropOp30
 70
     1
102
RTVSPost2010Prop31
280
     0
102
RTVSPost2010PropOp31
 70
     1
102
RTVSPost2010Prop32
280
     0
102
RTVSPost2010PropOp32
 70
     1
102
RTVSPost2010Prop33
280
     0
102
RTVSPost2010PropOp33
 70
     1
102
RTVSPost2010Prop34
280
     0
102
RTVSPost2010PropOp34
 70
     1
102
RTVSPost2010Prop35
280
     0
102
RTVSPost2010PropOp35
 70
     1
102
RTVSPost2010Prop36
280
     0
102
RTVSPost2010PropOp36
 70
     1
102
RTVSPost2010Prop37
 90
       50
102
RTVSPost2010PropOp37
 70
     1
102
RTVSPost2010Prop38
140
0.0
102
RTVSPost2010PropOp38
 70
     1
102
RTVSPost2010Prop39
140
1.0
102
RTVSPost2010PropOp39
 70
     1
102
RTVSPost2010Prop40
 90
        0
102
RTVSPost2010PropOp40
 70
     1
102
RTVSPost2010Prop41ColorIndex
 90
       18
102
RTVSPost2010Prop41ColorRGB
 90
        0
102
RTVSPost2010PropOp41
 70
     1
102
RTVSPost2010Prop42
 90
       50
102
RTVSPost2010PropOp42
 70
     1
102
RTVSPost2010Prop43
 90
        3
102
RTVSPost2010PropOp43
 70
     1
102
RTVSPost2010Prop44ColorIndex
 90
        5
102
RTVSPost2010Prop44ColorRGB
 90
      255
102
RTVSPost2010PropOp44
 70
     1
102
RTVSPost2010Prop45
280
     0
102
RTVSPost2010PropOp45
 70
     1
102
RTVSPost2010Prop46
 90
       50
102
RTVSPost2010PropOp46
 70
     1
102
RTVSPost2010Prop47
 90
       50
102
RTVSPost2010PropOp47
 70
     1
102
RTVSPost2010Prop48
 90
       50
102
RTVSPost2010PropOp48
 70
     1
102
RTVSPost2010Prop49
280
     0
102
RTVSPost2010PropOp49
 70
     1
102
RTVSPost2010Prop50
 90
       50
102
RTVSPost2010PropOp50
 70
     1
102
RTVSPost2010Prop51ColorIndex
 90
      256
102
RTVSPost2010Prop51ColorRGB
 90
-16777216
102
RTVSPost2010PropOp51
 70
     0
102
RTVSPost2010Prop52
140
1.0
102
RTVSPost2010PropOp52
 70
     0
102
RTVSPost2010Prop53
 90
        2
102
RTVSPost2010PropOp53
 70
     1
102
RTVSPost2010Prop54
  1
strokes_ogs.tif
102
RTVSPost2010PropOp54
 70
     1
102
RTVSPost2010Prop55
280
     0
102
RTVSPost2010PropOp55
 70
     1
102
RTVSPost2010Prop56
140
1.0
102
RTVSPost2010PropOp56
 70
     1
102
RTVSPost2010Prop57
140
1.0
102
RTVSPost2010PropOp57
 70
     1
  0
XRECORD
  5
3C5
102
{ACAD_REACTORS
330
3C4
102
}
330
3C4
100
AcDbXrecord
280
     1
102
RTVSPropertyOp0
 70
     0
102
RTVSPropertyOp1
 70
     0
102
RTVSPropertyOp2
 70
     0
102
RTVSPropertyOp3
 70
     0
102
RTVSPropertyOp4
 70
     0
102
RTVSPropertyOp5
 70
     0
102
RTVSPropertyOp6
 70
     0
102
RTVSPropertyOp7
 70
     0
102
RTVSPropertyOp8
 70
     0
102
RTVSPropertyOp9
 70
     0
102
RTVSPropertyOp10
 70
     0
102
RTVSPropertyOp11
 70
     0
102
RTVSPropertyOp12
 70
     0
102
RTVSPropertyOp13
 70
     0
102
RTVSPropertyOp14
 70
     2
102
RTVSPropertyOp15
 70
     0
102
RTVSPropertyOp16
 70
     0
102
RTVSPropertyOp17
 70
     0
102
RTVSPropertyOp18
 70
     0
102
RTVSPropertyOp19
 70
     0
102
RTVSPropertyOp20
 70
     0
102
RTVSPropertyOp21
 70
     0
102
RTVSPropertyOp22
 70
     0
102
RTVSPropertyOp23
 70
     0
102
RTVSPropertyOp24
 70
     0
102
RTVSPropertyOp25
 70
     0
102
RTVSPropertyOp26
 70
     0
102
RTVSPropertyOp27
 70
     0
102
RTVSPropertyOp28
 70
     0
102
RTVSPropertyOp29
 70
     0
102
RTVSPropertyOp30
 70
     0
102
RTVSPropertyOp31
 70
     0
102
RTVSPropertyOp32
 70
     0
102
RTVSPropertyOp33
 70
     0
102
RTVSPropertyOp34
 70
     0
102
RTVSPropertyOp35
 70
     0
102
RTVSPropertyOp36
 70
     0
102
RTVSPropertyOp37
 70
     0
102
RTVSPropertyOp38
 70
     0
102
RTVSPropertyOp39
 70
     0
102
RTVSPropertyOp40
 70
     0
102
RTVSPropertyOp41
 70
     0
102
RTVSPropertyOp42
 70
     0
102
RTVSPropertyOp43
 70
     0
102
RTVSPropertyOp44
 70
     0
102
RTVSPropertyOp45
 70
     0
102
RTVSPropertyOp46
 70
     0
102
RTVSPropertyOp47
 70
     0
102
RTVSPropertyOp48
 70
     0
102
RTVSPropertyOp49
 70
     0
102
RTVSPropertyOp50
 70
     0
102
RTVSPropertyOp51
 70
     0
102
RTVSPropertyOp52
 70
     0
102
RTVSPropertyOp53
 70
     0
102
RTVSPropertyOp54
 70
     0
102
RTVSPropertyOp55
 70
     0
102
RTVSPropertyOp56
 70
     0
102
RTVSPropertyOp57
 70
     0
102
RTVSPost2010Prop28
280
     0
102
RTVSPost2010PropOp28
 70
     0
102
RTVSPost2010Prop29
280
     1
102
RTVSPost2010PropOp29
 70
     0
102
RTVSPost2010Prop30
280
     1
102
RTVSPost2010PropOp30
 70
     0
102
RTVSPost2010Prop31
280
     0
102
RTVSPost2010PropOp31
 70
     0
102
RTVSPost2010Prop32
280
     0
102
RTVSPost2010PropOp32
 70
     0
102
RTVSPost2010Prop33
280
     0
102
RTVSPost2010PropOp33
 70
     0
102
RTVSPost2010Prop34
280
     0
102
RTVSPost2010PropOp34
 70
     0
102
RTVSPost2010Prop35
280
     0
102
RTVSPost2010PropOp35
 70
     0
102
RTVSPost2010Prop36
280
     0
102
RTVSPost2010PropOp36
 70
     0
102
RTVSPost2010Prop37
 90
       50
102
RTVSPost2010PropOp37
 70
     0
102
RTVSPost2010Prop38
140
0.0
102
RTVSPost2010PropOp38
 70
     0
102
RTVSPost2010Prop39
140
1.0
102
RTVSPost2010PropOp39
 70
     0
102
RTVSPost2010Prop40
 90
        0
102
RTVSPost2010PropOp40
 70
     0
102
RTVSPost2010Prop41ColorIndex
 90
       18
102
RTVSPost2010Prop41ColorRGB
 90
        0
102
RTVSPost2010PropOp41
 70
     0
102
RTVSPost2010Prop42
 90
       50
102
RTVSPost2010PropOp42
 70
     0
102
RTVSPost2010Prop43
 90
        3
102
RTVSPost2010PropOp43
 70
     0
102
RTVSPost2010Prop44ColorIndex
 90
        5
102
RTVSPost2010Prop44ColorRGB
 90
      255
102
RTVSPost2010PropOp44
 70
     0
102
RTVSPost2010Prop45
280
     0
102
RTVSPost2010PropOp45
 70
     0
102
RTVSPost2010Prop46
 90
       50
102
RTVSPost2010PropOp46
 70
     0
102
RTVSPost2010Prop47
 90
       50
102
RTVSPost2010PropOp47
 70
     0
102
RTVSPost2010Prop48
 90
       50
102
RTVSPost2010PropOp48
 70
     0
102
RTVSPost2010Prop49
280
     0
102
RTVSPost2010PropOp49
 70
     0
102
RTVSPost2010Prop50
 90
       50
102
RTVSPost2010PropOp50
 70
     0
102
RTVSPost2010Prop51ColorIndex
 90
      256
102
RTVSPost2010Prop51ColorRGB
 90
-16777216
102
RTVSPost2010PropOp51
 70
     0
102
RTVSPost2010Prop52
140
1.0
102
RTVSPost2010PropOp52
 70
     0
102
RTVSPost2010Prop53
 90
        2
102
RTVSPost2010PropOp53
 70
     0
102
RTVSPost2010Prop54
  1
strokes_ogs.tif
102
RTVSPost2010PropOp54
 70
     0
102
RTVSPost2010Prop55
280
     0
102
RTVSPost2010PropOp55
 70
     0
102
RTVSPost2010Prop56
140
1.0
102
RTVSPost2010PropOp56
 70
     0
102
RTVSPost2010Prop57
140
1.0
102
RTVSPost2010PropOp57
 70
     0
  0
XRECORD
  5
3BD
102
{ACAD_REACTORS
330
3BC
102
}
330
3BC
100
AcDbXrecord
280
     1
102
RTVSPropertyOp0
 70
     1
102
RTVSPropertyOp1
 70
     1
102
RTVSPropertyOp2
 70
     1
102
RTVSPropertyOp3
 70
     1
102
RTVSPropertyOp4
 70
     1
102
RTVSPropertyOp5
 70
     1
102
RTVSPropertyOp6
 70
     1
102
RTVSPropertyOp7
 70
     1
102
RTVSPropertyOp8
 70
     1
102
RTVSPropertyOp9
 70
     1
102
RTVSPropertyOp10
 70
     1
102
RTVSPropertyOp11
 70
     1
102
RTVSPropertyOp12
 70
     1
102
RTVSPropertyOp13
 70
     1
102
RTVSPropertyOp14
 70
     1
102
RTVSPropertyOp15
 70
     1
102
RTVSPropertyOp16
 70
     1
102
RTVSPropertyOp17
 70
     1
102
RTVSPropertyOp18
 70
     1
102
RTVSPropertyOp19
 70
     1
102
RTVSPropertyOp20
 70
     1
102
RTVSPropertyOp21
 70
     1
102
RTVSPropertyOp22
 70
     1
102
RTVSPropertyOp23
 70
     1
102
RTVSPropertyOp24
 70
     1
102
RTVSPropertyOp25
 70
     1
102
RTVSPropertyOp26
 70
     1
102
RTVSPropertyOp27
 70
     1
102
RTVSPropertyOp28
 70
     1
102
RTVSPropertyOp29
 70
     1
102
RTVSPropertyOp30
 70
     1
102
RTVSPropertyOp31
 70
     1
102
RTVSPropertyOp32
 70
     1
102
RTVSPropertyOp33
 70
     1
102
RTVSPropertyOp34
 70
     1
102
RTVSPropertyOp35
 70
     1
102
RTVSPropertyOp36
 70
     1
102
RTVSPropertyOp37
 70
     1
102
RTVSPropertyOp38
 70
     1
102
RTVSPropertyOp39
 70
     1
102
RTVSPropertyOp40
 70
     1
102
RTVSPropertyOp41
 70
     1
102
RTVSPropertyOp42
 70
     1
102
RTVSPropertyOp43
 70
     1
102
RTVSPropertyOp44
 70
     1
102
RTVSPropertyOp45
 70
     1
102
RTVSPropertyOp46
 70
     1
102
RTVSPropertyOp47
 70
     1
102
RTVSPropertyOp48
 70
     1
102
RTVSPropertyOp49
 70
     1
102
RTVSPropertyOp50
 70
     1
102
RTVSPropertyOp51
 70
     0
102
RTVSPropertyOp52
 70
     0
102
RTVSPropertyOp53
 70
     1
102
RTVSPropertyOp54
 70
     1
102
RTVSPropertyOp55
 70
     1
102
RTVSPropertyOp56
 70
     1
102
RTVSPropertyOp57
 70
     1
102
RTVSPost2010Prop28
280
     0
102
RTVSPost2010PropOp28
 70
     1
102
RTVSPost2010Prop29
280
     1
102
RTVSPost2010PropOp29
 70
     1
102
RTVSPost2010Prop30
280
     1
102
RTVSPost2010PropOp30
 70
     1
102
RTVSPost2010Prop31
280
     0
102
RTVSPost2010PropOp31
 70
     1
102
RTVSPost2010Prop32
280
     0
102
RTVSPost2010PropOp32
 70
     1
102
RTVSPost2010Prop33
280
     0
102
RTVSPost2010PropOp33
 70
     1
102
RTVSPost2010Prop34
280
     0
102
RTVSPost2010PropOp34
 70
     1
102
RTVSPost2010Prop35
280
     0
102
RTVSPost2010PropOp35
 70
     1
102
RTVSPost2010Prop36
280
     0
102
RTVSPost2010PropOp36
 70
     1
102
RTVSPost2010Prop37
 90
       50
102
RTVSPost2010PropOp37
 70
     1
102
RTVSPost2010Prop38
140
0.0
102
RTVSPost2010PropOp38
 70
     1
102
RTVSPost2010Prop39
140
1.0
102
RTVSPost2010PropOp39
 70
     1
102
RTVSPost2010Prop40
 90
        0
102
RTVSPost2010PropOp40
 70
     1
102
RTVSPost2010Prop41ColorIndex
 90
       18
102
RTVSPost2010Prop41ColorRGB
 90
        0
102
RTVSPost2010PropOp41
 70
     1
102
RTVSPost2010Prop42
 90
       50
102
RTVSPost2010PropOp42
 70
     1
102
RTVSPost2010Prop43
 90
        3
102
RTVSPost2010PropOp43
 70
     1
102
RTVSPost2010Prop44ColorIndex
 90
        5
102
RTVSPost2010Prop44ColorRGB
 90
      255
102
RTVSPost2010PropOp44
 70
     1
102
RTVSPost2010Prop45
280
     0
102
RTVSPost2010PropOp45
 70
     1
102
RTVSPost2010Prop46
 90
       50
102
RTVSPost2010PropOp46
 70
     1
102
RTVSPost2010Prop47
 90
       50
102
RTVSPost2010PropOp47
 70
     1
102
RTVSPost2010Prop48
 90
       50
102
RTVSPost2010PropOp48
 70
     1
102
RTVSPost2010Prop49
280
     0
102
RTVSPost2010PropOp49
 70
     1
102
RTVSPost2010Prop50
 90
       50
102
RTVSPost2010PropOp50
 70
     1
102
RTVSPost2010Prop51ColorIndex
 90
      256
102
RTVSPost2010Prop51ColorRGB
 90
-16777216
102
RTVSPost2010PropOp51
 70
     0
102
RTVSPost2010Prop52
140
1.0
102
RTVSPost2010PropOp52
 70
     0
102
RTVSPost2010Prop53
 90
        2
102
RTVSPost2010PropOp53
 70
     1
102
RTVSPost2010Prop54
  1
strokes_ogs.tif
102
RTVSPost2010PropOp54
 70
     1
102
RTVSPost2010Prop55
280
     0
102
RTVSPost2010PropOp55
 70
     1
102
RTVSPost2010Prop56
140
1.0
102
RTVSPost2010PropOp56
 70
     1
102
RTVSPost2010Prop57
140
1.0
102
RTVSPost2010PropOp57
 70
     1
  0
XRECORD
  5
3A1
102
{ACAD_REACTORS
330
3A0
102
}
330
3A0
100
AcDbXrecord
280
     1
102
RTVSPropertyOp0
 70
     1
102
RTVSPropertyOp1
 70
     1
102
RTVSPropertyOp2
 70
     1
102
RTVSPropertyOp3
 70
     1
102
RTVSPropertyOp4
 70
     1
102
RTVSPropertyOp5
 70
     1
102
RTVSPropertyOp6
 70
     1
102
RTVSPropertyOp7
 70
     1
102
RTVSPropertyOp8
 70
     1
102
RTVSPropertyOp9
 70
     1
102
RTVSPropertyOp10
 70
     1
102
RTVSPropertyOp11
 70
     1
102
RTVSPropertyOp12
 70
     1
102
RTVSPropertyOp13
 70
     1
102
RTVSPropertyOp14
 70
     1
102
RTVSPropertyOp15
 70
     1
102
RTVSPropertyOp16
 70
     1
102
RTVSPropertyOp17
 70
     1
102
RTVSPropertyOp18
 70
     1
102
RTVSPropertyOp19
 70
     1
102
RTVSPropertyOp20
 70
     1
102
RTVSPropertyOp21
 70
     1
102
RTVSPropertyOp22
 70
     1
102
RTVSPropertyOp23
 70
     1
102
RTVSPropertyOp24
 70
     1
102
RTVSPropertyOp25
 70
     1
102
RTVSPropertyOp26
 70
     1
102
RTVSPropertyOp27
 70
     1
102
RTVSPropertyOp28
 70
     1
102
RTVSPropertyOp29
 70
     1
102
RTVSPropertyOp30
 70
     1
102
RTVSPropertyOp31
 70
     1
102
RTVSPropertyOp32
 70
     1
102
RTVSPropertyOp33
 70
     1
102
RTVSPropertyOp34
 70
     1
102
RTVSPropertyOp35
 70
     1
102
RTVSPropertyOp36
 70
     1
102
RTVSPropertyOp37
 70
     1
102
RTVSPropertyOp38
 70
     1
102
RTVSPropertyOp39
 70
     1
102
RTVSPropertyOp40
 70
     1
102
RTVSPropertyOp41
 70
     1
102
RTVSPropertyOp42
 70
     1
102
RTVSPropertyOp43
 70
     1
102
RTVSPropertyOp44
 70
     1
102
RTVSPropertyOp45
 70
     1
102
RTVSPropertyOp46
 70
     1
102
RTVSPropertyOp47
 70
     1
102
RTVSPropertyOp48
 70
     1
102
RTVSPropertyOp49
 70
     1
102
RTVSPropertyOp50
 70
     1
102
RTVSPropertyOp51
 70
     0
102
RTVSPropertyOp52
 70
     0
102
RTVSPropertyOp53
 70
     1
102
RTVSPropertyOp54
 70
     1
102
RTVSPropertyOp55
 70
     1
102
RTVSPropertyOp56
 70
     1
102
RTVSPropertyOp57
 70
     1
102
RTVSPost2010Prop28
280
     0
102
RTVSPost2010PropOp28
 70
     1
102
RTVSPost2010Prop29
280
     1
102
RTVSPost2010PropOp29
 70
     1
102
RTVSPost2010Prop30
280
     1
102
RTVSPost2010PropOp30
 70
     1
102
RTVSPost2010Prop31
280
     0
102
RTVSPost2010PropOp31
 70
     1
102
RTVSPost2010Prop32
280
     0
102
RTVSPost2010PropOp32
 70
     1
102
RTVSPost2010Prop33
280
     0
102
RTVSPost2010PropOp33
 70
     1
102
RTVSPost2010Prop34
280
     0
102
RTVSPost2010PropOp34
 70
     1
102
RTVSPost2010Prop35
280
     0
102
RTVSPost2010PropOp35
 70
     1
102
RTVSPost2010Prop36
280
     0
102
RTVSPost2010PropOp36
 70
     1
102
RTVSPost2010Prop37
 90
       50
102
RTVSPost2010PropOp37
 70
     1
102
RTVSPost2010Prop38
140
0.0
102
RTVSPost2010PropOp38
 70
     1
102
RTVSPost2010Prop39
140
1.0
102
RTVSPost2010PropOp39
 70
     1
102
RTVSPost2010Prop40
 90
        0
102
RTVSPost2010PropOp40
 70
     1
102
RTVSPost2010Prop41ColorIndex
 90
       18
102
RTVSPost2010Prop41ColorRGB
 90
        0
102
RTVSPost2010PropOp41
 70
     1
102
RTVSPost2010Prop42
 90
       50
102
RTVSPost2010PropOp42
 70
     1
102
RTVSPost2010Prop43
 90
        3
102
RTVSPost2010PropOp43
 70
     1
102
RTVSPost2010Prop44ColorIndex
 90
        5
102
RTVSPost2010Prop44ColorRGB
 90
      255
102
RTVSPost2010PropOp44
 70
     1
102
RTVSPost2010Prop45
280
     0
102
RTVSPost2010PropOp45
 70
     1
102
RTVSPost2010Prop46
 90
       50
102
RTVSPost2010PropOp46
 70
     1
102
RTVSPost2010Prop47
 90
       50
102
RTVSPost2010PropOp47
 70
     1
102
RTVSPost2010Prop48
 90
       50
102
RTVSPost2010PropOp48
 70
     1
102
RTVSPost2010Prop49
280
     0
102
RTVSPost2010PropOp49
 70
     1
102
RTVSPost2010Prop50
 90
       50
102
RTVSPost2010PropOp50
 70
     1
102
RTVSPost2010Prop51ColorIndex
 90
      256
102
RTVSPost2010Prop51ColorRGB
 90
-16777216
102
RTVSPost2010PropOp51
 70
     0
102
RTVSPost2010Prop52
140
1.0
102
RTVSPost2010PropOp52
 70
     0
102
RTVSPost2010Prop53
 90
        2
102
RTVSPost2010PropOp53
 70
     1
102
RTVSPost2010Prop54
  1
strokes_ogs.tif
102
RTVSPost2010PropOp54
 70
     1
102
RTVSPost2010Prop55
280
     0
102
RTVSPost2010PropOp55
 70
     1
102
RTVSPost2010Prop56
140
1.0
102
RTVSPost2010PropOp56
 70
     1
102
RTVSPost2010Prop57
140
1.0
102
RTVSPost2010PropOp57
 70
     1
  0
XRECORD
  5
3A3
102
{ACAD_REACTORS
330
3A2
102
}
330
3A2
100
AcDbXrecord
280
     1
102
RTVSPropertyOp0
 70
     1
102
RTVSPropertyOp1
 70
     1
102
RTVSPropertyOp2
 70
     1
102
RTVSPropertyOp3
 70
     1
102
RTVSPropertyOp4
 70
     1
102
RTVSPropertyOp5
 70
     1
102
RTVSPropertyOp6
 70
     1
102
RTVSPropertyOp7
 70
     1
102
RTVSPropertyOp8
 70
     1
102
RTVSPropertyOp9
 70
     1
102
RTVSPropertyOp10
 70
     1
102
RTVSPropertyOp11
 70
     1
102
RTVSPropertyOp12
 70
     1
102
RTVSPropertyOp13
 70
     1
102
RTVSPropertyOp14
 70
     1
102
RTVSPropertyOp15
 70
     1
102
RTVSPropertyOp16
 70
     1
102
RTVSPropertyOp17
 70
     1
102
RTVSPropertyOp18
 70
     1
102
RTVSPropertyOp19
 70
     1
102
RTVSPropertyOp20
 70
     1
102
RTVSPropertyOp21
 70
     1
102
RTVSPropertyOp22
 70
     1
102
RTVSPropertyOp23
 70
     1
102
RTVSPropertyOp24
 70
     1
102
RTVSPropertyOp25
 70
     1
102
RTVSPropertyOp26
 70
     1
102
RTVSPropertyOp27
 70
     1
102
RTVSPropertyOp28
 70
     1
102
RTVSPropertyOp29
 70
     1
102
RTVSPropertyOp30
 70
     1
102
RTVSPropertyOp31
 70
     1
102
RTVSPropertyOp32
 70
     1
102
RTVSPropertyOp33
 70
     1
102
RTVSPropertyOp34
 70
     1
102
RTVSPropertyOp35
 70
     1
102
RTVSPropertyOp36
 70
     1
102
RTVSPropertyOp37
 70
     1
102
RTVSPropertyOp38
 70
     1
102
RTVSPropertyOp39
 70
     1
102
RTVSPropertyOp40
 70
     1
102
RTVSPropertyOp41
 70
     1
102
RTVSPropertyOp42
 70
     1
102
RTVSPropertyOp43
 70
     1
102
RTVSPropertyOp44
 70
     1
102
RTVSPropertyOp45
 70
     1
102
RTVSPropertyOp46
 70
     1
102
RTVSPropertyOp47
 70
     1
102
RTVSPropertyOp48
 70
     1
102
RTVSPropertyOp49
 70
     1
102
RTVSPropertyOp50
 70
     1
102
RTVSPropertyOp51
 70
     0
102
RTVSPropertyOp52
 70
     0
102
RTVSPropertyOp53
 70
     1
102
RTVSPropertyOp54
 70
     1
102
RTVSPropertyOp55
 70
     1
102
RTVSPropertyOp56
 70
     1
102
RTVSPropertyOp57
 70
     1
102
RTVSPost2010Prop28
280
     0
102
RTVSPost2010PropOp28
 70
     1
102
RTVSPost2010Prop29
280
     1
102
RTVSPost2010PropOp29
 70
     1
102
RTVSPost2010Prop30
280
     1
102
RTVSPost2010PropOp30
 70
     1
102
RTVSPost2010Prop31
280
     0
102
RTVSPost2010PropOp31
 70
     1
102
RTVSPost2010Prop32
280
     0
102
RTVSPost2010PropOp32
 70
     1
102
RTVSPost2010Prop33
280
     0
102
RTVSPost2010PropOp33
 70
     1
102
RTVSPost2010Prop34
280
     0
102
RTVSPost2010PropOp34
 70
     1
102
RTVSPost2010Prop35
280
     0
102
RTVSPost2010PropOp35
 70
     1
102
RTVSPost2010Prop36
280
     0
102
RTVSPost2010PropOp36
 70
     1
102
RTVSPost2010Prop37
 90
       50
102
RTVSPost2010PropOp37
 70
     1
102
RTVSPost2010Prop38
140
0.0
102
RTVSPost2010PropOp38
 70
     1
102
RTVSPost2010Prop39
140
1.0
102
RTVSPost2010PropOp39
 70
     1
102
RTVSPost2010Prop40
 90
        0
102
RTVSPost2010PropOp40
 70
     1
102
RTVSPost2010Prop41ColorIndex
 90
       18
102
RTVSPost2010Prop41ColorRGB
 90
        0
102
RTVSPost2010PropOp41
 70
     1
102
RTVSPost2010Prop42
 90
       50
102
RTVSPost2010PropOp42
 70
     1
102
RTVSPost2010Prop43
 90
        3
102
RTVSPost2010PropOp43
 70
     1
102
RTVSPost2010Prop44ColorIndex
 90
        5
102
RTVSPost2010Prop44ColorRGB
 90
      255
102
RTVSPost2010PropOp44
 70
     1
102
RTVSPost2010Prop45
280
     0
102
RTVSPost2010PropOp45
 70
     1
102
RTVSPost2010Prop46
 90
       50
102
RTVSPost2010PropOp46
 70
     1
102
RTVSPost2010Prop47
 90
       50
102
RTVSPost2010PropOp47
 70
     1
102
RTVSPost2010Prop48
 90
       50
102
RTVSPost2010PropOp48
 70
     1
102
RTVSPost2010Prop49
280
     0
102
RTVSPost2010PropOp49
 70
     1
102
RTVSPost2010Prop50
 90
       50
102
RTVSPost2010PropOp50
 70
     1
102
RTVSPost2010Prop51ColorIndex
 90
      256
102
RTVSPost2010Prop51ColorRGB
 90
-16777216
102
RTVSPost2010PropOp51
 70
     0
102
RTVSPost2010Prop52
140
1.0
102
RTVSPost2010PropOp52
 70
     0
102
RTVSPost2010Prop53
 90
        2
102
RTVSPost2010PropOp53
 70
     1
102
RTVSPost2010Prop54
  1
strokes_ogs.tif
102
RTVSPost2010PropOp54
 70
     1
102
RTVSPost2010Prop55
280
     0
102
RTVSPost2010PropOp55
 70
     1
102
RTVSPost2010Prop56
140
1.0
102
RTVSPost2010PropOp56
 70
     1
102
RTVSPost2010Prop57
140
1.0
102
RTVSPost2010PropOp57
 70
     1
  0
XRECORD
  5
3A5
102
{ACAD_REACTORS
330
3A4
102
}
330
3A4
100
AcDbXrecord
280
     1
102
RTVSPropertyOp0
 70
     1
102
RTVSPropertyOp1
 70
     1
102
RTVSPropertyOp2
 70
     1
102
RTVSPropertyOp3
 70
     1
102
RTVSPropertyOp4
 70
     1
102
RTVSPropertyOp5
 70
     1
102
RTVSPropertyOp6
 70
     1
102
RTVSPropertyOp7
 70
     1
102
RTVSPropertyOp8
 70
     1
102
RTVSPropertyOp9
 70
     1
102
RTVSPropertyOp10
 70
     1
102
RTVSPropertyOp11
 70
     1
102
RTVSPropertyOp12
 70
     1
102
RTVSPropertyOp13
 70
     1
102
RTVSPropertyOp14
 70
     1
102
RTVSPropertyOp15
 70
     1
102
RTVSPropertyOp16
 70
     1
102
RTVSPropertyOp17
 70
     1
102
RTVSPropertyOp18
 70
     1
102
RTVSPropertyOp19
 70
     1
102
RTVSPropertyOp20
 70
     1
102
RTVSPropertyOp21
 70
     1
102
RTVSPropertyOp22
 70
     1
102
RTVSPropertyOp23
 70
     1
102
RTVSPropertyOp24
 70
     1
102
RTVSPropertyOp25
 70
     1
102
RTVSPropertyOp26
 70
     1
102
RTVSPropertyOp27
 70
     1
102
RTVSPropertyOp28
 70
     1
102
RTVSPropertyOp29
 70
     1
102
RTVSPropertyOp30
 70
     1
102
RTVSPropertyOp31
 70
     1
102
RTVSPropertyOp32
 70
     1
102
RTVSPropertyOp33
 70
     1
102
RTVSPropertyOp34
 70
     1
102
RTVSPropertyOp35
 70
     1
102
RTVSPropertyOp36
 70
     1
102
RTVSPropertyOp37
 70
     1
102
RTVSPropertyOp38
 70
     1
102
RTVSPropertyOp39
 70
     1
102
RTVSPropertyOp40
 70
     1
102
RTVSPropertyOp41
 70
     1
102
RTVSPropertyOp42
 70
     1
102
RTVSPropertyOp43
 70
     1
102
RTVSPropertyOp44
 70
     1
102
RTVSPropertyOp45
 70
     1
102
RTVSPropertyOp46
 70
     1
102
RTVSPropertyOp47
 70
     1
102
RTVSPropertyOp48
 70
     1
102
RTVSPropertyOp49
 70
     1
102
RTVSPropertyOp50
 70
     1
102
RTVSPropertyOp51
 70
     0
102
RTVSPropertyOp52
 70
     0
102
RTVSPropertyOp53
 70
     1
102
RTVSPropertyOp54
 70
     1
102
RTVSPropertyOp55
 70
     1
102
RTVSPropertyOp56
 70
     1
102
RTVSPropertyOp57
 70
     1
102
RTVSPost2010Prop28
280
     0
102
RTVSPost2010PropOp28
 70
     1
102
RTVSPost2010Prop29
280
     1
102
RTVSPost2010PropOp29
 70
     1
102
RTVSPost2010Prop30
280
     1
102
RTVSPost2010PropOp30
 70
     1
102
RTVSPost2010Prop31
280
     0
102
RTVSPost2010PropOp31
 70
     1
102
RTVSPost2010Prop32
280
     0
102
RTVSPost2010PropOp32
 70
     1
102
RTVSPost2010Prop33
280
     0
102
RTVSPost2010PropOp33
 70
     1
102
RTVSPost2010Prop34
280
     0
102
RTVSPost2010PropOp34
 70
     1
102
RTVSPost2010Prop35
280
     0
102
RTVSPost2010PropOp35
 70
     1
102
RTVSPost2010Prop36
280
     0
102
RTVSPost2010PropOp36
 70
     1
102
RTVSPost2010Prop37
 90
       50
102
RTVSPost2010PropOp37
 70
     1
102
RTVSPost2010Prop38
140
0.0
102
RTVSPost2010PropOp38
 70
     1
102
RTVSPost2010Prop39
140
1.0
102
RTVSPost2010PropOp39
 70
     1
102
RTVSPost2010Prop40
 90
        0
102
RTVSPost2010PropOp40
 70
     1
102
RTVSPost2010Prop41ColorIndex
 90
       18
102
RTVSPost2010Prop41ColorRGB
 90
        0
102
RTVSPost2010PropOp41
 70
     1
102
RTVSPost2010Prop42
 90
       50
102
RTVSPost2010PropOp42
 70
     1
102
RTVSPost2010Prop43
 90
        3
102
RTVSPost2010PropOp43
 70
     1
102
RTVSPost2010Prop44ColorIndex
 90
        5
102
RTVSPost2010Prop44ColorRGB
 90
      255
102
RTVSPost2010PropOp44
 70
     1
102
RTVSPost2010Prop45
280
     0
102
RTVSPost2010PropOp45
 70
     1
102
RTVSPost2010Prop46
 90
       50
102
RTVSPost2010PropOp46
 70
     1
102
RTVSPost2010Prop47
 90
       50
102
RTVSPost2010PropOp47
 70
     1
102
RTVSPost2010Prop48
 90
       50
102
RTVSPost2010PropOp48
 70
     1
102
RTVSPost2010Prop49
280
     0
102
RTVSPost2010PropOp49
 70
     1
102
RTVSPost2010Prop50
 90
       50
102
RTVSPost2010PropOp50
 70
     1
102
RTVSPost2010Prop51ColorIndex
 90
      256
102
RTVSPost2010Prop51ColorRGB
 90
-16777216
102
RTVSPost2010PropOp51
 70
     0
102
RTVSPost2010Prop52
140
1.0
102
RTVSPost2010PropOp52
 70
     0
102
RTVSPost2010Prop53
 90
        2
102
RTVSPost2010PropOp53
 70
     1
102
RTVSPost2010Prop54
  1
strokes_ogs.tif
102
RTVSPost2010PropOp54
 70
     1
102
RTVSPost2010Prop55
280
     0
102
RTVSPost2010PropOp55
 70
     1
102
RTVSPost2010Prop56
140
1.0
102
RTVSPost2010PropOp56
 70
     1
102
RTVSPost2010Prop57
140
1.0
102
RTVSPost2010PropOp57
 70
     1
  0
XRECORD
  5
3A7
102
{ACAD_REACTORS
330
3A6
102
}
330
3A6
100
AcDbXrecord
280
     1
102
RTVSPropertyOp0
 70
     1
102
RTVSPropertyOp1
 70
     1
102
RTVSPropertyOp2
 70
     1
102
RTVSPropertyOp3
 70
     1
102
RTVSPropertyOp4
 70
     1
102
RTVSPropertyOp5
 70
     1
102
RTVSPropertyOp6
 70
     1
102
RTVSPropertyOp7
 70
     1
102
RTVSPropertyOp8
 70
     1
102
RTVSPropertyOp9
 70
     1
102
RTVSPropertyOp10
 70
     1
102
RTVSPropertyOp11
 70
     1
102
RTVSPropertyOp12
 70
     1
102
RTVSPropertyOp13
 70
     1
102
RTVSPropertyOp14
 70
     1
102
RTVSPropertyOp15
 70
     1
102
RTVSPropertyOp16
 70
     1
102
RTVSPropertyOp17
 70
     1
102
RTVSPropertyOp18
 70
     1
102
RTVSPropertyOp19
 70
     1
102
RTVSPropertyOp20
 70
     1
102
RTVSPropertyOp21
 70
     1
102
RTVSPropertyOp22
 70
     1
102
RTVSPropertyOp23
 70
     1
102
RTVSPropertyOp24
 70
     1
102
RTVSPropertyOp25
 70
     1
102
RTVSPropertyOp26
 70
     1
102
RTVSPropertyOp27
 70
     1
102
RTVSPropertyOp28
 70
     1
102
RTVSPropertyOp29
 70
     1
102
RTVSPropertyOp30
 70
     1
102
RTVSPropertyOp31
 70
     1
102
RTVSPropertyOp32
 70
     1
102
RTVSPropertyOp33
 70
     1
102
RTVSPropertyOp34
 70
     1
102
RTVSPropertyOp35
 70
     1
102
RTVSPropertyOp36
 70
     1
102
RTVSPropertyOp37
 70
     1
102
RTVSPropertyOp38
 70
     1
102
RTVSPropertyOp39
 70
     1
102
RTVSPropertyOp40
 70
     1
102
RTVSPropertyOp41
 70
     1
102
RTVSPropertyOp42
 70
     1
102
RTVSPropertyOp43
 70
     1
102
RTVSPropertyOp44
 70
     1
102
RTVSPropertyOp45
 70
     1
102
RTVSPropertyOp46
 70
     1
102
RTVSPropertyOp47
 70
     1
102
RTVSPropertyOp48
 70
     1
102
RTVSPropertyOp49
 70
     1
102
RTVSPropertyOp50
 70
     1
102
RTVSPropertyOp51
 70
     0
102
RTVSPropertyOp52
 70
     0
102
RTVSPropertyOp53
 70
     1
102
RTVSPropertyOp54
 70
     1
102
RTVSPropertyOp55
 70
     1
102
RTVSPropertyOp56
 70
     1
102
RTVSPropertyOp57
 70
     1
102
RTVSPost2010Prop28
280
     0
102
RTVSPost2010PropOp28
 70
     1
102
RTVSPost2010Prop29
280
     1
102
RTVSPost2010PropOp29
 70
     1
102
RTVSPost2010Prop30
280
     1
102
RTVSPost2010PropOp30
 70
     1
102
RTVSPost2010Prop31
280
     0
102
RTVSPost2010PropOp31
 70
     1
102
RTVSPost2010Prop32
280
     0
102
RTVSPost2010PropOp32
 70
     1
102
RTVSPost2010Prop33
280
     0
102
RTVSPost2010PropOp33
 70
     1
102
RTVSPost2010Prop34
280
     0
102
RTVSPost2010PropOp34
 70
     1
102
RTVSPost2010Prop35
280
     0
102
RTVSPost2010PropOp35
 70
     1
102
RTVSPost2010Prop36
280
     0
102
RTVSPost2010PropOp36
 70
     1
102
RTVSPost2010Prop37
 90
       50
102
RTVSPost2010PropOp37
 70
     1
102
RTVSPost2010Prop38
140
0.0
102
RTVSPost2010PropOp38
 70
     1
102
RTVSPost2010Prop39
140
1.0
102
RTVSPost2010PropOp39
 70
     1
102
RTVSPost2010Prop40
 90
        0
102
RTVSPost2010PropOp40
 70
     1
102
RTVSPost2010Prop41ColorIndex
 90
       18
102
RTVSPost2010Prop41ColorRGB
 90
        0
102
RTVSPost2010PropOp41
 70
     1
102
RTVSPost2010Prop42
 90
       50
102
RTVSPost2010PropOp42
 70
     1
102
RTVSPost2010Prop43
 90
        3
102
RTVSPost2010PropOp43
 70
     1
102
RTVSPost2010Prop44ColorIndex
 90
        5
102
RTVSPost2010Prop44ColorRGB
 90
      255
102
RTVSPost2010PropOp44
 70
     1
102
RTVSPost2010Prop45
280
     0
102
RTVSPost2010PropOp45
 70
     1
102
RTVSPost2010Prop46
 90
       50
102
RTVSPost2010PropOp46
 70
     1
102
RTVSPost2010Prop47
 90
       50
102
RTVSPost2010PropOp47
 70
     1
102
RTVSPost2010Prop48
 90
       50
102
RTVSPost2010PropOp48
 70
     1
102
RTVSPost2010Prop49
280
     0
102
RTVSPost2010PropOp49
 70
     1
102
RTVSPost2010Prop50
 90
       50
102
RTVSPost2010PropOp50
 70
     1
102
RTVSPost2010Prop51ColorIndex
 90
      256
102
RTVSPost2010Prop51ColorRGB
 90
-16777216
102
RTVSPost2010PropOp51
 70
     0
102
RTVSPost2010Prop52
140
1.0
102
RTVSPost2010PropOp52
 70
     0
102
RTVSPost2010Prop53
 90
        2
102
RTVSPost2010PropOp53
 70
     1
102
RTVSPost2010Prop54
  1
strokes_ogs.tif
102
RTVSPost2010PropOp54
 70
     1
102
RTVSPost2010Prop55
280
     0
102
RTVSPost2010PropOp55
 70
     1
102
RTVSPost2010Prop56
140
1.0
102
RTVSPost2010PropOp56
 70
     1
102
RTVSPost2010Prop57
140
1.0
102
RTVSPost2010PropOp57
 70
     1
  0
XRECORD
  5
3AD
102
{ACAD_REACTORS
330
3AC
102
}
330
3AC
100
AcDbXrecord
280
     1
102
RTVSPropertyOp0
 70
     1
102
RTVSPropertyOp1
 70
     1
102
RTVSPropertyOp2
 70
     1
102
RTVSPropertyOp3
 70
     1
102
RTVSPropertyOp4
 70
     1
102
RTVSPropertyOp5
 70
     1
102
RTVSPropertyOp6
 70
     1
102
RTVSPropertyOp7
 70
     1
102
RTVSPropertyOp8
 70
     1
102
RTVSPropertyOp9
 70
     1
102
RTVSPropertyOp10
 70
     1
102
RTVSPropertyOp11
 70
     1
102
RTVSPropertyOp12
 70
     1
102
RTVSPropertyOp13
 70
     1
102
RTVSPropertyOp14
 70
     1
102
RTVSPropertyOp15
 70
     1
102
RTVSPropertyOp16
 70
     1
102
RTVSPropertyOp17
 70
     1
102
RTVSPropertyOp18
 70
     1
102
RTVSPropertyOp19
 70
     1
102
RTVSPropertyOp20
 70
     1
102
RTVSPropertyOp21
 70
     1
102
RTVSPropertyOp22
 70
     1
102
RTVSPropertyOp23
 70
     1
102
RTVSPropertyOp24
 70
     1
102
RTVSPropertyOp25
 70
     1
102
RTVSPropertyOp26
 70
     1
102
RTVSPropertyOp27
 70
     1
102
RTVSPropertyOp28
 70
     1
102
RTVSPropertyOp29
 70
     1
102
RTVSPropertyOp30
 70
     1
102
RTVSPropertyOp31
 70
     1
102
RTVSPropertyOp32
 70
     1
102
RTVSPropertyOp33
 70
     1
102
RTVSPropertyOp34
 70
     1
102
RTVSPropertyOp35
 70
     1
102
RTVSPropertyOp36
 70
     1
102
RTVSPropertyOp37
 70
     1
102
RTVSPropertyOp38
 70
     1
102
RTVSPropertyOp39
 70
     1
102
RTVSPropertyOp40
 70
     1
102
RTVSPropertyOp41
 70
     1
102
RTVSPropertyOp42
 70
     1
102
RTVSPropertyOp43
 70
     1
102
RTVSPropertyOp44
 70
     1
102
RTVSPropertyOp45
 70
     1
102
RTVSPropertyOp46
 70
     1
102
RTVSPropertyOp47
 70
     1
102
RTVSPropertyOp48
 70
     1
102
RTVSPropertyOp49
 70
     1
102
RTVSPropertyOp50
 70
     1
102
RTVSPropertyOp51
 70
     0
102
RTVSPropertyOp52
 70
     0
102
RTVSPropertyOp53
 70
     1
102
RTVSPropertyOp54
 70
     1
102
RTVSPropertyOp55
 70
     1
102
RTVSPropertyOp56
 70
     1
102
RTVSPropertyOp57
 70
     1
102
RTVSPost2010Prop28
280
     0
102
RTVSPost2010PropOp28
 70
     1
102
RTVSPost2010Prop29
280
     1
102
RTVSPost2010PropOp29
 70
     1
102
RTVSPost2010Prop30
280
     1
102
RTVSPost2010PropOp30
 70
     1
102
RTVSPost2010Prop31
280
     0
102
RTVSPost2010PropOp31
 70
     1
102
RTVSPost2010Prop32
280
     0
102
RTVSPost2010PropOp32
 70
     1
102
RTVSPost2010Prop33
280
     0
102
RTVSPost2010PropOp33
 70
     1
102
RTVSPost2010Prop34
280
     0
102
RTVSPost2010PropOp34
 70
     1
102
RTVSPost2010Prop35
280
     0
102
RTVSPost2010PropOp35
 70
     1
102
RTVSPost2010Prop36
280
     0
102
RTVSPost2010PropOp36
 70
     1
102
RTVSPost2010Prop37
 90
       50
102
RTVSPost2010PropOp37
 70
     1
102
RTVSPost2010Prop38
140
0.0
102
RTVSPost2010PropOp38
 70
     1
102
RTVSPost2010Prop39
140
1.0
102
RTVSPost2010PropOp39
 70
     1
102
RTVSPost2010Prop40
 90
        0
102
RTVSPost2010PropOp40
 70
     1
102
RTVSPost2010Prop41ColorIndex
 90
       18
102
RTVSPost2010Prop41ColorRGB
 90
        0
102
RTVSPost2010PropOp41
 70
     1
102
RTVSPost2010Prop42
 90
       50
102
RTVSPost2010PropOp42
 70
     1
102
RTVSPost2010Prop43
 90
        3
102
RTVSPost2010PropOp43
 70
     1
102
RTVSPost2010Prop44ColorIndex
 90
        5
102
RTVSPost2010Prop44ColorRGB
 90
      255
102
RTVSPost2010PropOp44
 70
     1
102
RTVSPost2010Prop45
280
     0
102
RTVSPost2010PropOp45
 70
     1
102
RTVSPost2010Prop46
 90
       50
102
RTVSPost2010PropOp46
 70
     1
102
RTVSPost2010Prop47
 90
       50
102
RTVSPost2010PropOp47
 70
     1
102
RTVSPost2010Prop48
 90
       50
102
RTVSPost2010PropOp48
 70
     1
102
RTVSPost2010Prop49
280
     0
102
RTVSPost2010PropOp49
 70
     1
102
RTVSPost2010Prop50
 90
       50
102
RTVSPost2010PropOp50
 70
     1
102
RTVSPost2010Prop51ColorIndex
 90
      256
102
RTVSPost2010Prop51ColorRGB
 90
-16777216
102
RTVSPost2010PropOp51
 70
     0
102
RTVSPost2010Prop52
140
1.0
102
RTVSPost2010PropOp52
 70
     0
102
RTVSPost2010Prop53
 90
        2
102
RTVSPost2010PropOp53
 70
     1
102
RTVSPost2010Prop54
  1
strokes_ogs.tif
102
RTVSPost2010PropOp54
 70
     1
102
RTVSPost2010Prop55
280
     0
102
RTVSPost2010PropOp55
 70
     1
102
RTVSPost2010Prop56
140
1.0
102
RTVSPost2010PropOp56
 70
     1
102
RTVSPost2010Prop57
140
1.0
102
RTVSPost2010PropOp57
 70
     1
  0
XRECORD
  5
3C1
102
{ACAD_REACTORS
330
3C0
102
}
330
3C0
100
AcDbXrecord
280
     1
102
RTVSPropertyOp0
 70
     0
102
RTVSPropertyOp1
 70
     0
102
RTVSPropertyOp2
 70
     0
102
RTVSPropertyOp3
 70
     0
102
RTVSPropertyOp4
 70
     0
102
RTVSPropertyOp5
 70
     0
102
RTVSPropertyOp6
 70
     0
102
RTVSPropertyOp7
 70
     0
102
RTVSPropertyOp8
 70
     0
102
RTVSPropertyOp9
 70
     0
102
RTVSPropertyOp10
 70
     0
102
RTVSPropertyOp11
 70
     0
102
RTVSPropertyOp12
 70
     0
102
RTVSPropertyOp13
 70
     0
102
RTVSPropertyOp14
 70
     2
102
RTVSPropertyOp15
 70
     0
102
RTVSPropertyOp16
 70
     0
102
RTVSPropertyOp17
 70
     0
102
RTVSPropertyOp18
 70
     0
102
RTVSPropertyOp19
 70
     0
102
RTVSPropertyOp20
 70
     0
102
RTVSPropertyOp21
 70
     0
102
RTVSPropertyOp22
 70
     0
102
RTVSPropertyOp23
 70
     0
102
RTVSPropertyOp24
 70
     0
102
RTVSPropertyOp25
 70
     0
102
RTVSPropertyOp26
 70
     0
102
RTVSPropertyOp27
 70
     0
102
RTVSPropertyOp28
 70
     0
102
RTVSPropertyOp29
 70
     0
102
RTVSPropertyOp30
 70
     0
102
RTVSPropertyOp31
 70
     0
102
RTVSPropertyOp32
 70
     0
102
RTVSPropertyOp33
 70
     0
102
RTVSPropertyOp34
 70
     0
102
RTVSPropertyOp35
 70
     0
102
RTVSPropertyOp36
 70
     0
102
RTVSPropertyOp37
 70
     0
102
RTVSPropertyOp38
 70
     0
102
RTVSPropertyOp39
 70
     0
102
RTVSPropertyOp40
 70
     0
102
RTVSPropertyOp41
 70
     0
102
RTVSPropertyOp42
 70
     0
102
RTVSPropertyOp43
 70
     0
102
RTVSPropertyOp44
 70
     0
102
RTVSPropertyOp45
 70
     0
102
RTVSPropertyOp46
 70
     0
102
RTVSPropertyOp47
 70
     0
102
RTVSPropertyOp48
 70
     0
102
RTVSPropertyOp49
 70
     0
102
RTVSPropertyOp50
 70
     0
102
RTVSPropertyOp51
 70
     0
102
RTVSPropertyOp52
 70
     0
102
RTVSPropertyOp53
 70
     0
102
RTVSPropertyOp54
 70
     0
102
RTVSPropertyOp55
 70
     0
102
RTVSPropertyOp56
 70
     0
102
RTVSPropertyOp57
 70
     0
102
RTVSPost2010Prop28
280
     0
102
RTVSPost2010PropOp28
 70
     0
102
RTVSPost2010Prop29
280
     1
102
RTVSPost2010PropOp29
 70
     0
102
RTVSPost2010Prop30
280
     1
102
RTVSPost2010PropOp30
 70
     0
102
RTVSPost2010Prop31
280
     0
102
RTVSPost2010PropOp31
 70
     0
102
RTVSPost2010Prop32
280
     0
102
RTVSPost2010PropOp32
 70
     0
102
RTVSPost2010Prop33
280
     0
102
RTVSPost2010PropOp33
 70
     0
102
RTVSPost2010Prop34
280
     0
102
RTVSPost2010PropOp34
 70
     0
102
RTVSPost2010Prop35
280
     0
102
RTVSPost2010PropOp35
 70
     0
102
RTVSPost2010Prop36
280
     0
102
RTVSPost2010PropOp36
 70
     0
102
RTVSPost2010Prop37
 90
       50
102
RTVSPost2010PropOp37
 70
     0
102
RTVSPost2010Prop38
140
0.0
102
RTVSPost2010PropOp38
 70
     0
102
RTVSPost2010Prop39
140
1.0
102
RTVSPost2010PropOp39
 70
     0
102
RTVSPost2010Prop40
 90
        0
102
RTVSPost2010PropOp40
 70
     0
102
RTVSPost2010Prop41ColorIndex
 90
       18
102
RTVSPost2010Prop41ColorRGB
 90
        0
102
RTVSPost2010PropOp41
 70
     0
102
RTVSPost2010Prop42
 90
       50
102
RTVSPost2010PropOp42
 70
     0
102
RTVSPost2010Prop43
 90
        3
102
RTVSPost2010PropOp43
 70
     0
102
RTVSPost2010Prop44ColorIndex
 90
        5
102
RTVSPost2010Prop44ColorRGB
 90
      255
102
RTVSPost2010PropOp44
 70
     0
102
RTVSPost2010Prop45
280
     0
102
RTVSPost2010PropOp45
 70
     0
102
RTVSPost2010Prop46
 90
       50
102
RTVSPost2010PropOp46
 70
     0
102
RTVSPost2010Prop47
 90
       50
102
RTVSPost2010PropOp47
 70
     0
102
RTVSPost2010Prop48
 90
       50
102
RTVSPost2010PropOp48
 70
     0
102
RTVSPost2010Prop49
280
     0
102
RTVSPost2010PropOp49
 70
     0
102
RTVSPost2010Prop50
 90
       50
102
RTVSPost2010PropOp50
 70
     0
102
RTVSPost2010Prop51ColorIndex
 90
      256
102
RTVSPost2010Prop51ColorRGB
 90
-16777216
102
RTVSPost2010PropOp51
 70
     0
102
RTVSPost2010Prop52
140
1.0
102
RTVSPost2010PropOp52
 70
     0
102
RTVSPost2010Prop53
 90
        2
102
RTVSPost2010PropOp53
 70
     0
102
RTVSPost2010Prop54
  1
strokes_ogs.tif
102
RTVSPost2010PropOp54
 70
     0
102
RTVSPost2010Prop55
280
     0
102
RTVSPost2010PropOp55
 70
     0
102
RTVSPost2010Prop56
140
1.0
102
RTVSPost2010PropOp56
 70
     0
102
RTVSPost2010Prop57
140
1.0
102
RTVSPost2010PropOp57
 70
     0
  0
XRECORD
  5
3BB
102
{ACAD_REACTORS
330
3BA
102
}
330
3BA
100
AcDbXrecord
280
     1
102
RTVSPropertyOp0
 70
     1
102
RTVSPropertyOp1
 70
     1
102
RTVSPropertyOp2
 70
     1
102
RTVSPropertyOp3
 70
     1
102
RTVSPropertyOp4
 70
     1
102
RTVSPropertyOp5
 70
     1
102
RTVSPropertyOp6
 70
     1
102
RTVSPropertyOp7
 70
     1
102
RTVSPropertyOp8
 70
     1
102
RTVSPropertyOp9
 70
     1
102
RTVSPropertyOp10
 70
     1
102
RTVSPropertyOp11
 70
     1
102
RTVSPropertyOp12
 70
     1
102
RTVSPropertyOp13
 70
     1
102
RTVSPropertyOp14
 70
     1
102
RTVSPropertyOp15
 70
     1
102
RTVSPropertyOp16
 70
     1
102
RTVSPropertyOp17
 70
     1
102
RTVSPropertyOp18
 70
     1
102
RTVSPropertyOp19
 70
     1
102
RTVSPropertyOp20
 70
     1
102
RTVSPropertyOp21
 70
     1
102
RTVSPropertyOp22
 70
     1
102
RTVSPropertyOp23
 70
     1
102
RTVSPropertyOp24
 70
     1
102
RTVSPropertyOp25
 70
     1
102
RTVSPropertyOp26
 70
     1
102
RTVSPropertyOp27
 70
     1
102
RTVSPropertyOp28
 70
     1
102
RTVSPropertyOp29
 70
     1
102
RTVSPropertyOp30
 70
     1
102
RTVSPropertyOp31
 70
     1
102
RTVSPropertyOp32
 70
     1
102
RTVSPropertyOp33
 70
     1
102
RTVSPropertyOp34
 70
     1
102
RTVSPropertyOp35
 70
     1
102
RTVSPropertyOp36
 70
     1
102
RTVSPropertyOp37
 70
     1
102
RTVSPropertyOp38
 70
     1
102
RTVSPropertyOp39
 70
     1
102
RTVSPropertyOp40
 70
     1
102
RTVSPropertyOp41
 70
     1
102
RTVSPropertyOp42
 70
     1
102
RTVSPropertyOp43
 70
     1
102
RTVSPropertyOp44
 70
     1
102
RTVSPropertyOp45
 70
     1
102
RTVSPropertyOp46
 70
     1
102
RTVSPropertyOp47
 70
     1
102
RTVSPropertyOp48
 70
     1
102
RTVSPropertyOp49
 70
     1
102
RTVSPropertyOp50
 70
     1
102
RTVSPropertyOp51
 70
     0
102
RTVSPropertyOp52
 70
     0
102
RTVSPropertyOp53
 70
     1
102
RTVSPropertyOp54
 70
     1
102
RTVSPropertyOp55
 70
     1
102
RTVSPropertyOp56
 70
     1
102
RTVSPropertyOp57
 70
     1
102
RTVSPost2010Prop28
280
     0
102
RTVSPost2010PropOp28
 70
     1
102
RTVSPost2010Prop29
280
     1
102
RTVSPost2010PropOp29
 70
     1
102
RTVSPost2010Prop30
280
     1
102
RTVSPost2010PropOp30
 70
     1
102
RTVSPost2010Prop31
280
     0
102
RTVSPost2010PropOp31
 70
     1
102
RTVSPost2010Prop32
280
     0
102
RTVSPost2010PropOp32
 70
     1
102
RTVSPost2010Prop33
280
     0
102
RTVSPost2010PropOp33
 70
     1
102
RTVSPost2010Prop34
280
     0
102
RTVSPost2010PropOp34
 70
     1
102
RTVSPost2010Prop35
280
     0
102
RTVSPost2010PropOp35
 70
     1
102
RTVSPost2010Prop36
280
     0
102
RTVSPost2010PropOp36
 70
     1
102
RTVSPost2010Prop37
 90
       50
102
RTVSPost2010PropOp37
 70
     1
102
RTVSPost2010Prop38
140
0.0
102
RTVSPost2010PropOp38
 70
     1
102
RTVSPost2010Prop39
140
1.0
102
RTVSPost2010PropOp39
 70
     1
102
RTVSPost2010Prop40
 90
        0
102
RTVSPost2010PropOp40
 70
     1
102
RTVSPost2010Prop41ColorIndex
 90
       18
102
RTVSPost2010Prop41ColorRGB
 90
        0
102
RTVSPost2010PropOp41
 70
     1
102
RTVSPost2010Prop42
 90
       50
102
RTVSPost2010PropOp42
 70
     1
102
RTVSPost2010Prop43
 90
        3
102
RTVSPost2010PropOp43
 70
     1
102
RTVSPost2010Prop44ColorIndex
 90
        5
102
RTVSPost2010Prop44ColorRGB
 90
      255
102
RTVSPost2010PropOp44
 70
     1
102
RTVSPost2010Prop45
280
     0
102
RTVSPost2010PropOp45
 70
     1
102
RTVSPost2010Prop46
 90
       50
102
RTVSPost2010PropOp46
 70
     1
102
RTVSPost2010Prop47
 90
       50
102
RTVSPost2010PropOp47
 70
     1
102
RTVSPost2010Prop48
 90
       50
102
RTVSPost2010PropOp48
 70
     1
102
RTVSPost2010Prop49
280
     0
102
RTVSPost2010PropOp49
 70
     1
102
RTVSPost2010Prop50
 90
       50
102
RTVSPost2010PropOp50
 70
     1
102
RTVSPost2010Prop51ColorIndex
 90
      256
102
RTVSPost2010Prop51ColorRGB
 90
-16777216
102
RTVSPost2010PropOp51
 70
     0
102
RTVSPost2010Prop52
140
1.0
102
RTVSPost2010PropOp52
 70
     0
102
RTVSPost2010Prop53
 90
        2
102
RTVSPost2010PropOp53
 70
     1
102
RTVSPost2010Prop54
  1
strokes_ogs.tif
102
RTVSPost2010PropOp54
 70
     1
102
RTVSPost2010Prop55
280
     0
102
RTVSPost2010PropOp55
 70
     1
102
RTVSPost2010Prop56
140
1.0
102
RTVSPost2010PropOp56
 70
     1
102
RTVSPost2010Prop57
140
1.0
102
RTVSPost2010PropOp57
 70
     1
  0
XRECORD
  5
3C3
102
{ACAD_REACTORS
330
3C2
102
}
330
3C2
100
AcDbXrecord
280
     1
102
RTVSPropertyOp0
 70
     0
102
RTVSPropertyOp1
 70
     0
102
RTVSPropertyOp2
 70
     0
102
RTVSPropertyOp3
 70
     0
102
RTVSPropertyOp4
 70
     0
102
RTVSPropertyOp5
 70
     0
102
RTVSPropertyOp6
 70
     0
102
RTVSPropertyOp7
 70
     0
102
RTVSPropertyOp8
 70
     0
102
RTVSPropertyOp9
 70
     0
102
RTVSPropertyOp10
 70
     0
102
RTVSPropertyOp11
 70
     0
102
RTVSPropertyOp12
 70
     0
102
RTVSPropertyOp13
 70
     0
102
RTVSPropertyOp14
 70
     2
102
RTVSPropertyOp15
 70
     0
102
RTVSPropertyOp16
 70
     0
102
RTVSPropertyOp17
 70
     0
102
RTVSPropertyOp18
 70
     0
102
RTVSPropertyOp19
 70
     0
102
RTVSPropertyOp20
 70
     0
102
RTVSPropertyOp21
 70
     0
102
RTVSPropertyOp22
 70
     0
102
RTVSPropertyOp23
 70
     0
102
RTVSPropertyOp24
 70
     0
102
RTVSPropertyOp25
 70
     0
102
RTVSPropertyOp26
 70
     0
102
RTVSPropertyOp27
 70
     0
102
RTVSPropertyOp28
 70
     0
102
RTVSPropertyOp29
 70
     0
102
RTVSPropertyOp30
 70
     0
102
RTVSPropertyOp31
 70
     0
102
RTVSPropertyOp32
 70
     0
102
RTVSPropertyOp33
 70
     0
102
RTVSPropertyOp34
 70
     0
102
RTVSPropertyOp35
 70
     0
102
RTVSPropertyOp36
 70
     0
102
RTVSPropertyOp37
 70
     0
102
RTVSPropertyOp38
 70
     0
102
RTVSPropertyOp39
 70
     0
102
RTVSPropertyOp40
 70
     0
102
RTVSPropertyOp41
 70
     0
102
RTVSPropertyOp42
 70
     0
102
RTVSPropertyOp43
 70
     0
102
RTVSPropertyOp44
 70
     0
102
RTVSPropertyOp45
 70
     0
102
RTVSPropertyOp46
 70
     0
102
RTVSPropertyOp47
 70
     0
102
RTVSPropertyOp48
 70
     0
102
RTVSPropertyOp49
 70
     0
102
RTVSPropertyOp50
 70
     0
102
RTVSPropertyOp51
 70
     0
102
RTVSPropertyOp52
 70
     0
102
RTVSPropertyOp53
 70
     0
102
RTVSPropertyOp54
 70
     0
102
RTVSPropertyOp55
 70
     0
102
RTVSPropertyOp56
 70
     0
102
RTVSPropertyOp57
 70
     0
102
RTVSPost2010Prop28
280
     0
102
RTVSPost2010PropOp28
 70
     0
102
RTVSPost2010Prop29
280
     1
102
RTVSPost2010PropOp29
 70
     0
102
RTVSPost2010Prop30
280
     1
102
RTVSPost2010PropOp30
 70
     0
102
RTVSPost2010Prop31
280
     0
102
RTVSPost2010PropOp31
 70
     0
102
RTVSPost2010Prop32
280
     0
102
RTVSPost2010PropOp32
 70
     0
102
RTVSPost2010Prop33
280
     0
102
RTVSPost2010PropOp33
 70
     0
102
RTVSPost2010Prop34
280
     0
102
RTVSPost2010PropOp34
 70
     0
102
RTVSPost2010Prop35
280
     0
102
RTVSPost2010PropOp35
 70
     0
102
RTVSPost2010Prop36
280
     0
102
RTVSPost2010PropOp36
 70
     0
102
RTVSPost2010Prop37
 90
       50
102
RTVSPost2010PropOp37
 70
     0
102
RTVSPost2010Prop38
140
0.0
102
RTVSPost2010PropOp38
 70
     0
102
RTVSPost2010Prop39
140
1.0
102
RTVSPost2010PropOp39
 70
     0
102
RTVSPost2010Prop40
 90
        0
102
RTVSPost2010PropOp40
 70
     0
102
RTVSPost2010Prop41ColorIndex
 90
       18
102
RTVSPost2010Prop41ColorRGB
 90
        0
102
RTVSPost2010PropOp41
 70
     0
102
RTVSPost2010Prop42
 90
       50
102
RTVSPost2010PropOp42
 70
     0
102
RTVSPost2010Prop43
 90
        3
102
RTVSPost2010PropOp43
 70
     0
102
RTVSPost2010Prop44ColorIndex
 90
        5
102
RTVSPost2010Prop44ColorRGB
 90
      255
102
RTVSPost2010PropOp44
 70
     0
102
RTVSPost2010Prop45
280
     0
102
RTVSPost2010PropOp45
 70
     0
102
RTVSPost2010Prop46
 90
       50
102
RTVSPost2010PropOp46
 70
     0
102
RTVSPost2010Prop47
 90
       50
102
RTVSPost2010PropOp47
 70
     0
102
RTVSPost2010Prop48
 90
       50
102
RTVSPost2010PropOp48
 70
     0
102
RTVSPost2010Prop49
280
     0
102
RTVSPost2010PropOp49
 70
     0
102
RTVSPost2010Prop50
 90
       50
102
RTVSPost2010PropOp50
 70
     0
102
RTVSPost2010Prop51ColorIndex
 90
      256
102
RTVSPost2010Prop51ColorRGB
 90
-16777216
102
RTVSPost2010PropOp51
 70
     0
102
RTVSPost2010Prop52
140
1.0
102
RTVSPost2010PropOp52
 70
     0
102
RTVSPost2010Prop53
 90
        2
102
RTVSPost2010PropOp53
 70
     0
102
RTVSPost2010Prop54
  1
strokes_ogs.tif
102
RTVSPost2010PropOp54
 70
     0
102
RTVSPost2010Prop55
280
     0
102
RTVSPost2010PropOp55
 70
     0
102
RTVSPost2010Prop56
140
1.0
102
RTVSPost2010PropOp56
 70
     0
102
RTVSPost2010Prop57
140
1.0
102
RTVSPost2010PropOp57
 70
     0
  0
XRECORD
  5
3B1
102
{ACAD_REACTORS
330
3B0
102
}
330
3B0
100
AcDbXrecord
280
     1
102
RTVSPropertyOp0
 70
     1
102
RTVSPropertyOp1
 70
     1
102
RTVSPropertyOp2
 70
     1
102
RTVSPropertyOp3
 70
     1
102
RTVSPropertyOp4
 70
     1
102
RTVSPropertyOp5
 70
     1
102
RTVSPropertyOp6
 70
     1
102
RTVSPropertyOp7
 70
     1
102
RTVSPropertyOp8
 70
     1
102
RTVSPropertyOp9
 70
     1
102
RTVSPropertyOp10
 70
     1
102
RTVSPropertyOp11
 70
     1
102
RTVSPropertyOp12
 70
     1
102
RTVSPropertyOp13
 70
     1
102
RTVSPropertyOp14
 70
     1
102
RTVSPropertyOp15
 70
     1
102
RTVSPropertyOp16
 70
     1
102
RTVSPropertyOp17
 70
     1
102
RTVSPropertyOp18
 70
     1
102
RTVSPropertyOp19
 70
     1
102
RTVSPropertyOp20
 70
     1
102
RTVSPropertyOp21
 70
     1
102
RTVSPropertyOp22
 70
     1
102
RTVSPropertyOp23
 70
     1
102
RTVSPropertyOp24
 70
     1
102
RTVSPropertyOp25
 70
     1
102
RTVSPropertyOp26
 70
     1
102
RTVSPropertyOp27
 70
     1
102
RTVSPropertyOp28
 70
     1
102
RTVSPropertyOp29
 70
     1
102
RTVSPropertyOp30
 70
     1
102
RTVSPropertyOp31
 70
     1
102
RTVSPropertyOp32
 70
     1
102
RTVSPropertyOp33
 70
     1
102
RTVSPropertyOp34
 70
     1
102
RTVSPropertyOp35
 70
     1
102
RTVSPropertyOp36
 70
     1
102
RTVSPropertyOp37
 70
     1
102
RTVSPropertyOp38
 70
     1
102
RTVSPropertyOp39
 70
     1
102
RTVSPropertyOp40
 70
     1
102
RTVSPropertyOp41
 70
     1
102
RTVSPropertyOp42
 70
     1
102
RTVSPropertyOp43
 70
     1
102
RTVSPropertyOp44
 70
     1
102
RTVSPropertyOp45
 70
     1
102
RTVSPropertyOp46
 70
     1
102
RTVSPropertyOp47
 70
     1
102
RTVSPropertyOp48
 70
     1
102
RTVSPropertyOp49
 70
     1
102
RTVSPropertyOp50
 70
     1
102
RTVSPropertyOp51
 70
     0
102
RTVSPropertyOp52
 70
     0
102
RTVSPropertyOp53
 70
     1
102
RTVSPropertyOp54
 70
     1
102
RTVSPropertyOp55
 70
     1
102
RTVSPropertyOp56
 70
     1
102
RTVSPropertyOp57
 70
     1
102
RTVSPost2010Prop28
280
     0
102
RTVSPost2010PropOp28
 70
     1
102
RTVSPost2010Prop29
280
     1
102
RTVSPost2010PropOp29
 70
     1
102
RTVSPost2010Prop30
280
     1
102
RTVSPost2010PropOp30
 70
     1
102
RTVSPost2010Prop31
280
     0
102
RTVSPost2010PropOp31
 70
     1
102
RTVSPost2010Prop32
280
     0
102
RTVSPost2010PropOp32
 70
     1
102
RTVSPost2010Prop33
280
     0
102
RTVSPost2010PropOp33
 70
     1
102
RTVSPost2010Prop34
280
     0
102
RTVSPost2010PropOp34
 70
     1
102
RTVSPost2010Prop35
280
     0
102
RTVSPost2010PropOp35
 70
     1
102
RTVSPost2010Prop36
280
     0
102
RTVSPost2010PropOp36
 70
     1
102
RTVSPost2010Prop37
 90
       50
102
RTVSPost2010PropOp37
 70
     1
102
RTVSPost2010Prop38
140
0.0
102
RTVSPost2010PropOp38
 70
     1
102
RTVSPost2010Prop39
140
1.0
102
RTVSPost2010PropOp39
 70
     1
102
RTVSPost2010Prop40
 90
        0
102
RTVSPost2010PropOp40
 70
     1
102
RTVSPost2010Prop41ColorIndex
 90
       18
102
RTVSPost2010Prop41ColorRGB
 90
        0
102
RTVSPost2010PropOp41
 70
     1
102
RTVSPost2010Prop42
 90
       50
102
RTVSPost2010PropOp42
 70
     1
102
RTVSPost2010Prop43
 90
        3
102
RTVSPost2010PropOp43
 70
     1
102
RTVSPost2010Prop44ColorIndex
 90
        5
102
RTVSPost2010Prop44ColorRGB
 90
      255
102
RTVSPost2010PropOp44
 70
     1
102
RTVSPost2010Prop45
280
     0
102
RTVSPost2010PropOp45
 70
     1
102
RTVSPost2010Prop46
 90
       50
102
RTVSPost2010PropOp46
 70
     1
102
RTVSPost2010Prop47
 90
       50
102
RTVSPost2010PropOp47
 70
     1
102
RTVSPost2010Prop48
 90
       50
102
RTVSPost2010PropOp48
 70
     1
102
RTVSPost2010Prop49
280
     0
102
RTVSPost2010PropOp49
 70
     1
102
RTVSPost2010Prop50
 90
       50
102
RTVSPost2010PropOp50
 70
     1
102
RTVSPost2010Prop51ColorIndex
 90
      256
102
RTVSPost2010Prop51ColorRGB
 90
-16777216
102
RTVSPost2010PropOp51
 70
     0
102
RTVSPost2010Prop52
140
1.0
102
RTVSPost2010PropOp52
 70
     0
102
RTVSPost2010Prop53
 90
        2
102
RTVSPost2010PropOp53
 70
     1
102
RTVSPost2010Prop54
  1
strokes_ogs.tif
102
RTVSPost2010PropOp54
 70
     1
102
RTVSPost2010Prop55
280
     0
102
RTVSPost2010PropOp55
 70
     1
102
RTVSPost2010Prop56
140
1.0
102
RTVSPost2010PropOp56
 70
     1
102
RTVSPost2010Prop57
140
1.0
102
RTVSPost2010PropOp57
 70
     1
  0
XRECORD
  5
3CF
102
{ACAD_REACTORS
330
3CE
102
}
330
3CE
100
AcDbXrecord
280
     1
102
RTVSPropertyOp0
 70
     1
102
RTVSPropertyOp1
 70
     1
102
RTVSPropertyOp2
 70
     1
102
RTVSPropertyOp3
 70
     1
102
RTVSPropertyOp4
 70
     1
102
RTVSPropertyOp5
 70
     1
102
RTVSPropertyOp6
 70
     1
102
RTVSPropertyOp7
 70
     1
102
RTVSPropertyOp8
 70
     1
102
RTVSPropertyOp9
 70
     1
102
RTVSPropertyOp10
 70
     1
102
RTVSPropertyOp11
 70
     1
102
RTVSPropertyOp12
 70
     1
102
RTVSPropertyOp13
 70
     1
102
RTVSPropertyOp14
 70
     1
102
RTVSPropertyOp15
 70
     1
102
RTVSPropertyOp16
 70
     1
102
RTVSPropertyOp17
 70
     1
102
RTVSPropertyOp18
 70
     1
102
RTVSPropertyOp19
 70
     1
102
RTVSPropertyOp20
 70
     1
102
RTVSPropertyOp21
 70
     1
102
RTVSPropertyOp22
 70
     1
102
RTVSPropertyOp23
 70
     1
102
RTVSPropertyOp24
 70
     1
102
RTVSPropertyOp25
 70
     1
102
RTVSPropertyOp26
 70
     1
102
RTVSPropertyOp27
 70
     1
102
RTVSPropertyOp28
 70
     1
102
RTVSPropertyOp29
 70
     1
102
RTVSPropertyOp30
 70
     1
102
RTVSPropertyOp31
 70
     1
102
RTVSPropertyOp32
 70
     1
102
RTVSPropertyOp33
 70
     1
102
RTVSPropertyOp34
 70
     1
102
RTVSPropertyOp35
 70
     1
102
RTVSPropertyOp36
 70
     1
102
RTVSPropertyOp37
 70
     1
102
RTVSPropertyOp38
 70
     1
102
RTVSPropertyOp39
 70
     1
102
RTVSPropertyOp40
 70
     1
102
RTVSPropertyOp41
 70
     1
102
RTVSPropertyOp42
 70
     1
102
RTVSPropertyOp43
 70
     1
102
RTVSPropertyOp44
 70
     1
102
RTVSPropertyOp45
 70
     1
102
RTVSPropertyOp46
 70
     1
102
RTVSPropertyOp47
 70
     1
102
RTVSPropertyOp48
 70
     1
102
RTVSPropertyOp49
 70
     1
102
RTVSPropertyOp50
 70
     1
102
RTVSPropertyOp51
 70
     0
102
RTVSPropertyOp52
 70
     0
102
RTVSPropertyOp53
 70
     1
102
RTVSPropertyOp54
 70
     1
102
RTVSPropertyOp55
 70
     1
102
RTVSPropertyOp56
 70
     1
102
RTVSPropertyOp57
 70
     1
102
RTVSPost2010Prop28
280
     0
102
RTVSPost2010PropOp28
 70
     1
102
RTVSPost2010Prop29
280
     1
102
RTVSPost2010PropOp29
 70
     1
102
RTVSPost2010Prop30
280
     1
102
RTVSPost2010PropOp30
 70
     1
102
RTVSPost2010Prop31
280
     0
102
RTVSPost2010PropOp31
 70
     1
102
RTVSPost2010Prop32
280
     0
102
RTVSPost2010PropOp32
 70
     1
102
RTVSPost2010Prop33
280
     0
102
RTVSPost2010PropOp33
 70
     1
102
RTVSPost2010Prop34
280
     0
102
RTVSPost2010PropOp34
 70
     1
102
RTVSPost2010Prop35
280
     0
102
RTVSPost2010PropOp35
 70
     1
102
RTVSPost2010Prop36
280
     0
102
RTVSPost2010PropOp36
 70
     1
102
RTVSPost2010Prop37
 90
       50
102
RTVSPost2010PropOp37
 70
     1
102
RTVSPost2010Prop38
140
0.0
102
RTVSPost2010PropOp38
 70
     1
102
RTVSPost2010Prop39
140
1.0
102
RTVSPost2010PropOp39
 70
     1
102
RTVSPost2010Prop40
 90
        0
102
RTVSPost2010PropOp40
 70
     1
102
RTVSPost2010Prop41ColorIndex
 90
       18
102
RTVSPost2010Prop41ColorRGB
 90
        0
102
RTVSPost2010PropOp41
 70
     1
102
RTVSPost2010Prop42
 90
       50
102
RTVSPost2010PropOp42
 70
     1
102
RTVSPost2010Prop43
 90
        3
102
RTVSPost2010PropOp43
 70
     1
102
RTVSPost2010Prop44ColorIndex
 90
        5
102
RTVSPost2010Prop44ColorRGB
 90
      255
102
RTVSPost2010PropOp44
 70
     1
102
RTVSPost2010Prop45
280
     0
102
RTVSPost2010PropOp45
 70
     1
102
RTVSPost2010Prop46
 90
       50
102
RTVSPost2010PropOp46
 70
     1
102
RTVSPost2010Prop47
 90
       50
102
RTVSPost2010PropOp47
 70
     1
102
RTVSPost2010Prop48
 90
       50
102
RTVSPost2010PropOp48
 70
     1
102
RTVSPost2010Prop49
280
     0
102
RTVSPost2010PropOp49
 70
     1
102
RTVSPost2010Prop50
 90
       50
102
RTVSPost2010PropOp50
 70
     1
102
RTVSPost2010Prop51ColorIndex
 90
      256
102
RTVSPost2010Prop51ColorRGB
 90
-16777216
102
RTVSPost2010PropOp51
 70
     0
102
RTVSPost2010Prop52
140
1.0
102
RTVSPost2010PropOp52
 70
     0
102
RTVSPost2010Prop53
 90
        2
102
RTVSPost2010PropOp53
 70
     1
102
RTVSPost2010Prop54
  1
strokes_ogs.tif
102
RTVSPost2010PropOp54
 70
     1
102
RTVSPost2010Prop55
280
     0
102
RTVSPost2010PropOp55
 70
     1
102
RTVSPost2010Prop56
140
1.0
102
RTVSPost2010PropOp56
 70
     1
102
RTVSPost2010Prop57
140
1.0
102
RTVSPost2010PropOp57
 70
     1
  0
XRECORD
  5
3CD
102
{ACAD_REACTORS
330
3CC
102
}
330
3CC
100
AcDbXrecord
280
     1
102
RTVSPropertyOp0
 70
     1
102
RTVSPropertyOp1
 70
     1
102
RTVSPropertyOp2
 70
     1
102
RTVSPropertyOp3
 70
     1
102
RTVSPropertyOp4
 70
     1
102
RTVSPropertyOp5
 70
     1
102
RTVSPropertyOp6
 70
     1
102
RTVSPropertyOp7
 70
     1
102
RTVSPropertyOp8
 70
     1
102
RTVSPropertyOp9
 70
     1
102
RTVSPropertyOp10
 70
     1
102
RTVSPropertyOp11
 70
     1
102
RTVSPropertyOp12
 70
     1
102
RTVSPropertyOp13
 70
     1
102
RTVSPropertyOp14
 70
     1
102
RTVSPropertyOp15
 70
     1
102
RTVSPropertyOp16
 70
     1
102
RTVSPropertyOp17
 70
     1
102
RTVSPropertyOp18
 70
     1
102
RTVSPropertyOp19
 70
     1
102
RTVSPropertyOp20
 70
     1
102
RTVSPropertyOp21
 70
     1
102
RTVSPropertyOp22
 70
     1
102
RTVSPropertyOp23
 70
     1
102
RTVSPropertyOp24
 70
     1
102
RTVSPropertyOp25
 70
     1
102
RTVSPropertyOp26
 70
     1
102
RTVSPropertyOp27
 70
     1
102
RTVSPropertyOp28
 70
     1
102
RTVSPropertyOp29
 70
     1
102
RTVSPropertyOp30
 70
     1
102
RTVSPropertyOp31
 70
     1
102
RTVSPropertyOp32
 70
     1
102
RTVSPropertyOp33
 70
     1
102
RTVSPropertyOp34
 70
     1
102
RTVSPropertyOp35
 70
     1
102
RTVSPropertyOp36
 70
     1
102
RTVSPropertyOp37
 70
     1
102
RTVSPropertyOp38
 70
     1
102
RTVSPropertyOp39
 70
     1
102
RTVSPropertyOp40
 70
     1
102
RTVSPropertyOp41
 70
     1
102
RTVSPropertyOp42
 70
     1
102
RTVSPropertyOp43
 70
     1
102
RTVSPropertyOp44
 70
     1
102
RTVSPropertyOp45
 70
     1
102
RTVSPropertyOp46
 70
     1
102
RTVSPropertyOp47
 70
     1
102
RTVSPropertyOp48
 70
     1
102
RTVSPropertyOp49
 70
     1
102
RTVSPropertyOp50
 70
     1
102
RTVSPropertyOp51
 70
     0
102
RTVSPropertyOp52
 70
     0
102
RTVSPropertyOp53
 70
     1
102
RTVSPropertyOp54
 70
     1
102
RTVSPropertyOp55
 70
     1
102
RTVSPropertyOp56
 70
     1
102
RTVSPropertyOp57
 70
     1
102
RTVSPost2010Prop28
280
     0
102
RTVSPost2010PropOp28
 70
     1
102
RTVSPost2010Prop29
280
     1
102
RTVSPost2010PropOp29
 70
     1
102
RTVSPost2010Prop30
280
     1
102
RTVSPost2010PropOp30
 70
     1
102
RTVSPost2010Prop31
280
     0
102
RTVSPost2010PropOp31
 70
     1
102
RTVSPost2010Prop32
280
     0
102
RTVSPost2010PropOp32
 70
     1
102
RTVSPost2010Prop33
280
     0
102
RTVSPost2010PropOp33
 70
     1
102
RTVSPost2010Prop34
280
     0
102
RTVSPost2010PropOp34
 70
     1
102
RTVSPost2010Prop35
280
     0
102
RTVSPost2010PropOp35
 70
     1
102
RTVSPost2010Prop36
280
     0
102
RTVSPost2010PropOp36
 70
     1
102
RTVSPost2010Prop37
 90
       50
102
RTVSPost2010PropOp37
 70
     1
102
RTVSPost2010Prop38
140
0.0
102
RTVSPost2010PropOp38
 70
     1
102
RTVSPost2010Prop39
140
1.0
102
RTVSPost2010PropOp39
 70
     1
102
RTVSPost2010Prop40
 90
        0
102
RTVSPost2010PropOp40
 70
     1
102
RTVSPost2010Prop41ColorIndex
 90
       18
102
RTVSPost2010Prop41ColorRGB
 90
        0
102
RTVSPost2010PropOp41
 70
     1
102
RTVSPost2010Prop42
 90
       50
102
RTVSPost2010PropOp42
 70
     1
102
RTVSPost2010Prop43
 90
        3
102
RTVSPost2010PropOp43
 70
     1
102
RTVSPost2010Prop44ColorIndex
 90
        5
102
RTVSPost2010Prop44ColorRGB
 90
      255
102
RTVSPost2010PropOp44
 70
     1
102
RTVSPost2010Prop45
280
     0
102
RTVSPost2010PropOp45
 70
     1
102
RTVSPost2010Prop46
 90
       50
102
RTVSPost2010PropOp46
 70
     1
102
RTVSPost2010Prop47
 90
       50
102
RTVSPost2010PropOp47
 70
     1
102
RTVSPost2010Prop48
 90
       50
102
RTVSPost2010PropOp48
 70
     1
102
RTVSPost2010Prop49
280
     0
102
RTVSPost2010PropOp49
 70
     1
102
RTVSPost2010Prop50
 90
       50
102
RTVSPost2010PropOp50
 70
     1
102
RTVSPost2010Prop51ColorIndex
 90
      256
102
RTVSPost2010Prop51ColorRGB
 90
-16777216
102
RTVSPost2010PropOp51
 70
     0
102
RTVSPost2010Prop52
140
1.0
102
RTVSPost2010PropOp52
 70
     0
102
RTVSPost2010Prop53
 90
        2
102
RTVSPost2010PropOp53
 70
     1
102
RTVSPost2010Prop54
  1
strokes_ogs.tif
102
RTVSPost2010PropOp54
 70
     1
102
RTVSPost2010Prop55
280
     0
102
RTVSPost2010PropOp55
 70
     1
102
RTVSPost2010Prop56
140
1.0
102
RTVSPost2010PropOp56
 70
     1
102
RTVSPost2010Prop57
140
1.0
102
RTVSPost2010PropOp57
 70
     1
  0
XRECORD
  5
3C7
102
{ACAD_REACTORS
330
3C6
102
}
330
3C6
100
AcDbXrecord
280
     1
102
RTVSPropertyOp0
 70
     1
102
RTVSPropertyOp1
 70
     1
102
RTVSPropertyOp2
 70
     1
102
RTVSPropertyOp3
 70
     1
102
RTVSPropertyOp4
 70
     1
102
RTVSPropertyOp5
 70
     1
102
RTVSPropertyOp6
 70
     1
102
RTVSPropertyOp7
 70
     1
102
RTVSPropertyOp8
 70
     1
102
RTVSPropertyOp9
 70
     1
102
RTVSPropertyOp10
 70
     1
102
RTVSPropertyOp11
 70
     1
102
RTVSPropertyOp12
 70
     1
102
RTVSPropertyOp13
 70
     1
102
RTVSPropertyOp14
 70
     1
102
RTVSPropertyOp15
 70
     1
102
RTVSPropertyOp16
 70
     1
102
RTVSPropertyOp17
 70
     1
102
RTVSPropertyOp18
 70
     1
102
RTVSPropertyOp19
 70
     1
102
RTVSPropertyOp20
 70
     1
102
RTVSPropertyOp21
 70
     1
102
RTVSPropertyOp22
 70
     1
102
RTVSPropertyOp23
 70
     1
102
RTVSPropertyOp24
 70
     1
102
RTVSPropertyOp25
 70
     1
102
RTVSPropertyOp26
 70
     1
102
RTVSPropertyOp27
 70
     1
102
RTVSPropertyOp28
 70
     1
102
RTVSPropertyOp29
 70
     1
102
RTVSPropertyOp30
 70
     1
102
RTVSPropertyOp31
 70
     1
102
RTVSPropertyOp32
 70
     1
102
RTVSPropertyOp33
 70
     1
102
RTVSPropertyOp34
 70
     1
102
RTVSPropertyOp35
 70
     1
102
RTVSPropertyOp36
 70
     1
102
RTVSPropertyOp37
 70
     1
102
RTVSPropertyOp38
 70
     1
102
RTVSPropertyOp39
 70
     1
102
RTVSPropertyOp40
 70
     1
102
RTVSPropertyOp41
 70
     1
102
RTVSPropertyOp42
 70
     1
102
RTVSPropertyOp43
 70
     1
102
RTVSPropertyOp44
 70
     1
102
RTVSPropertyOp45
 70
     1
102
RTVSPropertyOp46
 70
     1
102
RTVSPropertyOp47
 70
     1
102
RTVSPropertyOp48
 70
     1
102
RTVSPropertyOp49
 70
     1
102
RTVSPropertyOp50
 70
     1
102
RTVSPropertyOp51
 70
     0
102
RTVSPropertyOp52
 70
     0
102
RTVSPropertyOp53
 70
     1
102
RTVSPropertyOp54
 70
     1
102
RTVSPropertyOp55
 70
     1
102
RTVSPropertyOp56
 70
     1
102
RTVSPropertyOp57
 70
     1
102
RTVSPost2010Prop28
280
     0
102
RTVSPost2010PropOp28
 70
     1
102
RTVSPost2010Prop29
280
     1
102
RTVSPost2010PropOp29
 70
     1
102
RTVSPost2010Prop30
280
     1
102
RTVSPost2010PropOp30
 70
     1
102
RTVSPost2010Prop31
280
     0
102
RTVSPost2010PropOp31
 70
     1
102
RTVSPost2010Prop32
280
     0
102
RTVSPost2010PropOp32
 70
     1
102
RTVSPost2010Prop33
280
     0
102
RTVSPost2010PropOp33
 70
     1
102
RTVSPost2010Prop34
280
     0
102
RTVSPost2010PropOp34
 70
     1
102
RTVSPost2010Prop35
280
     0
102
RTVSPost2010PropOp35
 70
     1
102
RTVSPost2010Prop36
280
     0
102
RTVSPost2010PropOp36
 70
     1
102
RTVSPost2010Prop37
 90
       50
102
RTVSPost2010PropOp37
 70
     1
102
RTVSPost2010Prop38
140
0.0
102
RTVSPost2010PropOp38
 70
     1
102
RTVSPost2010Prop39
140
1.0
102
RTVSPost2010PropOp39
 70
     1
102
RTVSPost2010Prop40
 90
        0
102
RTVSPost2010PropOp40
 70
     1
102
RTVSPost2010Prop41ColorIndex
 90
       18
102
RTVSPost2010Prop41ColorRGB
 90
        0
102
RTVSPost2010PropOp41
 70
     1
102
RTVSPost2010Prop42
 90
       50
102
RTVSPost2010PropOp42
 70
     1
102
RTVSPost2010Prop43
 90
        3
102
RTVSPost2010PropOp43
 70
     1
102
RTVSPost2010Prop44ColorIndex
 90
        5
102
RTVSPost2010Prop44ColorRGB
 90
      255
102
RTVSPost2010PropOp44
 70
     1
102
RTVSPost2010Prop45
280
     0
102
RTVSPost2010PropOp45
 70
     1
102
RTVSPost2010Prop46
 90
       50
102
RTVSPost2010PropOp46
 70
     1
102
RTVSPost2010Prop47
 90
       50
102
RTVSPost2010PropOp47
 70
     1
102
RTVSPost2010Prop48
 90
       50
102
RTVSPost2010PropOp48
 70
     1
102
RTVSPost2010Prop49
280
     0
102
RTVSPost2010PropOp49
 70
     1
102
RTVSPost2010Prop50
 90
       50
102
RTVSPost2010PropOp50
 70
     1
102
RTVSPost2010Prop51ColorIndex
 90
      256
102
RTVSPost2010Prop51ColorRGB
 90
-16777216
102
RTVSPost2010PropOp51
 70
     0
102
RTVSPost2010Prop52
140
1.0
102
RTVSPost2010PropOp52
 70
     0
102
RTVSPost2010Prop53
 90
        2
102
RTVSPost2010PropOp53
 70
     1
102
RTVSPost2010Prop54
  1
strokes_ogs.tif
102
RTVSPost2010PropOp54
 70
     1
102
RTVSPost2010Prop55
280
     0
102
RTVSPost2010PropOp55
 70
     1
102
RTVSPost2010Prop56
140
1.0
102
RTVSPost2010PropOp56
 70
     1
102
RTVSPost2010Prop57
140
1.0
102
RTVSPost2010PropOp57
 70
     1
  0
XRECORD
  5
3C9
102
{ACAD_REACTORS
330
3C8
102
}
330
3C8
100
AcDbXrecord
280
     1
102
RTVSPropertyOp0
 70
     1
102
RTVSPropertyOp1
 70
     1
102
RTVSPropertyOp2
 70
     1
102
RTVSPropertyOp3
 70
     1
102
RTVSPropertyOp4
 70
     1
102
RTVSPropertyOp5
 70
     1
102
RTVSPropertyOp6
 70
     1
102
RTVSPropertyOp7
 70
     1
102
RTVSPropertyOp8
 70
     1
102
RTVSPropertyOp9
 70
     1
102
RTVSPropertyOp10
 70
     1
102
RTVSPropertyOp11
 70
     1
102
RTVSPropertyOp12
 70
     1
102
RTVSPropertyOp13
 70
     1
102
RTVSPropertyOp14
 70
     1
102
RTVSPropertyOp15
 70
     1
102
RTVSPropertyOp16
 70
     1
102
RTVSPropertyOp17
 70
     1
102
RTVSPropertyOp18
 70
     1
102
RTVSPropertyOp19
 70
     1
102
RTVSPropertyOp20
 70
     1
102
RTVSPropertyOp21
 70
     1
102
RTVSPropertyOp22
 70
     1
102
RTVSPropertyOp23
 70
     1
102
RTVSPropertyOp24
 70
     1
102
RTVSPropertyOp25
 70
     1
102
RTVSPropertyOp26
 70
     1
102
RTVSPropertyOp27
 70
     1
102
RTVSPropertyOp28
 70
     1
102
RTVSPropertyOp29
 70
     1
102
RTVSPropertyOp30
 70
     1
102
RTVSPropertyOp31
 70
     1
102
RTVSPropertyOp32
 70
     1
102
RTVSPropertyOp33
 70
     1
102
RTVSPropertyOp34
 70
     1
102
RTVSPropertyOp35
 70
     1
102
RTVSPropertyOp36
 70
     1
102
RTVSPropertyOp37
 70
     1
102
RTVSPropertyOp38
 70
     1
102
RTVSPropertyOp39
 70
     1
102
RTVSPropertyOp40
 70
     1
102
RTVSPropertyOp41
 70
     1
102
RTVSPropertyOp42
 70
     1
102
RTVSPropertyOp43
 70
     1
102
RTVSPropertyOp44
 70
     1
102
RTVSPropertyOp45
 70
     1
102
RTVSPropertyOp46
 70
     1
102
RTVSPropertyOp47
 70
     1
102
RTVSPropertyOp48
 70
     1
102
RTVSPropertyOp49
 70
     1
102
RTVSPropertyOp50
 70
     1
102
RTVSPropertyOp51
 70
     0
102
RTVSPropertyOp52
 70
     0
102
RTVSPropertyOp53
 70
     1
102
RTVSPropertyOp54
 70
     1
102
RTVSPropertyOp55
 70
     1
102
RTVSPropertyOp56
 70
     1
102
RTVSPropertyOp57
 70
     1
102
RTVSPost2010Prop28
280
     0
102
RTVSPost2010PropOp28
 70
     1
102
RTVSPost2010Prop29
280
     1
102
RTVSPost2010PropOp29
 70
     1
102
RTVSPost2010Prop30
280
     1
102
RTVSPost2010PropOp30
 70
     1
102
RTVSPost2010Prop31
280
     0
102
RTVSPost2010PropOp31
 70
     1
102
RTVSPost2010Prop32
280
     0
102
RTVSPost2010PropOp32
 70
     1
102
RTVSPost2010Prop33
280
     0
102
RTVSPost2010PropOp33
 70
     1
102
RTVSPost2010Prop34
280
     0
102
RTVSPost2010PropOp34
 70
     1
102
RTVSPost2010Prop35
280
     0
102
RTVSPost2010PropOp35
 70
     1
102
RTVSPost2010Prop36
280
     0
102
RTVSPost2010PropOp36
 70
     1
102
RTVSPost2010Prop37
 90
       50
102
RTVSPost2010PropOp37
 70
     1
102
RTVSPost2010Prop38
140
0.0
102
RTVSPost2010PropOp38
 70
     1
102
RTVSPost2010Prop39
140
1.0
102
RTVSPost2010PropOp39
 70
     1
102
RTVSPost2010Prop40
 90
        0
102
RTVSPost2010PropOp40
 70
     1
102
RTVSPost2010Prop41ColorIndex
 90
       18
102
RTVSPost2010Prop41ColorRGB
 90
        0
102
RTVSPost2010PropOp41
 70
     1
102
RTVSPost2010Prop42
 90
       50
102
RTVSPost2010PropOp42
 70
     1
102
RTVSPost2010Prop43
 90
        3
102
RTVSPost2010PropOp43
 70
     1
102
RTVSPost2010Prop44ColorIndex
 90
        5
102
RTVSPost2010Prop44ColorRGB
 90
      255
102
RTVSPost2010PropOp44
 70
     1
102
RTVSPost2010Prop45
280
     0
102
RTVSPost2010PropOp45
 70
     1
102
RTVSPost2010Prop46
 90
       50
102
RTVSPost2010PropOp46
 70
     1
102
RTVSPost2010Prop47
 90
       50
102
RTVSPost2010PropOp47
 70
     1
102
RTVSPost2010Prop48
 90
       50
102
RTVSPost2010PropOp48
 70
     1
102
RTVSPost2010Prop49
280
     0
102
RTVSPost2010PropOp49
 70
     1
102
RTVSPost2010Prop50
 90
       50
102
RTVSPost2010PropOp50
 70
     1
102
RTVSPost2010Prop51ColorIndex
 90
      256
102
RTVSPost2010Prop51ColorRGB
 90
-16777216
102
RTVSPost2010PropOp51
 70
     0
102
RTVSPost2010Prop52
140
1.0
102
RTVSPost2010PropOp52
 70
     0
102
RTVSPost2010Prop53
 90
        2
102
RTVSPost2010PropOp53
 70
     1
102
RTVSPost2010Prop54
  1
strokes_ogs.tif
102
RTVSPost2010PropOp54
 70
     1
102
RTVSPost2010Prop55
280
     0
102
RTVSPost2010PropOp55
 70
     1
102
RTVSPost2010Prop56
140
1.0
102
RTVSPost2010PropOp56
 70
     1
102
RTVSPost2010Prop57
140
1.0
102
RTVSPost2010PropOp57
 70
     1
  0
XRECORD
  5
3B9
102
{ACAD_REACTORS
330
3B8
102
}
330
3B8
100
AcDbXrecord
280
     1
102
RTVSPropertyOp0
 70
     1
102
RTVSPropertyOp1
 70
     1
102
RTVSPropertyOp2
 70
     1
102
RTVSPropertyOp3
 70
     1
102
RTVSPropertyOp4
 70
     1
102
RTVSPropertyOp5
 70
     1
102
RTVSPropertyOp6
 70
     1
102
RTVSPropertyOp7
 70
     1
102
RTVSPropertyOp8
 70
     1
102
RTVSPropertyOp9
 70
     1
102
RTVSPropertyOp10
 70
     1
102
RTVSPropertyOp11
 70
     1
102
RTVSPropertyOp12
 70
     1
102
RTVSPropertyOp13
 70
     1
102
RTVSPropertyOp14
 70
     1
102
RTVSPropertyOp15
 70
     1
102
RTVSPropertyOp16
 70
     1
102
RTVSPropertyOp17
 70
     1
102
RTVSPropertyOp18
 70
     1
102
RTVSPropertyOp19
 70
     1
102
RTVSPropertyOp20
 70
     1
102
RTVSPropertyOp21
 70
     1
102
RTVSPropertyOp22
 70
     1
102
RTVSPropertyOp23
 70
     1
102
RTVSPropertyOp24
 70
     1
102
RTVSPropertyOp25
 70
     1
102
RTVSPropertyOp26
 70
     1
102
RTVSPropertyOp27
 70
     1
102
RTVSPropertyOp28
 70
     1
102
RTVSPropertyOp29
 70
     1
102
RTVSPropertyOp30
 70
     1
102
RTVSPropertyOp31
 70
     1
102
RTVSPropertyOp32
 70
     1
102
RTVSPropertyOp33
 70
     1
102
RTVSPropertyOp34
 70
     1
102
RTVSPropertyOp35
 70
     1
102
RTVSPropertyOp36
 70
     1
102
RTVSPropertyOp37
 70
     1
102
RTVSPropertyOp38
 70
     1
102
RTVSPropertyOp39
 70
     1
102
RTVSPropertyOp40
 70
     1
102
RTVSPropertyOp41
 70
     1
102
RTVSPropertyOp42
 70
     1
102
RTVSPropertyOp43
 70
     1
102
RTVSPropertyOp44
 70
     1
102
RTVSPropertyOp45
 70
     1
102
RTVSPropertyOp46
 70
     1
102
RTVSPropertyOp47
 70
     1
102
RTVSPropertyOp48
 70
     1
102
RTVSPropertyOp49
 70
     1
102
RTVSPropertyOp50
 70
     1
102
RTVSPropertyOp51
 70
     0
102
RTVSPropertyOp52
 70
     0
102
RTVSPropertyOp53
 70
     1
102
RTVSPropertyOp54
 70
     1
102
RTVSPropertyOp55
 70
     1
102
RTVSPropertyOp56
 70
     1
102
RTVSPropertyOp57
 70
     1
102
RTVSPost2010Prop28
280
     0
102
RTVSPost2010PropOp28
 70
     1
102
RTVSPost2010Prop29
280
     1
102
RTVSPost2010PropOp29
 70
     1
102
RTVSPost2010Prop30
280
     1
102
RTVSPost2010PropOp30
 70
     1
102
RTVSPost2010Prop31
280
     0
102
RTVSPost2010PropOp31
 70
     1
102
RTVSPost2010Prop32
280
     0
102
RTVSPost2010PropOp32
 70
     1
102
RTVSPost2010Prop33
280
     0
102
RTVSPost2010PropOp33
 70
     1
102
RTVSPost2010Prop34
280
     0
102
RTVSPost2010PropOp34
 70
     1
102
RTVSPost2010Prop35
280
     0
102
RTVSPost2010PropOp35
 70
     1
102
RTVSPost2010Prop36
280
     0
102
RTVSPost2010PropOp36
 70
     1
102
RTVSPost2010Prop37
 90
       50
102
RTVSPost2010PropOp37
 70
     1
102
RTVSPost2010Prop38
140
0.0
102
RTVSPost2010PropOp38
 70
     1
102
RTVSPost2010Prop39
140
1.0
102
RTVSPost2010PropOp39
 70
     1
102
RTVSPost2010Prop40
 90
        0
102
RTVSPost2010PropOp40
 70
     1
102
RTVSPost2010Prop41ColorIndex
 90
       18
102
RTVSPost2010Prop41ColorRGB
 90
        0
102
RTVSPost2010PropOp41
 70
     1
102
RTVSPost2010Prop42
 90
       50
102
RTVSPost2010PropOp42
 70
     1
102
RTVSPost2010Prop43
 90
        3
102
RTVSPost2010PropOp43
 70
     1
102
RTVSPost2010Prop44ColorIndex
 90
        5
102
RTVSPost2010Prop44ColorRGB
 90
      255
102
RTVSPost2010PropOp44
 70
     1
102
RTVSPost2010Prop45
280
     0
102
RTVSPost2010PropOp45
 70
     1
102
RTVSPost2010Prop46
 90
       50
102
RTVSPost2010PropOp46
 70
     1
102
RTVSPost2010Prop47
 90
       50
102
RTVSPost2010PropOp47
 70
     1
102
RTVSPost2010Prop48
 90
       50
102
RTVSPost2010PropOp48
 70
     1
102
RTVSPost2010Prop49
280
     0
102
RTVSPost2010PropOp49
 70
     1
102
RTVSPost2010Prop50
 90
       50
102
RTVSPost2010PropOp50
 70
     1
102
RTVSPost2010Prop51ColorIndex
 90
      256
102
RTVSPost2010Prop51ColorRGB
 90
-16777216
102
RTVSPost2010PropOp51
 70
     0
102
RTVSPost2010Prop52
140
1.0
102
RTVSPost2010PropOp52
 70
     0
102
RTVSPost2010Prop53
 90
        2
102
RTVSPost2010PropOp53
 70
     1
102
RTVSPost2010Prop54
  1
strokes_ogs.tif
102
RTVSPost2010PropOp54
 70
     1
102
RTVSPost2010Prop55
280
     0
102
RTVSPost2010PropOp55
 70
     1
102
RTVSPost2010Prop56
140
1.0
102
RTVSPost2010PropOp56
 70
     1
102
RTVSPost2010Prop57
140
1.0
102
RTVSPost2010PropOp57
 70
     1
  0
XRECORD
  5
3AB
102
{ACAD_REACTORS
330
3AA
102
}
330
3AA
100
AcDbXrecord
280
     1
102
RTVSPropertyOp0
 70
     1
102
RTVSPropertyOp1
 70
     1
102
RTVSPropertyOp2
 70
     1
102
RTVSPropertyOp3
 70
     1
102
RTVSPropertyOp4
 70
     1
102
RTVSPropertyOp5
 70
     1
102
RTVSPropertyOp6
 70
     1
102
RTVSPropertyOp7
 70
     1
102
RTVSPropertyOp8
 70
     1
102
RTVSPropertyOp9
 70
     1
102
RTVSPropertyOp10
 70
     1
102
RTVSPropertyOp11
 70
     1
102
RTVSPropertyOp12
 70
     1
102
RTVSPropertyOp13
 70
     1
102
RTVSPropertyOp14
 70
     1
102
RTVSPropertyOp15
 70
     1
102
RTVSPropertyOp16
 70
     1
102
RTVSPropertyOp17
 70
     1
102
RTVSPropertyOp18
 70
     1
102
RTVSPropertyOp19
 70
     1
102
RTVSPropertyOp20
 70
     1
102
RTVSPropertyOp21
 70
     1
102
RTVSPropertyOp22
 70
     1
102
RTVSPropertyOp23
 70
     1
102
RTVSPropertyOp24
 70
     1
102
RTVSPropertyOp25
 70
     1
102
RTVSPropertyOp26
 70
     1
102
RTVSPropertyOp27
 70
     1
102
RTVSPropertyOp28
 70
     1
102
RTVSPropertyOp29
 70
     1
102
RTVSPropertyOp30
 70
     1
102
RTVSPropertyOp31
 70
     1
102
RTVSPropertyOp32
 70
     1
102
RTVSPropertyOp33
 70
     1
102
RTVSPropertyOp34
 70
     1
102
RTVSPropertyOp35
 70
     1
102
RTVSPropertyOp36
 70
     1
102
RTVSPropertyOp37
 70
     1
102
RTVSPropertyOp38
 70
     1
102
RTVSPropertyOp39
 70
     1
102
RTVSPropertyOp40
 70
     1
102
RTVSPropertyOp41
 70
     1
102
RTVSPropertyOp42
 70
     1
102
RTVSPropertyOp43
 70
     1
102
RTVSPropertyOp44
 70
     1
102
RTVSPropertyOp45
 70
     1
102
RTVSPropertyOp46
 70
     1
102
RTVSPropertyOp47
 70
     1
102
RTVSPropertyOp48
 70
     1
102
RTVSPropertyOp49
 70
     1
102
RTVSPropertyOp50
 70
     1
102
RTVSPropertyOp51
 70
     0
102
RTVSPropertyOp52
 70
     0
102
RTVSPropertyOp53
 70
     1
102
RTVSPropertyOp54
 70
     1
102
RTVSPropertyOp55
 70
     1
102
RTVSPropertyOp56
 70
     1
102
RTVSPropertyOp57
 70
     1
102
RTVSPost2010Prop28
280
     0
102
RTVSPost2010PropOp28
 70
     1
102
RTVSPost2010Prop29
280
     1
102
RTVSPost2010PropOp29
 70
     1
102
RTVSPost2010Prop30
280
     1
102
RTVSPost2010PropOp30
 70
     1
102
RTVSPost2010Prop31
280
     0
102
RTVSPost2010PropOp31
 70
     1
102
RTVSPost2010Prop32
280
     0
102
RTVSPost2010PropOp32
 70
     1
102
RTVSPost2010Prop33
280
     0
102
RTVSPost2010PropOp33
 70
     1
102
RTVSPost2010Prop34
280
     0
102
RTVSPost2010PropOp34
 70
     1
102
RTVSPost2010Prop35
280
     0
102
RTVSPost2010PropOp35
 70
     1
102
RTVSPost2010Prop36
280
     0
102
RTVSPost2010PropOp36
 70
     1
102
RTVSPost2010Prop37
 90
       50
102
RTVSPost2010PropOp37
 70
     1
102
RTVSPost2010Prop38
140
0.0
102
RTVSPost2010PropOp38
 70
     1
102
RTVSPost2010Prop39
140
1.0
102
RTVSPost2010PropOp39
 70
     1
102
RTVSPost2010Prop40
 90
        0
102
RTVSPost2010PropOp40
 70
     1
102
RTVSPost2010Prop41ColorIndex
 90
       18
102
RTVSPost2010Prop41ColorRGB
 90
        0
102
RTVSPost2010PropOp41
 70
     1
102
RTVSPost2010Prop42
 90
       50
102
RTVSPost2010PropOp42
 70
     1
102
RTVSPost2010Prop43
 90
        3
102
RTVSPost2010PropOp43
 70
     1
102
RTVSPost2010Prop44ColorIndex
 90
        5
102
RTVSPost2010Prop44ColorRGB
 90
      255
102
RTVSPost2010PropOp44
 70
     1
102
RTVSPost2010Prop45
280
     0
102
RTVSPost2010PropOp45
 70
     1
102
RTVSPost2010Prop46
 90
       50
102
RTVSPost2010PropOp46
 70
     1
102
RTVSPost2010Prop47
 90
       50
102
RTVSPost2010PropOp47
 70
     1
102
RTVSPost2010Prop48
 90
       50
102
RTVSPost2010PropOp48
 70
     1
102
RTVSPost2010Prop49
280
     0
102
RTVSPost2010PropOp49
 70
     1
102
RTVSPost2010Prop50
 90
       50
102
RTVSPost2010PropOp50
 70
     1
102
RTVSPost2010Prop51ColorIndex
 90
      256
102
RTVSPost2010Prop51ColorRGB
 90
-16777216
102
RTVSPost2010PropOp51
 70
     0
102
RTVSPost2010Prop52
140
1.0
102
RTVSPost2010PropOp52
 70
     0
102
RTVSPost2010Prop53
 90
        2
102
RTVSPost2010PropOp53
 70
     1
102
RTVSPost2010Prop54
  1
strokes_ogs.tif
102
RTVSPost2010PropOp54
 70
     1
102
RTVSPost2010Prop55
280
     0
102
RTVSPost2010PropOp55
 70
     1
102
RTVSPost2010Prop56
140
1.0
102
RTVSPost2010PropOp56
 70
     1
102
RTVSPost2010Prop57
140
1.0
102
RTVSPost2010PropOp57
 70
     1
  0
XRECORD
  5
3CB
102
{ACAD_REACTORS
330
3CA
102
}
330
3CA
100
AcDbXrecord
280
     1
102
RTVSPropertyOp0
 70
     1
102
RTVSPropertyOp1
 70
     1
102
RTVSPropertyOp2
 70
     1
102
RTVSPropertyOp3
 70
     1
102
RTVSPropertyOp4
 70
     1
102
RTVSPropertyOp5
 70
     1
102
RTVSPropertyOp6
 70
     1
102
RTVSPropertyOp7
 70
     1
102
RTVSPropertyOp8
 70
     1
102
RTVSPropertyOp9
 70
     1
102
RTVSPropertyOp10
 70
     1
102
RTVSPropertyOp11
 70
     1
102
RTVSPropertyOp12
 70
     1
102
RTVSPropertyOp13
 70
     1
102
RTVSPropertyOp14
 70
     1
102
RTVSPropertyOp15
 70
     1
102
RTVSPropertyOp16
 70
     1
102
RTVSPropertyOp17
 70
     1
102
RTVSPropertyOp18
 70
     1
102
RTVSPropertyOp19
 70
     1
102
RTVSPropertyOp20
 70
     1
102
RTVSPropertyOp21
 70
     1
102
RTVSPropertyOp22
 70
     1
102
RTVSPropertyOp23
 70
     1
102
RTVSPropertyOp24
 70
     1
102
RTVSPropertyOp25
 70
     1
102
RTVSPropertyOp26
 70
     1
102
RTVSPropertyOp27
 70
     1
102
RTVSPropertyOp28
 70
     1
102
RTVSPropertyOp29
 70
     1
102
RTVSPropertyOp30
 70
     1
102
RTVSPropertyOp31
 70
     1
102
RTVSPropertyOp32
 70
     1
102
RTVSPropertyOp33
 70
     1
102
RTVSPropertyOp34
 70
     1
102
RTVSPropertyOp35
 70
     1
102
RTVSPropertyOp36
 70
     1
102
RTVSPropertyOp37
 70
     1
102
RTVSPropertyOp38
 70
     1
102
RTVSPropertyOp39
 70
     1
102
RTVSPropertyOp40
 70
     1
102
RTVSPropertyOp41
 70
     1
102
RTVSPropertyOp42
 70
     1
102
RTVSPropertyOp43
 70
     1
102
RTVSPropertyOp44
 70
     1
102
RTVSPropertyOp45
 70
     1
102
RTVSPropertyOp46
 70
     1
102
RTVSPropertyOp47
 70
     1
102
RTVSPropertyOp48
 70
     1
102
RTVSPropertyOp49
 70
     1
102
RTVSPropertyOp50
 70
     1
102
RTVSPropertyOp51
 70
     0
102
RTVSPropertyOp52
 70
     0
102
RTVSPropertyOp53
 70
     1
102
RTVSPropertyOp54
 70
     1
102
RTVSPropertyOp55
 70
     1
102
RTVSPropertyOp56
 70
     1
102
RTVSPropertyOp57
 70
     1
102
RTVSPost2010Prop28
280
     0
102
RTVSPost2010PropOp28
 70
     1
102
RTVSPost2010Prop29
280
     1
102
RTVSPost2010PropOp29
 70
     1
102
RTVSPost2010Prop30
280
     1
102
RTVSPost2010PropOp30
 70
     1
102
RTVSPost2010Prop31
280
     0
102
RTVSPost2010PropOp31
 70
     1
102
RTVSPost2010Prop32
280
     0
102
RTVSPost2010PropOp32
 70
     1
102
RTVSPost2010Prop33
280
     0
102
RTVSPost2010PropOp33
 70
     1
102
RTVSPost2010Prop34
280
     0
102
RTVSPost2010PropOp34
 70
     1
102
RTVSPost2010Prop35
280
     0
102
RTVSPost2010PropOp35
 70
     1
102
RTVSPost2010Prop36
280
     0
102
RTVSPost2010PropOp36
 70
     1
102
RTVSPost2010Prop37
 90
       50
102
RTVSPost2010PropOp37
 70
     1
102
RTVSPost2010Prop38
140
0.0
102
RTVSPost2010PropOp38
 70
     1
102
RTVSPost2010Prop39
140
1.0
102
RTVSPost2010PropOp39
 70
     1
102
RTVSPost2010Prop40
 90
        0
102
RTVSPost2010PropOp40
 70
     1
102
RTVSPost2010Prop41ColorIndex
 90
       18
102
RTVSPost2010Prop41ColorRGB
 90
        0
102
RTVSPost2010PropOp41
 70
     1
102
RTVSPost2010Prop42
 90
       50
102
RTVSPost2010PropOp42
 70
     1
102
RTVSPost2010Prop43
 90
        3
102
RTVSPost2010PropOp43
 70
     1
102
RTVSPost2010Prop44ColorIndex
 90
        5
102
RTVSPost2010Prop44ColorRGB
 90
      255
102
RTVSPost2010PropOp44
 70
     1
102
RTVSPost2010Prop45
280
     0
102
RTVSPost2010PropOp45
 70
     1
102
RTVSPost2010Prop46
 90
       50
102
RTVSPost2010PropOp46
 70
     1
102
RTVSPost2010Prop47
 90
       50
102
RTVSPost2010PropOp47
 70
     1
102
RTVSPost2010Prop48
 90
       50
102
RTVSPost2010PropOp48
 70
     1
102
RTVSPost2010Prop49
280
     0
102
RTVSPost2010PropOp49
 70
     1
102
RTVSPost2010Prop50
 90
       50
102
RTVSPost2010PropOp50
 70
     1
102
RTVSPost2010Prop51ColorIndex
 90
      256
102
RTVSPost2010Prop51ColorRGB
 90
-16777216
102
RTVSPost2010PropOp51
 70
     0
102
RTVSPost2010Prop52
140
1.0
102
RTVSPost2010PropOp52
 70
     0
102
RTVSPost2010Prop53
 90
        2
102
RTVSPost2010PropOp53
 70
     1
102
RTVSPost2010Prop54
  1
strokes_ogs.tif
102
RTVSPost2010PropOp54
 70
     1
102
RTVSPost2010Prop55
280
     0
102
RTVSPost2010PropOp55
 70
     1
102
RTVSPost2010Prop56
140
1.0
102
RTVSPost2010PropOp56
 70
     1
102
RTVSPost2010Prop57
140
1.0
102
RTVSPost2010PropOp57
 70
     1
  0
ENDSEC
  0
EOF
