  0
SECTION
  2
HEADER
  9
$ACADVER
  1
AC1015
  9
$ACADMAINTVER
 70
     6
  9
$DWGCODEPAGE
  3
DOS932
  9
$INSBASE
 10
0.0
 20
0.0
 30
0.0
  9
$EXTMIN
 10
0.0
 20
0.0
 30
0.0
  9
$EXTMAX
 10
297.0
 20
210.0
 30
0.0
  9
$LIMMIN
 10
0.0
 20
0.0
  9
$LIMMAX
 10
297.0
 20
210.0
  9
$ORTHOMODE
 70
     0
  9
$REGENMODE
 70
     1
  9
$FILLMODE
 70
     1
  9
$QTEXTMODE
 70
     0
  9
$MIRRTEXT
 70
     1
  9
$LTSCALE
 40
1.0
  9
$ATTMODE
 70
     1
  9
$TEXTSIZE
 40
3.5
  9
$TRACEWID
 40
1.0
  9
$TEXTSTYLE
  7
Standard
  9
$CLAYER
  8
0
  9
$CELTYPE
  6
ByLayer
  9
$CECOLOR
 62
   256
  9
$CELTSCALE
 40
1.0
  9
$DISPSILH
 70
     0
  9
$DIMSCALE
 40
1.0
  9
$DIMASZ
 40
2.0
  9
$DIMEXO
 40
0.01
  9
$DIMDLI
 40
3.75
  9
$DIMRND
 40
0.0
  9
$DIMDLE
 40
0.0
  9
$DIMEXE
 40
0.8
  9
$DIMTP
 40
0.0
  9
$DIMTM
 40
0.0
  9
$DIMTXT
 40
3.5
  9
$DIMCEN
 40
2.5
  9
$DIMTSZ
 40
0.0
  9
$DIMTOL
 70
     0
  9
$DIMLIM
 70
     0
  9
$DIMTIH
 70
     1
  9
$DIMTOH
 70
     1
  9
$DIMSE1
 70
     0
  9
$DIMSE2
 70
     0
  9
$DIMTAD
 70
     1
  9
$DIMZIN
 70
     0
  9
$DIMBLK
  1

  9
$DIMASO
 70
     1
  9
$DIMSHO
 70
     1
  9
$DIMPOST
  1

  9
$DIMAPOST
  1

  9
$DIMALT
 70
     0
  9
$DIMALTD
 70
     3
  9
$DIMALTF
 40
0.0393700787
  9
$DIMLFAC
 40
1.0
  9
$DIMTOFL
 70
     1
  9
$DIMTVP
 40
0.0
  9
$DIMTIX
 70
     0
  9
$DIMSOXD
 70
     0
  9
$DIMSAH
 70
     0
  9
$DIMBLK1
  1

  9
$DIMBLK2
  1

  9
$DIMSTYLE
  2
ISO-25
  9
$DIMCLRD
 70
     0
  9
$DIMCLRE
 70
     0
  9
$DIMCLRT
 70
     0
  9
$DIMTFAC
 40
1.0
  9
$DIMGAP
 40
1.0
  9
$DIMJUST
 70
     0
  9
$DIMSD1
 70
     0
  9
$DIMSD2
 70
     0
  9
$DIMTOLJ
 70
     0
  9
$DIMTZIN
 70
     0
  9
$DIMALTZ
 70
     0
  9
$DIMALTTZ
 70
     0
  9
$DIMUPT
 70
     0
  9
$DIMDEC
 70
     3
  9
$DIMTDEC
 70
     2
  9
$DIMALTU
 70
     2
  9
$DIMALTTD
 70
     3
  9
$DIMTXSTY
  7
Standard
  9
$DIMAUNIT
 70
     0
  9
$DIMADEC
 70
     3
  9
$DIMALTRND
 40
0.0
  9
$DIMAZIN
 70
     0
  9
$DIMDSEP
 70
    44
  9
$DIMATFIT
 70
     3
  9
$DIMFRAC
 70
     0
  9
$DIMLDRBLK
  1

  9
$DIMLUNIT
 70
     2
  9
$DIMLWD
 70
    -2
  9
$DIMLWE
 70
    -2
  9
$DIMTMOVE
 70
     0
  9
$LUNITS
 70
     2
  9
$LUPREC
 70
     3
  9
$SKETCHINC
 40
1.0
  9
$FILLETRAD
 40
10.0
  9
$AUNITS
 70
     0
  9
$AUPREC
 70
     3
  9
$MENU
  1
.
  9
$ELEVATION
 40
0.0
  9
$PELEVATION
 40
0.0
  9
$THICKNESS
 40
0.0
  9
$LIMCHECK
 70
     0
  9
$CHAMFERA
 40
10.0
  9
$CHAMFERB
 40
10.0
  9
$CHAMFERC
 40
20.0
  9
$CHAMFERD
 40
0.0
  9
$SKPOLY
 70
     0
  9
$TDCREATE
 40
2457357.603130961
  9
$TDUCREATE
 40
2457357.228130961
  9
$TDUPDATE
 40
2457357.603134201
  9
$TDUUPDATE
 40
2457357.228134201
  9
$TDINDWG
 40
0.0000000116
  9
$TDUSRTIMER
 40
0.0000000116
  9
$USRTIMER
 70
     1
  9
$ANGBASE
 50
0.0
  9
$ANGDIR
 70
     0
  9
$PDMODE
 70
     0
  9
$PDSIZE
 40
-1.0
  9
$PLINEWID
 40
0.0
  9
$SPLFRAME
 70
     0
  9
$SPLINETYPE
 70
     6
  9
$SPLINESEGS
 70
     8
  9
$HANDSEED
  5
301
  9
$SURFTAB1
 70
     6
  9
$SURFTAB2
 70
     6
  9
$SURFTYPE
 70
     6
  9
$SURFU
 70
     6
  9
$SURFV
 70
     6
  9
$UCSBASE
  2

  9
$UCSNAME
  2

  9
$UCSORG
 10
0.0
 20
0.0
 30
0.0
  9
$UCSXDIR
 10
1.0
 20
0.0
 30
0.0
  9
$UCSYDIR
 10
0.0
 20
1.0
 30
0.0
  9
$UCSORTHOREF
  2

  9
$UCSORTHOVIEW
 70
     0
  9
$UCSORGTOP
 10
0.0
 20
0.0
 30
0.0
  9
$UCSORGBOTTOM
 10
0.0
 20
0.0
 30
0.0
  9
$UCSORGLEFT
 10
0.0
 20
0.0
 30
0.0
  9
$UCSORGRIGHT
 10
0.0
 20
0.0
 30
0.0
  9
$UCSORGFRONT
 10
0.0
 20
0.0
 30
0.0
  9
$UCSORGBACK
 10
0.0
 20
0.0
 30
0.0
  9
$PUCSBASE
  2

  9
$PUCSNAME
  2

  9
$PUCSORG
 10
0.0
 20
0.0
 30
0.0
  9
$PUCSXDIR
 10
1.0
 20
0.0
 30
0.0
  9
$PUCSYDIR
 10
0.0
 20
1.0
 30
0.0
  9
$PUCSORTHOREF
  2

  9
$PUCSORTHOVIEW
 70
     0
  9
$PUCSORGTOP
 10
0.0
 20
0.0
 30
0.0
  9
$PUCSORGBOTTOM
 10
0.0
 20
0.0
 30
0.0
  9
$PUCSORGLEFT
 10
0.0
 20
0.0
 30
0.0
  9
$PUCSORGRIGHT
 10
0.0
 20
0.0
 30
0.0
  9
$PUCSORGFRONT
 10
0.0
 20
0.0
 30
0.0
  9
$PUCSORGBACK
 10
0.0
 20
0.0
 30
0.0
  9
$USERI1
 70
     0
  9
$USERI2
 70
     0
  9
$USERI3
 70
     0
  9
$USERI4
 70
     0
  9
$USERI5
 70
     0
  9
$USERR1
 40
0.0
  9
$USERR2
 40
0.0
  9
$USERR3
 40
0.0
  9
$USERR4
 40
0.0
  9
$USERR5
 40
0.0
  9
$WORLDVIEW
 70
     1
  9
$SHADEDGE
 70
     3
  9
$SHADEDIF
 70
    70
  9
$TILEMODE
 70
     1
  9
$MAXACTVP
 70
    64
  9
$PINSBASE
 10
0.0
 20
0.0
 30
0.0
  9
$PLIMCHECK
 70
     0
  9
$PEXTMIN
 10
1.0000000000E+20
 20
1.0000000000E+20
 30
1.0000000000E+20
  9
$PEXTMAX
 10
-1.0000000000E+20
 20
-1.0000000000E+20
 30
-1.0000000000E+20
  9
$PLIMMIN
 10
0.0
 20
0.0
  9
$PLIMMAX
 10
420.0
 20
297.0
  9
$UNITMODE
 70
     0
  9
$VISRETAIN
 70
     1
  9
$PLINEGEN
 70
     0
  9
$PSLTSCALE
 70
     1
  9
$TREEDEPTH
 70
  3020
  9
$CMLSTYLE
  2
Standard
  9
$CMLJUST
 70
     0
  9
$CMLSCALE
 40
20.0
  9
$PROXYGRAPHICS
 70
     1
  9
$MEASUREMENT
 70
     1
  9
$CELWEIGHT
370
    -1
  9
$ENDCAPS
280
     0
  9
$JOINSTYLE
280
     0
  9
$LWDISPLAY
290
     1
  9
$INSUNITS
 70
     4
  9
$HYPERLINKBASE
  1

  9
$STYLESHEET
  1

  9
$XEDIT
290
     1
  9
$CEPSNTYPE
380
     0
  9
$PSTYLEMODE
290
     1
  9
$FINGERPRINTGUID
  2
{68B179E6-F5C3-4F16-AE3C-26A743BCEA1E}
  9
$VERSIONGUID
  2
{FAEB1C32-E019-11D5-929B-00C0DF256EC4}
  9
$EXTNAMES
290
     1
  9
$PSVPSCALE
 40
0.0
  9
$OLESTARTUP
290
     0
  0
ENDSEC
  0
SECTION
  2
CLASSES
  0
CLASS
  1
ACDBDICTIONARYWDFLT
  2
AcDbDictionaryWithDefault
  3
ObjectDBX Classes
 90
        0
280
     0
281
     0
  0
CLASS
  1
VISUALSTYLE
  2
AcDbVisualStyle
  3
ObjectDBX Classes
 90
     4095
280
     0
281
     0
  0
CLASS
  1
MATERIAL
  2
AcDbMaterial
  3
ObjectDBX Classes
 90
     1153
280
     0
281
     0
  0
CLASS
  1
ACDBPLACEHOLDER
  2
AcDbPlaceHolder
  3
ObjectDBX Classes
 90
        0
280
     0
281
     0
  0
CLASS
  1
LAYOUT
  2
AcDbLayout
  3
ObjectDBX Classes
 90
        0
280
     0
281
     0
  0
ENDSEC
  0
SECTION
  2
TABLES
  0
TABLE
  2
VPORT
  5
8
330
0
100
AcDbSymbolTable
 70
     1
  0
VPORT
  5
29
330
8
100
AcDbSymbolTableRecord
100
AcDbViewportTableRecord
  2
*Active
 70
     0
 10
0.0
 20
0.0
 11
1.0
 21
1.0
 12
148.5
 22
105.0
 13
0.0
 23
0.0
 14
10.0
 24
10.0
 15
10.0
 25
10.0
 16
0.0
 26
0.0
 36
1.0
 17
0.0
 27
0.0
 37
0.0
 40
210.0
 41
1.4142857143
 42
50.0
 43
0.0
 44
0.0
 50
0.0
 51
0.0
 71
     0
 72
  2000
 73
     1
 74
     3
 75
     0
 76
     0
 77
     0
 78
     0
281
     0
 65
     1
110
0.0
120
0.0
130
0.0
111
1.0
121
0.0
131
0.0
112
0.0
122
1.0
132
0.0
 79
     0
146
0.0
  0
ENDTAB
  0
TABLE
  2
LTYPE
  5
5
330
0
100
AcDbSymbolTable
 70
     6
  0
LTYPE
  5
14
330
5
100
AcDbSymbolTableRecord
100
AcDbLinetypeTableRecord
  2
ByBlock
 70
     0
  3

 72
    65
 73
     0
 40
0.0
  0
LTYPE
  5
15
330
5
100
AcDbSymbolTableRecord
100
AcDbLinetypeTableRecord
  2
ByLayer
 70
     0
  3

 72
    65
 73
     0
 40
0.0
  0
LTYPE
  5
16
330
5
100
AcDbSymbolTableRecord
100
AcDbLinetypeTableRecord
  2
Continuous
 70
     0
  3
Solid line
 72
    65
 73
     0
 40
0.0
  0
LTYPE
  5
3F
330
5
100
AcDbSymbolTableRecord
100
AcDbLinetypeTableRecord
  2
HIDDEN
 70
     0
  3
Hidden __ __ __ __ __ __ __ __ __ __ __ __ __ __
 72
    65
 73
     2
 40
1.905
 49
1.27
 74
     0
 49
-0.635
 74
     0
  0
LTYPE
  5
40
330
5
100
AcDbSymbolTableRecord
100
AcDbLinetypeTableRecord
  2
PHANTOM
 70
     0
  3
Phantom ______  __  __  ______  __  __  ______
 72
    65
 73
     6
 40
12.7
 49
6.35
 74
     0
 49
-1.27
 74
     0
 49
1.27
 74
     0
 49
-1.27
 74
     0
 49
1.27
 74
     0
 49
-1.27
 74
     0
  0
LTYPE
  5
41
330
5
100
AcDbSymbolTableRecord
100
AcDbLinetypeTableRecord
  2
CENTER
 70
     0
  3
Center ____ _ ____ _ ____ _ ____ _ ____ _ ____
 72
    65
 73
     4
 40
10.16
 49
6.35
 74
     0
 49
-1.27
 74
     0
 49
1.27
 74
     0
 49
-1.27
 74
     0
  0
LTYPE
  5
42
330
5
100
AcDbSymbolTableRecord
100
AcDbLinetypeTableRecord
  2
CENTERX2
 70
     0
  3
Center (2x) ________  __  ________  __  _____
 72
    65
 73
     4
 40
20.32
 49
12.7
 74
     0
 49
-2.54
 74
     0
 49
2.54
 74
     0
 49
-2.54
 74
     0
  0
LTYPE
  5
43
330
5
100
AcDbSymbolTableRecord
100
AcDbLinetypeTableRecord
  2
DOT2
 70
     0
  3
Dot (.5x) ........................................
 72
    65
 73
     2
 40
0.635
 49
0.0
 74
     0
 49
-0.635
 74
     0
  0
ENDTAB
  0
TABLE
  2
LAYER
  5
2
330
0
100
AcDbSymbolTable
 70
     3
  0
LAYER
  5
10
330
2
100
AcDbSymbolTableRecord
100
AcDbLayerTableRecord
  2
0
 70
     0
 62
     7
  6
Continuous
370
    -3
390
F
  0
LAYER
  5
44
330
2
100
AcDbSymbolTableRecord
100
AcDbLayerTableRecord
  2
SLD-0
 70
     0
 62
  -179
  6
Continuous
370
    -3
390
F
  0
LAYER
  5
45
330
2
100
AcDbSymbolTableRecord
100
AcDbLayerTableRecord
  2
1
 70
     0
 62
   179
  6
Continuous
370
    -3
390
F
  0
ENDTAB
  0
TABLE
  2
STYLE
  5
3
330
0
100
AcDbSymbolTable
 70
     2
  0
STYLE
  5
11
330
3
100
AcDbSymbolTableRecord
100
AcDbTextStyleTableRecord
  2
Standard
 70
     0
 40
0.0
 41
1.0
 50
0.0
 71
     0
 42
3.5
  3
txt
  4
bigfont
  0
STYLE
  5
1DA
330
3
100
AcDbSymbolTableRecord
100
AcDbTextStyleTableRecord
  2
SLDTEXTSTYLE0
 70
     0
 40
0.0
 41
0.7
 50
0.0
 71
     0
 42
0.2
  3
TXT
  4
bigfont
  0
ENDTAB
  0
TABLE
  2
VIEW
  5
6
330
0
100
AcDbSymbolTable
 70
     0
  0
ENDTAB
  0
TABLE
  2
UCS
  5
7
330
0
100
AcDbSymbolTable
 70
     0
  0
ENDTAB
  0
TABLE
  2
APPID
  5
9
330
0
100
AcDbSymbolTable
 70
     1
  0
APPID
  5
12
330
9
100
AcDbSymbolTableRecord
100
AcDbRegAppTableRecord
  2
ACAD
 70
     0
  0
ENDTAB
  0
TABLE
  2
DIMSTYLE
  5
A
330
0
100
AcDbSymbolTable
 70
     4
100
AcDbDimStyleTable
  0
DIMSTYLE
105
27
330
A
100
AcDbSymbolTableRecord
100
AcDbDimStyleTableRecord
  2
ISO-25
 70
     0
 41
2.5
 42
0.625
 43
3.75
 44
1.25
 73
     0
 74
     0
 77
     1
 78
     8
140
2.5
141
2.5
143
0.0393700787
147
0.625
171
     3
172
     1
178
     0
271
     2
272
     2
274
     3
278
    44
283
     0
284
     8
340
11
  0
DIMSTYLE
105
1DB
102
{ACAD_REACTORS
330
1D9
102
}
330
A
100
AcDbSymbolTableRecord
100
AcDbDimStyleTableRecord
  2
SLDDIMSTYLE0
 70
     0
 41
2.0
 44
0.0
 45
0.000000001
 48
0.01
 71
     1
 73
     0
 74
     0
 77
     3
 78
    12
 79
     3
140
3.5
147
0.875
173
     1
178
     0
271
     3
272
     2
276
     2
284
     8
340
1DA
341
1DC
343
1DC
344
1DC
  0
DIMSTYLE
105
1F2
102
{ACAD_REACTORS
330
1F1
330
1FD
330
207
330
213
330
21D
330
227
330
231
330
23B
330
246
330
2DF
102
}
330
A
100
AcDbSymbolTableRecord
100
AcDbDimStyleTableRecord
  2
SLDDIMSTYLE1
 70
     0
 41
2.0
 44
0.0
 45
0.000000001
 73
     0
 74
     0
 77
     3
 78
    12
 79
     3
140
3.5
147
0.875
173
     1
178
     0
271
     3
272
     2
276
     2
284
    12
340
1DA
341
1DC
343
1DC
344
1DC
  0
DIMSTYLE
105
2EA
330
A
100
AcDbSymbolTableRecord
100
AcDbDimStyleTableRecord
  2
SLDDIMSTYLE2
 70
     0
 41
1.0
 44
0.0
 45
0.000000001
140
0.0
147
0.0
173
     1
178
     0
271
     0
272
     0
276
     2
340
11
341
2EB
343
2EB
344
2EB
  0
ENDTAB
  0
TABLE
  2
BLOCK_RECORD
  5
1
330
0
100
AcDbSymbolTable
 70
    15
  0
BLOCK_RECORD
  5
1F
330
1
100
AcDbSymbolTableRecord
100
AcDbBlockTableRecord
  2
*Model_Space
340
22
  0
BLOCK_RECORD
  5
1B
330
1
100
AcDbSymbolTableRecord
100
AcDbBlockTableRecord
  2
*Paper_Space
340
1E
  0
BLOCK_RECORD
  5
23
330
1
100
AcDbSymbolTableRecord
100
AcDbBlockTableRecord
  2
*Paper_Space0
340
26
  0
BLOCK_RECORD
  5
1DC
330
1
100
AcDbSymbolTableRecord
100
AcDbBlockTableRecord
  2
_OPEN30
340
0
102
{BLKREFS
331
1E5
331
1E6
331
1F6
331
1F7
331
201
331
202
331
20D
331
20E
331
217
331
218
331
221
331
222
331
22B
331
22C
331
235
331
236
331
23F
331
240
331
24A
331
24B
331
2E3
331
2E4
102
}
  0
BLOCK_RECORD
  5
1E2
330
1
100
AcDbSymbolTableRecord
100
AcDbBlockTableRecord
  2
_D
340
0
  0
BLOCK_RECORD
  5
1F3
330
1
100
AcDbSymbolTableRecord
100
AcDbBlockTableRecord
  2
_D_1
340
0
  0
BLOCK_RECORD
  5
1FE
330
1
100
AcDbSymbolTableRecord
100
AcDbBlockTableRecord
  2
_D_2
340
0
  0
BLOCK_RECORD
  5
208
330
1
100
AcDbSymbolTableRecord
100
AcDbBlockTableRecord
  2
_D_3
340
0
  0
BLOCK_RECORD
  5
214
330
1
100
AcDbSymbolTableRecord
100
AcDbBlockTableRecord
  2
_D_4
340
0
  0
BLOCK_RECORD
  5
21E
330
1
100
AcDbSymbolTableRecord
100
AcDbBlockTableRecord
  2
_D_5
340
0
  0
BLOCK_RECORD
  5
228
330
1
100
AcDbSymbolTableRecord
100
AcDbBlockTableRecord
  2
_D_6
340
0
  0
BLOCK_RECORD
  5
232
330
1
100
AcDbSymbolTableRecord
100
AcDbBlockTableRecord
  2
_D_7
340
0
  0
BLOCK_RECORD
  5
23C
330
1
100
AcDbSymbolTableRecord
100
AcDbBlockTableRecord
  2
_D_8
340
0
  0
BLOCK_RECORD
  5
247
330
1
100
AcDbSymbolTableRecord
100
AcDbBlockTableRecord
  2
_D_9
340
0
  0
BLOCK_RECORD
  5
2E0
330
1
100
AcDbSymbolTableRecord
100
AcDbBlockTableRecord
  2
_D_10
340
0
  0
BLOCK_RECORD
  5
2EB
330
1
100
AcDbSymbolTableRecord
100
AcDbBlockTableRecord
  2
_DOT
340
0
  0
BLOCK_RECORD
  5
2F8
330
1
100
AcDbSymbolTableRecord
100
AcDbBlockTableRecord
  2
SW_NOTE_0
340
0
102
{BLKREFS
331
2FD
102
}
  0
ENDTAB
  0
ENDSEC
  0
SECTION
  2
BLOCKS
  0
BLOCK
  5
20
330
1F
100
AcDbEntity
  8
0
100
AcDbBlockBegin
  2
*Model_Space
 70
     0
 10
0.0
 20
0.0
 30
0.0
  3
*Model_Space
  1

  0
ENDBLK
  5
21
330
1F
100
AcDbEntity
  8
0
100
AcDbBlockEnd
  0
BLOCK
  5
1C
330
1B
100
AcDbEntity
 67
     1
  8
0
100
AcDbBlockBegin
  2
*Paper_Space
 70
     0
 10
0.0
 20
0.0
 30
0.0
  3
*Paper_Space
  1

  0
ENDBLK
  5
1D
330
1B
100
AcDbEntity
 67
     1
  8
0
100
AcDbBlockEnd
  0
BLOCK
  5
24
330
23
100
AcDbEntity
  8
0
100
AcDbBlockBegin
  2
*Paper_Space0
 70
     0
 10
0.0
 20
0.0
 30
0.0
  3
*Paper_Space0
  1

  0
ENDBLK
  5
25
330
23
100
AcDbEntity
  8
0
100
AcDbBlockEnd
  0
BLOCK
  5
1DD
330
1DC
100
AcDbEntity
  8
0
100
AcDbBlockBegin
  2
_OPEN30
 70
     0
 10
0.0
 20
0.0
 30
0.0
  3
_OPEN30
  1

  0
LINE
  5
1DF
330
1DC
100
AcDbEntity
  8
0
  6
ByBlock
 62
     0
370
    -2
100
AcDbLine
 10
-1.0
 20
0.267949
 30
0.0
 11
0.0
 21
0.0
 31
0.0
  0
LINE
  5
1E0
330
1DC
100
AcDbEntity
  8
0
  6
ByBlock
 62
     0
370
    -2
100
AcDbLine
 10
0.0
 20
0.0
 30
0.0
 11
-1.0
 21
-0.267949
 31
0.0
  0
LINE
  5
1E1
330
1DC
100
AcDbEntity
  8
0
  6
ByBlock
 62
     0
370
    -2
100
AcDbLine
 10
0.0
 20
0.0
 30
0.0
 11
-1.0
 21
0.0
 31
0.0
  0
ENDBLK
  5
1DE
330
1DC
100
AcDbEntity
  8
0
100
AcDbBlockEnd
  0
BLOCK
  5
1E3
330
1E2
100
AcDbEntity
  8
0
100
AcDbBlockBegin
  2
_D
 70
     0
 10
0.0
 20
0.0
 30
0.0
  3
_D
  1

  0
INSERT
  5
1E5
330
1E2
100
AcDbEntity
  8
1
100
AcDbBlockReference
  2
_OPEN30
 10
-32.8591519472
 20
70.1778599333
 30
0.1
 41
2.0
 42
2.0
 50
90.0
  0
INSERT
  5
1E6
330
1E2
100
AcDbEntity
  8
1
100
AcDbBlockReference
  2
_OPEN30
 10
-32.8591519472
 20
30.1778599333
 30
0.1
 41
2.0
 42
2.0
 50
270.0
  0
LINE
  5
1E7
330
1E2
100
AcDbEntity
  8
1
100
AcDbLine
 10
39.6768088971
 20
70.1778599333
 30
0.0
 11
-33.6591519472
 21
70.1778599333
 31
0.0
  0
LINE
  5
1E8
330
1E2
100
AcDbEntity
  8
1
100
AcDbLine
 10
39.6768088971
 20
30.1778599333
 30
0.0
 11
-33.6591519472
 21
30.1778599333
 31
0.0
  0
LINE
  5
1E9
330
1E2
100
AcDbEntity
  8
1
100
AcDbLine
 10
-32.8591519472
 20
70.1778599333
 30
0.0
 11
-32.8591519472
 21
30.1778599333
 31
0.0
  0
MTEXT
  5
1EA
330
1E2
100
AcDbEntity
  8
1
100
AcDbMText
 10
-37.3708892692
 20
41.9968523543
 30
0.1
 40
3.5
 41
0.0
 71
     1
 72
     1
  1
%%c
  7
SLDTEXTSTYLE0
 11
-7.044195017643634E-15
 21
1.0
 31
0.0
 73
     1
 44
1.0
  0
MTEXT
  5
1EB
330
1E2
100
AcDbEntity
  8
1
100
AcDbMText
 10
-37.3708892692
 20
45.8667828694
 30
0.1
 40
3.5
 41
0.0
 71
     1
 72
     1
  1
40
  7
SLDTEXTSTYLE0
 11
-7.044195017643634E-15
 21
1.0
 31
0.0
 73
     1
 44
1.0
  0
MTEXT
  5
1EC
330
1E2
100
AcDbEntity
  8
1
100
AcDbMText
 10
-37.3708892692
 20
51.1435190972
 30
0.1
 40
3.5
 41
0.0
 71
     1
 72
     1
  1

  7
SLDTEXTSTYLE0
 11
-7.044195017643634E-15
 21
1.0
 31
0.0
 73
     1
 44
1.0
  0
MTEXT
  5
1ED
330
1E2
100
AcDbEntity
  8
1
100
AcDbMText
 10
-39.8421526966
 20
52.4613658593
 30
0.1
 40
2.8
 41
0.0
 71
     1
 72
     1
  1

  7
SLDTEXTSTYLE0
 11
-7.044195017643634E-15
 21
1.0
 31
0.0
 73
     1
 44
1.0
  0
MTEXT
  5
1EE
330
1E2
100
AcDbEntity
  8
1
100
AcDbMText
 10
-36.5832638541
 20
51.1799769934
 30
0.1
 40
2.8
 41
0.0
 71
     1
 72
     1
  1
-
  7
SLDTEXTSTYLE0
 11
-7.044195017643634E-15
 21
1.0
 31
0.0
 73
     1
 44
1.0
  0
MTEXT
  5
1EF
330
1E2
100
AcDbEntity
  8
1
100
AcDbMText
 10
-39.8421526966
 20
52.8094217639
 30
0.1
 40
2.8
 41
0.0
 71
     1
 72
     1
  1
0
  7
SLDTEXTSTYLE0
 11
-7.044195017643634E-15
 21
1.0
 31
0.0
 73
     1
 44
1.0
  0
MTEXT
  5
1F0
330
1E2
100
AcDbEntity
  8
1
100
AcDbMText
 10
-36.5832638541
 20
52.8094217639
 30
0.1
 40
2.8
 41
0.0
 71
     1
 72
     1
  1
0.01
  7
SLDTEXTSTYLE0
 11
-7.044195017643634E-15
 21
1.0
 31
0.0
 73
     1
 44
1.0
  0
ENDBLK
  5
1E4
330
1E2
100
AcDbEntity
  8
0
100
AcDbBlockEnd
  0
BLOCK
  5
1F4
330
1F3
100
AcDbEntity
  8
0
100
AcDbBlockBegin
  2
_D_1
 70
     0
 10
0.0
 20
0.0
 30
0.0
  3
_D_1
  1

  0
INSERT
  5
1F6
330
1F3
100
AcDbEntity
  8
1
100
AcDbBlockReference
  2
_OPEN30
 10
-23.8131911029
 20
61.6778599333
 30
0.1
 41
2.0
 42
2.0
 50
90.0
  0
INSERT
  5
1F7
330
1F3
100
AcDbEntity
  8
1
100
AcDbBlockReference
  2
_OPEN30
 10
-23.8131911029
 20
38.6778599333
 30
0.1
 41
2.0
 42
2.0
 50
270.0
  0
LINE
  5
1F8
330
1F3
100
AcDbEntity
  8
1
100
AcDbLine
 10
6.0621813076
 20
61.6778599333
 30
0.0
 11
-24.6131911029
 21
61.6778599333
 31
0.0
  0
LINE
  5
1F9
330
1F3
100
AcDbEntity
  8
1
100
AcDbLine
 10
6.0621813076
 20
38.6778599333
 30
0.0
 11
-24.6131911029
 21
38.6778599333
 31
0.0
  0
LINE
  5
1FA
330
1F3
100
AcDbEntity
  8
1
100
AcDbLine
 10
-23.8131911029
 20
61.6778599333
 30
0.0
 11
-23.8131911029
 21
38.6778599333
 31
0.0
  0
MTEXT
  5
1FB
330
1F3
100
AcDbEntity
  8
1
100
AcDbMText
 10
-28.3249284249
 20
46.2060890618
 30
0.1
 40
3.5
 41
0.0
 71
     1
 72
     1
  1
%%c
  7
SLDTEXTSTYLE0
 11
-7.044195017643634E-15
 21
1.0
 31
0.0
 73
     1
 44
1.0
  0
MTEXT
  5
1FC
330
1F3
100
AcDbEntity
  8
1
100
AcDbMText
 10
-28.3249284249
 20
50.0760195769
 30
0.1
 40
3.5
 41
0.0
 71
     1
 72
     1
  1
23
  7
SLDTEXTSTYLE0
 11
-7.044195017643634E-15
 21
1.0
 31
0.0
 73
     1
 44
1.0
  0
ENDBLK
  5
1F5
330
1F3
100
AcDbEntity
  8
0
100
AcDbBlockEnd
  0
BLOCK
  5
1FF
330
1FE
100
AcDbEntity
  8
0
100
AcDbBlockBegin
  2
_D_2
 70
     0
 10
0.0
 20
0.0
 30
0.0
  3
_D_2
  1

  0
INSERT
  5
201
330
1FE
100
AcDbEntity
  8
1
100
AcDbBlockReference
  2
_OPEN30
 10
1.1868088971
 20
82.99116353
 30
0.1
 41
2.0
 42
2.0
 50
180.0
  0
INSERT
  5
202
330
1FE
100
AcDbEntity
  8
1
100
AcDbBlockReference
  2
_OPEN30
 10
18.5868088971
 20
82.99116353
 30
0.1
 41
2.0
 42
2.0
 50
0.0
  0
LINE
  5
203
330
1FE
100
AcDbEntity
  8
1
100
AcDbLine
 10
1.1868088971
 20
57.9672928827
 30
0.0
 11
1.1868088971
 21
83.79116353
 31
0.0
  0
LINE
  5
204
330
1FE
100
AcDbEntity
  8
1
100
AcDbLine
 10
18.5868088971
 20
61.1878599333
 30
0.0
 11
18.5868088971
 21
83.79116353
 31
0.0
  0
LINE
  5
205
330
1FE
100
AcDbEntity
  8
1
100
AcDbLine
 10
1.1868088971
 20
82.99116353
 30
0.0
 11
18.5868088971
 21
82.99116353
 31
0.0
  0
MTEXT
  5
206
330
1FE
100
AcDbEntity
  8
1
100
AcDbMText
 10
6.4184062357
 20
87.5029003864
 30
0.1
 40
3.5
 41
0.0
 71
     1
 72
     1
  1
17.4
  7
SLDTEXTSTYLE0
 73
     1
 44
1.0
  0
ENDBLK
  5
200
330
1FE
100
AcDbEntity
  8
0
100
AcDbBlockEnd
  0
BLOCK
  5
209
330
208
100
AcDbEntity
  8
0
100
AcDbBlockBegin
  2
_D_3
 70
     0
 10
0.0
 20
0.0
 30
0.0
  3
_D_3
  1

  0
ARC
  5
20B
330
208
100
AcDbEntity
  8
1
100
AcDbCircle
 10
16.6920171725
 20
104.869628489
 30
0.0
 40
4.554435549315964
100
AcDbArc
 50
153.4349488229
 51
206.5650511771
  0
ARC
  5
20C
330
208
100
AcDbEntity
  8
1
100
AcDbCircle
 10
15.4816005053
 20
104.869628489
 30
0.0
 40
4.554435549315964
100
AcDbArc
 50
333.4349488229
 51
26.5650511771
  0
INSERT
  5
20D
330
208
100
AcDbEntity
  8
1
100
AcDbBlockReference
  2
_OPEN30
 10
1.1868088971
 20
102.8328229915
 30
0.1
 41
2.0
 42
2.0
 50
180.0
  0
INSERT
  5
20E
330
208
100
AcDbEntity
  8
1
100
AcDbBlockReference
  2
_OPEN30
 10
30.9868088971
 20
102.8328229915
 30
0.1
 41
2.0
 42
2.0
 50
0.0
  0
LINE
  5
20F
330
208
100
AcDbEntity
  8
1
100
AcDbLine
 10
1.1868088971
 20
57.9672928827
 30
0.0
 11
1.1868088971
 21
103.6328229915
 31
0.0
  0
LINE
  5
210
330
208
100
AcDbEntity
  8
1
100
AcDbLine
 10
30.9868088971
 20
69.9378599333
 30
0.0
 11
30.9868088971
 21
103.6328229915
 31
0.0
  0
LINE
  5
211
330
208
100
AcDbEntity
  8
1
100
AcDbLine
 10
1.1868088971
 20
102.8328229915
 30
0.0
 11
30.9868088971
 21
102.8328229915
 31
0.0
  0
MTEXT
  5
212
330
208
100
AcDbEntity
  8
1
100
AcDbMText
 10
12.6184061775
 20
107.3445598479
 30
0.1
 40
3.5
 41
0.0
 71
     1
 72
     1
  1
29.8
  7
SLDTEXTSTYLE0
 73
     1
 44
1.0
  0
ENDBLK
  5
20A
330
208
100
AcDbEntity
  8
0
100
AcDbBlockEnd
  0
BLOCK
  5
215
330
214
100
AcDbEntity
  8
0
100
AcDbBlockBegin
  2
_D_4
 70
     0
 10
0.0
 20
0.0
 30
0.0
  3
_D_4
  1

  0
INSERT
  5
217
330
214
100
AcDbEntity
  8
1
100
AcDbBlockReference
  2
_OPEN30
 10
30.9868088971
 20
102.8328229915
 30
0.1
 41
2.0
 42
2.0
 50
180.0
  0
INSERT
  5
218
330
214
100
AcDbEntity
  8
1
100
AcDbBlockReference
  2
_OPEN30
 10
285.2868088971
 20
102.8328229915
 30
0.1
 41
2.0
 42
2.0
 50
0.0
  0
LINE
  5
219
330
214
100
AcDbEntity
  8
1
100
AcDbLine
 10
30.9868088971
 20
69.9378599333
 30
0.0
 11
30.9868088971
 21
103.6328229915
 31
0.0
  0
LINE
  5
21A
330
214
100
AcDbEntity
  8
1
100
AcDbLine
 10
285.2868088971
 20
63.1878599333
 30
0.0
 11
285.2868088971
 21
103.6328229915
 31
0.0
  0
LINE
  5
21B
330
214
100
AcDbEntity
  8
1
100
AcDbLine
 10
30.9868088971
 20
102.8328229915
 30
0.0
 11
285.2868088971
 21
102.8328229915
 31
0.0
  0
MTEXT
  5
21C
330
214
100
AcDbEntity
  8
1
100
AcDbMText
 10
153.6500031378
 20
107.3445598479
 30
0.1
 40
3.5
 41
0.0
 71
     1
 72
     1
  1
254.3
  7
SLDTEXTSTYLE0
 73
     1
 44
1.0
  0
ENDBLK
  5
216
330
214
100
AcDbEntity
  8
0
100
AcDbBlockEnd
  0
BLOCK
  5
21F
330
21E
100
AcDbEntity
  8
0
100
AcDbBlockBegin
  2
_D_5
 70
     0
 10
0.0
 20
0.0
 30
0.0
  3
_D_5
  1

  0
INSERT
  5
221
330
21E
100
AcDbEntity
  8
1
100
AcDbBlockReference
  2
_OPEN30
 10
180.9868088971
 20
94.1260452653
 30
0.1
 41
2.0
 42
2.0
 50
0.0
  0
INSERT
  5
222
330
21E
100
AcDbEntity
  8
1
100
AcDbBlockReference
  2
_OPEN30
 10
30.9868088971
 20
94.1260452653
 30
0.1
 41
2.0
 42
2.0
 50
180.0
  0
LINE
  5
223
330
21E
100
AcDbEntity
  8
1
100
AcDbLine
 10
180.9868088971
 20
70.1728599333
 30
0.0
 11
180.9868088971
 21
94.9260452653
 31
0.0
  0
LINE
  5
224
330
21E
100
AcDbEntity
  8
1
100
AcDbLine
 10
30.9868088971
 20
69.9378599333
 30
0.0
 11
30.9868088971
 21
94.9260452653
 31
0.0
  0
LINE
  5
225
330
21E
100
AcDbEntity
  8
1
100
AcDbLine
 10
180.9868088971
 20
94.1260452653
 30
0.0
 11
30.9868088971
 21
94.1260452653
 31
0.0
  0
MTEXT
  5
226
330
21E
100
AcDbEntity
  8
1
100
AcDbMText
 10
102.9316005345
 20
98.6377821217
 30
0.1
 40
3.5
 41
0.0
 71
     1
 72
     1
  1
150
  7
SLDTEXTSTYLE0
 73
     1
 44
1.0
  0
ENDBLK
  5
220
330
21E
100
AcDbEntity
  8
0
100
AcDbBlockEnd
  0
BLOCK
  5
229
330
228
100
AcDbEntity
  8
0
100
AcDbBlockBegin
  2
_D_6
 70
     0
 10
0.0
 20
0.0
 30
0.0
  3
_D_6
  1

  0
INSERT
  5
22B
330
228
100
AcDbEntity
  8
1
100
AcDbBlockReference
  2
_OPEN30
 10
180.9868088971
 20
94.1260452653
 30
0.1
 41
2.0
 42
2.0
 50
180.0
  0
INSERT
  5
22C
330
228
100
AcDbEntity
  8
1
100
AcDbBlockReference
  2
_OPEN30
 10
233.2868088971
 20
94.1260452653
 30
0.1
 41
2.0
 42
2.0
 50
0.0
  0
LINE
  5
22D
330
228
100
AcDbEntity
  8
1
100
AcDbLine
 10
180.9868088971
 20
70.1728599333
 30
0.0
 11
180.9868088971
 21
94.9260452653
 31
0.0
  0
LINE
  5
22E
330
228
100
AcDbEntity
  8
1
100
AcDbLine
 10
233.2868088971
 20
69.6300820285
 30
0.0
 11
233.2868088971
 21
94.9260452653
 31
0.0
  0
LINE
  5
22F
330
228
100
AcDbEntity
  8
1
100
AcDbLine
 10
180.9868088971
 20
94.1260452653
 30
0.0
 11
233.2868088971
 21
94.1260452653
 31
0.0
  0
MTEXT
  5
230
330
228
100
AcDbEntity
  8
1
100
AcDbMText
 10
203.6684062357
 20
98.6377821217
 30
0.1
 40
3.5
 41
0.0
 71
     1
 72
     1
  1
52.3
  7
SLDTEXTSTYLE0
 73
     1
 44
1.0
  0
ENDBLK
  5
22A
330
228
100
AcDbEntity
  8
0
100
AcDbBlockEnd
  0
BLOCK
  5
233
330
232
100
AcDbEntity
  8
0
100
AcDbBlockBegin
  2
_D_7
 70
     0
 10
0.0
 20
0.0
 30
0.0
  3
_D_7
  1

  0
INSERT
  5
235
330
232
100
AcDbEntity
  8
1
100
AcDbBlockReference
  2
_OPEN30
 10
233.2868088971
 20
94.1260452653
 30
0.1
 41
2.0
 42
2.0
 50
180.0
  0
INSERT
  5
236
330
232
100
AcDbEntity
  8
1
100
AcDbBlockReference
  2
_OPEN30
 10
285.2868088971
 20
94.1260452653
 30
0.1
 41
2.0
 42
2.0
 50
0.0
  0
LINE
  5
237
330
232
100
AcDbEntity
  8
1
100
AcDbLine
 10
233.2868088971
 20
69.6300820285
 30
0.0
 11
233.2868088971
 21
94.9260452653
 31
0.0
  0
LINE
  5
238
330
232
100
AcDbEntity
  8
1
100
AcDbLine
 10
285.2868088971
 20
63.1878599333
 30
0.0
 11
285.2868088971
 21
94.9260452653
 31
0.0
  0
LINE
  5
239
330
232
100
AcDbEntity
  8
1
100
AcDbLine
 10
233.2868088971
 20
94.1260452653
 30
0.0
 11
285.2868088971
 21
94.1260452653
 31
0.0
  0
MTEXT
  5
23A
330
232
100
AcDbEntity
  8
1
100
AcDbMText
 10
257.2500033996
 20
98.6377821217
 30
0.1
 40
3.5
 41
0.0
 71
     1
 72
     1
  1
52
  7
SLDTEXTSTYLE0
 73
     1
 44
1.0
  0
ENDBLK
  5
234
330
232
100
AcDbEntity
  8
0
100
AcDbBlockEnd
  0
BLOCK
  5
23D
330
23C
100
AcDbEntity
  8
0
100
AcDbBlockBegin
  2
_D_8
 70
     0
 10
0.0
 20
0.0
 30
0.0
  3
_D_8
  1

  0
INSERT
  5
23F
330
23C
100
AcDbEntity
  8
1
100
AcDbBlockReference
  2
_OPEN30
 10
319.3645029213
 20
66.1778599333
 30
0.1
 41
2.0
 42
2.0
 50
90.0
  0
INSERT
  5
240
330
23C
100
AcDbEntity
  8
1
100
AcDbBlockReference
  2
_OPEN30
 10
319.3645029213
 20
34.1778599333
 30
0.1
 41
2.0
 42
2.0
 50
270.0
  0
LINE
  5
241
330
23C
100
AcDbEntity
  8
1
100
AcDbLine
 10
276.2968088971
 20
66.1778599333
 30
0.0
 11
320.1645029213
 21
66.1778599333
 31
0.0
  0
LINE
  5
242
330
23C
100
AcDbEntity
  8
1
100
AcDbLine
 10
276.2968088971
 20
34.1778599333
 30
0.0
 11
320.1645029213
 21
34.1778599333
 31
0.0
  0
LINE
  5
243
330
23C
100
AcDbEntity
  8
1
100
AcDbLine
 10
319.3645029213
 20
66.1778599333
 30
0.0
 11
319.3645029213
 21
34.1778599333
 31
0.0
  0
MTEXT
  5
244
330
23C
100
AcDbEntity
  8
1
100
AcDbMText
 10
314.8527655992
 20
46.2060890618
 30
0.1
 40
3.5
 41
0.0
 71
     1
 72
     1
  1
%%c
  7
SLDTEXTSTYLE0
 11
-7.044195017643634E-15
 21
1.0
 31
0.0
 73
     1
 44
1.0
  0
MTEXT
  5
245
330
23C
100
AcDbEntity
  8
1
100
AcDbMText
 10
314.8527655992
 20
50.0760195769
 30
0.1
 40
3.5
 41
0.0
 71
     1
 72
     1
  1
32
  7
SLDTEXTSTYLE0
 11
-7.044195017643634E-15
 21
1.0
 31
0.0
 73
     1
 44
1.0
  0
ENDBLK
  5
23E
330
23C
100
AcDbEntity
  8
0
100
AcDbBlockEnd
  0
BLOCK
  5
248
330
247
100
AcDbEntity
  8
0
100
AcDbBlockBegin
  2
_D_9
 70
     0
 10
0.0
 20
0.0
 30
0.0
  3
_D_9
  1

  0
INSERT
  5
24A
330
247
100
AcDbEntity
  8
1
100
AcDbBlockReference
  2
_OPEN30
 10
326.2264945324
 20
85.1778599333
 30
0.1
 41
2.0
 42
2.0
 50
90.0
  0
INSERT
  5
24B
330
247
100
AcDbEntity
  8
1
100
AcDbBlockReference
  2
_OPEN30
 10
326.2264945324
 20
15.1778599333
 30
0.1
 41
2.0
 42
2.0
 50
270.0
  0
LINE
  5
24C
330
247
100
AcDbEntity
  8
1
100
AcDbLine
 10
232.7968088971
 20
85.1778599333
 30
0.0
 11
327.0264945324
 21
85.1778599333
 31
0.0
  0
LINE
  5
24D
330
247
100
AcDbEntity
  8
1
100
AcDbLine
 10
232.7968088971
 20
15.1778599333
 30
0.0
 11
327.0264945324
 21
15.1778599333
 31
0.0
  0
LINE
  5
24E
330
247
100
AcDbEntity
  8
1
100
AcDbLine
 10
326.2264945324
 20
85.1778599333
 30
0.0
 11
326.2264945324
 21
15.1778599333
 31
0.0
  0
MTEXT
  5
24F
330
247
100
AcDbEntity
  8
1
100
AcDbMText
 10
321.7147572104
 20
46.2060890618
 30
0.1
 40
3.5
 41
0.0
 71
     1
 72
     1
  1
%%c
  7
SLDTEXTSTYLE0
 11
-7.044195017643634E-15
 21
1.0
 31
0.0
 73
     1
 44
1.0
  0
MTEXT
  5
250
330
247
100
AcDbEntity
  8
1
100
AcDbMText
 10
321.7147572104
 20
50.0760195769
 30
0.1
 40
3.5
 41
0.0
 71
     1
 72
     1
  1
70
  7
SLDTEXTSTYLE0
 11
-7.044195017643634E-15
 21
1.0
 31
0.0
 73
     1
 44
1.0
  0
ENDBLK
  5
249
330
247
100
AcDbEntity
  8
0
100
AcDbBlockEnd
  0
BLOCK
  5
2E1
330
2E0
100
AcDbEntity
  8
0
100
AcDbBlockBegin
  2
_D_10
 70
     0
 10
0.0
 20
0.0
 30
0.0
  3
_D_10
  1

  0
INSERT
  5
2E3
330
2E0
100
AcDbEntity
  8
1
100
AcDbBlockReference
  2
_OPEN30
 10
371.9979458718
 20
0.690544921
 30
-105.5291712184
 41
2.0
 42
2.0
 50
180.0
  0
INSERT
  5
2E4
330
2E0
100
AcDbEntity
  8
1
100
AcDbBlockReference
  2
_OPEN30
 10
429.9979458718
 20
0.690544921
 30
-105.5291712184
 41
2.0
 42
2.0
 50
0.0
  0
LINE
  5
2E5
330
2E0
100
AcDbEntity
  8
1
100
AcDbLine
 10
371.9979458718
 20
30.571941991
 30
0.0
 11
371.9979458718
 21
-0.109455079
 31
0.0
  0
LINE
  5
2E6
330
2E0
100
AcDbEntity
  8
1
100
AcDbLine
 10
429.9979458718
 20
30.571941991
 30
0.0
 11
429.9979458718
 21
-0.109455079
 31
0.0
  0
LINE
  5
2E7
330
2E0
100
AcDbEntity
  8
1
100
AcDbLine
 10
371.9979458718
 20
0.690544921
 30
0.0
 11
429.9979458718
 21
0.690544921
 31
0.0
  0
MTEXT
  5
2E8
330
2E0
100
AcDbEntity
  8
1
100
AcDbMText
 10
398.9611403743
 20
5.2022817773
 30
-105.5291712184
 40
3.5
 41
0.0
 71
     1
 72
     1
  1
58
  7
SLDTEXTSTYLE0
 73
     1
 44
1.0
  0
ENDBLK
  5
2E2
330
2E0
100
AcDbEntity
  8
0
100
AcDbBlockEnd
  0
BLOCK
  5
2EC
330
2EB
100
AcDbEntity
  8
0
100
AcDbBlockBegin
  2
_DOT
 70
     0
 10
0.0
 20
0.0
 30
0.0
  3
_DOT
  1

  0
POLYLINE
  5
2EE
330
2EB
100
AcDbEntity
  8
0
  6
ByBlock
 62
     0
100
AcDb2dPolyline
 66
     1
 10
0.0
 20
0.0
 30
0.0
 70
     1
 40
0.5
 41
0.5
  0
VERTEX
  5
2F0
330
2EE
100
AcDbEntity
  8
0
  6
ByBlock
 62
     0
100
AcDbVertex
100
AcDb2dVertex
 10
-0.25
 20
0.0
 30
0.0
 42
1.0
  0
VERTEX
  5
2F1
330
2EE
100
AcDbEntity
  8
0
  6
ByBlock
 62
     0
100
AcDbVertex
100
AcDb2dVertex
 10
0.25
 20
0.0
 30
0.0
 42
1.0
  0
SEQEND
  5
2F2
330
2EE
100
AcDbEntity
  8
0
  6
ByBlock
 62
     0
  0
LINE
  5
2EF
330
2EB
100
AcDbEntity
  8
0
  6
ByBlock
 62
     0
370
    -2
100
AcDbLine
 10
-0.5
 20
0.0
 30
0.0
 11
-1.0
 21
0.0
 31
0.0
  0
ENDBLK
  5
2ED
330
2EB
100
AcDbEntity
  8
0
100
AcDbBlockEnd
  0
BLOCK
  5
2F9
330
2F8
100
AcDbEntity
  8
0
100
AcDbBlockBegin
  2
SW_NOTE_0
 70
     0
 10
0.0
 20
0.0
 30
0.0
  3
SW_NOTE_0
  1

  0
MTEXT
  5
2FB
330
2F8
100
AcDbEntity
  8
1
 62
     0
100
AcDbMText
 10
-27.8386842186
 20
8.9863853531
 30
0.0
 40
3.5
 41
0.0
 71
     1
 72
     1
  1
ｸｰﾗﾝﾄ、ｵｲﾙﾐｽﾄ
  7
SLDTEXTSTYLE0
 73
     1
 44
1.0
  0
MTEXT
  5
2FC
330
2F8
100
AcDbEntity
  8
1
 62
     0
100
AcDbMText
 10
-27.8386842186
 20
4.4863855469
 30
0.0
 40
3.5
 41
0.0
 71
     1
 72
     1
  1
　 供給口φ6
  7
SLDTEXTSTYLE0
 73
     1
 44
1.0
  0
ENDBLK
  5
2FA
330
2F8
100
AcDbEntity
  8
0
100
AcDbBlockEnd
  0
ENDSEC
  0
SECTION
  2
ENTITIES
  0
LINE
  5
46
330
1F
100
AcDbEntity
  8
0
  6
Continuous
 62
     7
370
    30
100
AcDbLine
 10
18.0868080865
 20
61.6778599556
 30
0.0
 11
16.2368140231
 21
61.6778599556
 31
0.0
  0
LINE
  5
47
330
1F
100
AcDbEntity
  8
0
  6
Continuous
 62
     7
370
    30
100
AcDbLine
 10
16.2368140231
 20
38.6778599109
 30
0.0
 11
18.0868080865
 21
38.6778599109
 31
0.0
  0
ARC
  5
48
330
1F
100
AcDbEntity
  8
0
  6
Continuous
 62
     7
370
    30
100
AcDbCircle
 10
18.0868088971
 20
39.1778599333
 30
0.0
 40
0.5
100
AcDbArc
 50
270.0
 51
0.0
  0
ARC
  5
49
330
1F
100
AcDbEntity
  8
0
  6
Continuous
 62
     7
370
    30
100
AcDbCircle
 10
18.0868088971
 20
61.1778599333
 30
0.0
 40
0.5
100
AcDbArc
 50
0.0
 51
90.0
  0
ARC
  5
4A
330
1F
100
AcDbEntity
  8
0
  6
Continuous
 62
     7
370
    30
100
AcDbCircle
 10
6.0721813076
 20
39.6778599333
 30
0.0
 40
1.000000000000028
100
AcDbArc
 50
235.0
 51
270.0
  0
ARC
  5
4B
330
1F
100
AcDbEntity
  8
0
  6
Continuous
 62
     7
370
    30
100
AcDbCircle
 10
6.0721813076
 20
60.6778599333
 30
0.0
 40
1.000000000000022
100
AcDbArc
 50
90.0
 51
125.0
  0
LINE
  5
4C
330
1F
100
AcDbEntity
  8
0
  6
Continuous
 62
     7
370
    30
100
AcDbLine
 10
16.2368140231
 20
61.6778599556
 30
0.0
 11
15.9868023406
 21
61.4278603803
 31
0.0
  0
LINE
  5
4D
330
1F
100
AcDbEntity
  8
0
  6
Continuous
 62
     7
370
    30
100
AcDbLine
 10
15.9868023406
 20
38.9278594862
 30
0.0
 11
16.2368140231
 21
38.6778599109
 31
0.0
  0
LINE
  5
4E
330
1F
100
AcDbEntity
  8
0
  6
Continuous
 62
     7
370
    30
100
AcDbLine
 10
11.7368123542
 20
38.6778599109
 30
0.0
 11
11.9868091355
 21
38.9278594862
 31
0.0
  0
LINE
  5
4F
330
1F
100
AcDbEntity
  8
0
  6
Continuous
 62
     7
370
    30
100
AcDbLine
 10
11.9868091355
 20
61.4278603803
 30
0.0
 11
11.7368123542
 21
61.6778599556
 31
0.0
  0
LINE
  5
50
330
1F
100
AcDbEntity
  8
0
  6
Continuous
 62
     7
370
    30
100
AcDbLine
 10
11.7368123542
 20
61.6778599556
 30
0.0
 11
6.0721806298
 21
61.6778599556
 31
0.0
  0
LINE
  5
51
330
1F
100
AcDbEntity
  8
0
  6
Continuous
 62
     7
370
    30
100
AcDbLine
 10
6.0721806298
 20
38.6778599109
 30
0.0
 11
11.7368123542
 21
38.6778599109
 31
0.0
  0
LINE
  5
52
330
1F
100
AcDbEntity
  8
0
  6
Continuous
 62
     7
370
    30
100
AcDbLine
 10
5.4986051332
 20
61.4970120128
 30
0.0
 11
1.61323166
 21
58.776444615
 31
0.0
  0
LINE
  5
53
330
1F
100
AcDbEntity
  8
0
  6
Continuous
 62
     7
370
    30
100
AcDbLine
 10
1.61323166
 20
41.5792752515
 30
0.0
 11
5.4986051332
 21
38.8587078537
 31
0.0
  0
ARC
  5
54
330
1F
100
AcDbEntity
  8
0
  6
Continuous
 62
     7
370
    30
100
AcDbCircle
 10
2.1868088971
 20
57.9572928827
 30
0.0
 40
1.000000000000001
100
AcDbArc
 50
125.0
 51
180.0
  0
ARC
  5
55
330
1F
100
AcDbEntity
  8
0
  6
Continuous
 62
     7
370
    30
100
AcDbCircle
 10
2.1868088971
 20
42.3984269838
 30
0.0
 40
1.000000000000001
100
AcDbArc
 50
180.0
 51
235.0
  0
LINE
  5
56
330
1F
100
AcDbEntity
  8
0
  6
Continuous
 62
     7
370
    30
100
AcDbLine
 10
308.0388031016
 20
43.1928600642
 30
0.0
 11
311.0868058215
 21
43.1928600642
 31
0.0
  0
LINE
  5
57
330
1F
100
AcDbEntity
  8
0
  6
Continuous
 62
     7
370
    30
100
AcDbLine
 10
311.0868058215
 20
57.1628598023
 30
0.0
 11
308.0388031016
 21
57.1628598023
 31
0.0
  0
LINE
  5
58
330
1F
100
AcDbEntity
  8
0
  6
Continuous
 62
     7
370
    30
100
AcDbLine
 10
296.9263068448
 20
55.7341099243
 30
0.0
 11
295.8468071233
 21
54.6546097371
 31
0.0
  0
LINE
  5
59
330
1F
100
AcDbEntity
  8
0
  6
Continuous
 62
     7
370
    30
100
AcDbLine
 10
295.8468071233
 20
45.7011101294
 30
0.0
 11
296.9263068448
 21
44.6216099422
 31
0.0
  0
LINE
  5
5A
330
1F
100
AcDbEntity
  8
0
  6
Continuous
 62
     7
370
    30
100
AcDbLine
 10
296.9263068448
 20
44.6216099422
 30
0.0
 11
298.3868069063
 21
44.6216099422
 31
0.0
  0
LINE
  5
5B
330
1F
100
AcDbEntity
  8
0
  6
Continuous
 62
     7
370
    30
100
AcDbLine
 10
298.3868069063
 20
55.7341099243
 30
0.0
 11
296.9263068448
 21
55.7341099243
 31
0.0
  0
LINE
  5
5C
330
1F
100
AcDbEntity
  8
0
  6
Continuous
 62
     7
370
    30
100
AcDbLine
 10
287.9388055812
 20
55.1181597162
 30
0.0
 11
285.2868086706
 21
55.1181597162
 31
0.0
  0
LINE
  5
5D
330
1F
100
AcDbEntity
  8
0
  6
Continuous
 62
     7
370
    30
100
AcDbLine
 10
285.2868086706
 20
45.2375601504
 30
0.0
 11
287.9388055812
 21
45.2375601504
 31
0.0
  0
LINE
  5
5E
330
1F
100
AcDbEntity
  8
0
  6
Continuous
 62
     7
370
    30
100
AcDbLine
 10
293.3068073403
 20
45.7011101294
 30
0.0
 11
295.8468071233
 21
45.7011101294
 31
0.0
  0
LINE
  5
5F
330
1F
100
AcDbEntity
  8
0
  6
Continuous
 62
     7
370
    30
100
AcDbLine
 10
295.8468071233
 20
54.6546097371
 30
0.0
 11
293.3068073403
 21
54.6546097371
 31
0.0
  0
LINE
  5
60
330
1F
100
AcDbEntity
  8
0
  6
Continuous
 62
     7
370
    30
100
AcDbLine
 10
287.9388055812
 20
43.1778597172
 30
0.0
 11
288.0225352059
 21
42.9983011905
 31
0.0
  0
LINE
  5
61
330
1F
100
AcDbEntity
  8
0
  6
Continuous
 62
     7
370
    30
100
AcDbLine
 10
293.2230777155
 20
42.9983011905
 30
0.0
 11
293.3068073403
 21
43.1778597172
 31
0.0
  0
LINE
  5
62
330
1F
100
AcDbEntity
  8
0
  6
Continuous
 62
     7
370
    30
100
AcDbLine
 10
307.9552522908
 20
43.0136861737
 30
0.0
 11
308.0388031016
 21
43.1928600642
 31
0.0
  0
LINE
  5
63
330
1F
100
AcDbEntity
  8
0
  6
Continuous
 62
     7
370
    30
100
AcDbLine
 10
298.3868069063
 20
43.1928600642
 30
0.0
 11
298.4703577171
 21
43.0136861737
 31
0.0
  0
LINE
  5
64
330
1F
100
AcDbEntity
  8
0
  6
Continuous
 62
     7
370
    30
100
AcDbLine
 10
293.3068073403
 20
57.1778601493
 30
0.0
 11
293.2230777155
 21
57.3574186761
 31
0.0
  0
LINE
  5
65
330
1F
100
AcDbEntity
  8
0
  6
Continuous
 62
     7
370
    30
100
AcDbLine
 10
288.0225352059
 20
57.3574186761
 30
0.0
 11
287.9388055812
 21
57.1778601493
 31
0.0
  0
LINE
  5
66
330
1F
100
AcDbEntity
  8
0
  6
Continuous
 62
     7
370
    30
100
AcDbLine
 10
308.0388031016
 20
57.1628598023
 30
0.0
 11
307.9552522908
 21
57.3420336928
 31
0.0
  0
LINE
  5
67
330
1F
100
AcDbEntity
  8
0
  6
Continuous
 62
     7
370
    30
100
AcDbLine
 10
298.4703577171
 20
57.3420336928
 30
0.0
 11
298.3868069063
 21
57.1628598023
 31
0.0
  0
LINE
  5
68
330
1F
100
AcDbEntity
  8
0
  6
Continuous
 62
     7
370
    30
100
AcDbLine
 10
244.7078845512
 20
17.6734019529
 30
0.0
 11
245.6868088852
 21
15.9778584253
 31
0.0
  0
LINE
  5
69
330
1F
100
AcDbEntity
  8
0
  6
Continuous
 62
     7
370
    30
100
AcDbLine
 10
254.3868071448
 20
26.3778593849
 30
0.0
 11
247.186811925
 21
26.3778593849
 31
0.0
  0
LINE
  5
6A
330
1F
100
AcDbEntity
  8
0
  6
Continuous
 62
     7
370
    30
100
AcDbLine
 10
245.6868088852
 20
15.9778584253
 30
0.0
 11
254.3868071448
 21
15.9778584253
 31
0.0
  0
LINE
  5
6B
330
1F
100
AcDbEntity
  8
0
  6
Continuous
 62
     7
370
    30
100
AcDbLine
 10
256.7868105184
 20
26.0278590481
 30
0.0
 11
255.2868074785
 21
26.0278590481
 31
0.0
  0
LINE
  5
6C
330
1F
100
AcDbEntity
  8
0
  6
Continuous
 62
     7
370
    30
100
AcDbLine
 10
255.2868074785
 20
16.3278606247
 30
0.0
 11
256.7868105184
 21
16.3278606247
 31
0.0
  0
LINE
  5
6D
330
1F
100
AcDbEntity
  8
0
  6
Continuous
 62
     7
370
    30
100
AcDbLine
 10
255.2868074785
 20
24.57786058
 30
0.0
 11
254.3868071448
 21
24.57786058
 31
0.0
  0
LINE
  5
6E
330
1F
100
AcDbEntity
  8
0
  6
Continuous
 62
     7
370
    30
100
AcDbLine
 10
254.3868071448
 20
17.7778590928
 30
0.0
 11
255.2868074785
 21
17.7778590928
 31
0.0
  0
LINE
  5
6F
330
1F
100
AcDbEntity
  8
0
  6
Continuous
 62
     7
370
    30
100
AcDbLine
 10
247.6868054877
 20
32.1281858246
 30
0.0
 11
247.186811925
 21
32.1281858246
 31
0.0
  0
LINE
  5
70
330
1F
100
AcDbEntity
  8
0
  6
Continuous
 62
     7
370
    30
100
AcDbLine
 10
284.7868076573
 20
36.6778595831
 30
0.0
 11
285.2868086706
 21
37.177859665
 31
0.0
  0
LINE
  5
71
330
1F
100
AcDbEntity
  8
0
  6
Continuous
 62
     7
370
    30
100
AcDbLine
 10
285.2868086706
 20
63.1778602015
 30
0.0
 11
284.7868076573
 21
63.6778602834
 31
0.0
  0
LINE
  5
72
330
1F
100
AcDbEntity
  8
0
  6
Continuous
 62
     7
370
    30
100
AcDbLine
 10
279.2868114124
 20
66.1778606932
 30
0.0
 11
276.2868053328
 21
66.1778606932
 31
0.0
  0
LINE
  5
73
330
1F
100
AcDbEntity
  8
0
  6
Continuous
 62
     7
370
    30
100
AcDbLine
 10
276.2868053328
 20
34.1778591733
 30
0.0
 11
279.2868114124
 21
34.1778591733
 31
0.0
  0
LINE
  5
74
330
1F
100
AcDbEntity
  8
0
  6
Continuous
 62
     7
370
    30
100
AcDbLine
 10
279.2868114124
 20
34.1778591733
 30
0.0
 11
280.2868059884
 21
35.1778602685
 31
0.0
  0
LINE
  5
75
330
1F
100
AcDbEntity
  8
0
  6
Continuous
 62
     7
370
    30
100
AcDbLine
 10
280.2868059884
 20
65.177859598
 30
0.0
 11
279.2868114124
 21
66.1778606932
 31
0.0
  0
LINE
  5
76
330
1F
100
AcDbEntity
  8
0
  6
Continuous
 62
     7
370
    30
100
AcDbLine
 10
218.286810727
 20
84.9278595756
 30
0.0
 11
217.7868097137
 21
84.9278595756
 31
0.0
  0
LINE
  5
77
330
1F
100
AcDbEntity
  8
0
  6
Continuous
 62
     7
370
    30
100
AcDbLine
 10
217.7868097137
 20
15.4278602909
 30
0.0
 11
218.286810727
 21
15.4278602909
 31
0.0
  0
LINE
  5
78
330
1F
100
AcDbEntity
  8
0
  6
Continuous
 62
     7
370
    30
100
AcDbLine
 10
247.186811925
 20
84.677859069
 30
0.0
 11
247.0689660917
 21
84.7957049023
 31
0.0
  0
LINE
  5
79
330
1F
100
AcDbEntity
  8
0
  6
Continuous
 62
     7
370
    30
100
AcDbLine
 10
247.0689660917
 20
68.560016201
 30
0.0
 11
247.186811925
 21
68.6778601717
 31
0.0
  0
LINE
  5
7A
330
1F
100
AcDbEntity
  8
0
  6
Continuous
 62
     7
370
    30
100
AcDbLine
 10
241.1868072163
 20
84.677859069
 30
0.0
 11
240.8913954209
 21
84.9732708644
 31
0.0
  0
LINE
  5
7B
330
1F
100
AcDbEntity
  8
0
  6
Continuous
 62
     7
370
    30
100
AcDbLine
 10
240.8913954209
 20
68.3824483763
 30
0.0
 11
241.1868072163
 21
68.6778601717
 31
0.0
  0
LINE
  5
7C
330
1F
100
AcDbEntity
  8
0
  6
Continuous
 62
     7
370
    30
100
AcDbLine
 10
232.7868103098
 20
85.1778600823
 30
0.0
 11
218.286810727
 21
85.1778600823
 31
0.0
  0
LINE
  5
7D
330
1F
100
AcDbEntity
  8
0
  6
Continuous
 62
     7
370
    30
100
AcDbLine
 10
233.2868075977
 20
84.677859069
 30
0.0
 11
232.7868103098
 21
85.1778600823
 31
0.0
  0
LINE
  5
7E
330
1F
100
AcDbEntity
  8
0
  6
Continuous
 62
     7
370
    30
100
AcDbLine
 10
218.286810727
 20
15.1778597843
 30
0.0
 11
232.7868103098
 21
15.1778597843
 31
0.0
  0
LINE
  5
7F
330
1F
100
AcDbEntity
  8
0
  6
Continuous
 62
     7
370
    30
100
AcDbLine
 10
232.7868103098
 20
15.1778597843
 30
0.0
 11
233.2868075977
 21
15.6778607975
 31
0.0
  0
LINE
  5
80
330
1F
100
AcDbEntity
  8
0
  6
Continuous
 62
     7
370
    30
100
AcDbLine
 10
276.2868053328
 20
66.1778606932
 30
0.0
 11
233.2868075977
 21
66.1778606932
 31
0.0
  0
LINE
  5
81
330
1F
100
AcDbEntity
  8
0
  6
Continuous
 62
     7
370
    30
100
AcDbLine
 10
247.7158404003
 20
34.1778591733
 30
0.0
 11
276.2868053328
 21
34.1778591733
 31
0.0
  0
LINE
  5
82
330
1F
100
AcDbEntity
  8
0
  6
Continuous
 62
     7
370
    30
100
AcDbLine
 10
233.2868075977
 20
34.1778591733
 30
0.0
 11
236.8577814709
 21
34.1778591733
 31
0.0
  0
LINE
  5
83
330
1F
100
AcDbEntity
  8
0
  6
Continuous
 62
     7
370
    30
100
AcDbLine
 10
217.7868097137
 20
85.1778600823
 30
0.0
 11
211.10539353
 21
85.1778600823
 31
0.0
  0
LINE
  5
84
330
1F
100
AcDbEntity
  8
0
  6
Continuous
 62
     7
370
    30
100
AcDbLine
 10
211.10539353
 20
85.1778600823
 30
0.0
 11
191.1868092652
 21
73.6778591286
 31
0.0
  0
LINE
  5
85
330
1F
100
AcDbEntity
  8
0
  6
Continuous
 62
     7
370
    30
100
AcDbLine
 10
191.1868092652
 20
26.6778607379
 30
0.0
 11
211.10539353
 21
15.1778597843
 31
0.0
  0
LINE
  5
86
330
1F
100
AcDbEntity
  8
0
  6
Continuous
 62
     7
370
    30
100
AcDbLine
 10
211.10539353
 20
15.1778597843
 30
0.0
 11
217.7868097137
 21
15.1778597843
 31
0.0
  0
LINE
  5
87
330
1F
100
AcDbEntity
  8
0
  6
Continuous
 62
     7
370
    30
100
AcDbLine
 10
187.2489864986
 20
73.6778591286
 30
0.0
 11
181.1868088921
 21
70.1778594862
 31
0.0
  0
LINE
  5
88
330
1F
100
AcDbEntity
  8
0
  6
Continuous
 62
     7
370
    30
100
AcDbLine
 10
181.1868088921
 20
30.1778603803
 30
0.0
 11
187.2489864986
 21
26.6778607379
 31
0.0
  0
LINE
  5
89
330
1F
100
AcDbEntity
  8
0
  6
Continuous
 62
     7
370
    30
100
AcDbLine
 10
191.1868092652
 20
73.6778591286
 30
0.0
 11
187.2489864986
 21
73.6778591286
 31
0.0
  0
LINE
  5
8A
330
1F
100
AcDbEntity
  8
0
  6
Continuous
 62
     7
370
    30
100
AcDbLine
 10
187.2489864986
 20
26.6778607379
 30
0.0
 11
191.1868092652
 21
26.6778607379
 31
0.0
  0
LINE
  5
8B
330
1F
100
AcDbEntity
  8
0
  6
Continuous
 62
     7
370
    30
100
AcDbLine
 10
181.1868088921
 20
69.4778606753
 30
0.0
 11
180.9868088971
 21
69.4778606753
 31
0.0
  0
LINE
  5
8C
330
1F
100
AcDbEntity
  8
0
  6
Continuous
 62
     7
370
    30
100
AcDbLine
 10
180.9868088971
 20
30.8778591912
 30
0.0
 11
181.1868088921
 21
30.8778591912
 31
0.0
  0
LINE
  5
8D
330
1F
100
AcDbEntity
  8
0
  6
Continuous
 62
     7
370
    30
100
AcDbLine
 10
31.5983316909
 20
70.1278605025
 30
0.0
 11
31.1868063222
 21
70.1278605025
 31
0.0
  0
LINE
  5
8E
330
1F
100
AcDbEntity
  8
0
  6
Continuous
 62
     7
370
    30
100
AcDbLine
 10
34.5868042718
 20
70.1278605025
 30
0.0
 11
33.385442854
 21
70.1278605025
 31
0.0
  0
LINE
  5
8F
330
1F
100
AcDbEntity
  8
0
  6
Continuous
 62
     7
370
    30
100
AcDbLine
 10
33.385442854
 20
30.227859364
 30
0.0
 11
34.5868042718
 21
30.227859364
 31
0.0
  0
LINE
  5
90
330
1F
100
AcDbEntity
  8
0
  6
Continuous
 62
     7
370
    30
100
AcDbLine
 10
31.1868063222
 20
30.227859364
 30
0.0
 11
31.5983316909
 21
30.227859364
 31
0.0
  0
LINE
  5
91
330
1F
100
AcDbEntity
  8
0
  6
Continuous
 62
     7
370
    30
100
AcDbLine
 10
31.1868063222
 20
70.1278605025
 30
0.0
 11
30.9868029367
 21
69.9278608422
 31
0.0
  0
LINE
  5
92
330
1F
100
AcDbEntity
  8
0
  6
Continuous
 62
     7
370
    30
100
AcDbLine
 10
30.9868029367
 20
30.4278590243
 30
0.0
 11
31.1868063222
 21
30.227859364
 31
0.0
  0
LINE
  5
93
330
1F
100
AcDbEntity
  8
0
  6
Continuous
 62
     7
370
    30
100
AcDbLine
 10
34.5868042718
 20
30.227859364
 30
0.0
 11
34.7868076573
 21
30.4278590243
 31
0.0
  0
LINE
  5
94
330
1F
100
AcDbEntity
  8
0
  6
Continuous
 62
     7
370
    30
100
AcDbLine
 10
34.7868076573
 20
69.9278608422
 30
0.0
 11
34.5868042718
 21
70.1278605025
 31
0.0
  0
LINE
  5
95
330
1F
100
AcDbEntity
  8
0
  6
Continuous
 62
     7
370
    30
100
AcDbLine
 10
35.2868161212
 20
67.9278605144
 30
0.0
 11
34.7868076573
 21
67.9278605144
 31
0.0
  0
LINE
  5
96
330
1F
100
AcDbEntity
  8
0
  6
Continuous
 62
     7
370
    30
100
AcDbLine
 10
34.7868076573
 20
32.4278593521
 30
0.0
 11
35.2868161212
 21
32.4278593521
 31
0.0
  0
LINE
  5
97
330
1F
100
AcDbEntity
  8
0
  6
Continuous
 62
     7
370
    30
100
AcDbLine
 10
21.2868026506
 20
60.1778597098
 30
0.0
 11
20.7868090879
 21
59.6778596278
 31
0.0
  0
LINE
  5
98
330
1F
100
AcDbEntity
  8
0
  6
Continuous
 62
     7
370
    30
100
AcDbLine
 10
20.7868090879
 20
40.6778602387
 30
0.0
 11
21.2868026506
 21
40.1778601568
 31
0.0
  0
LINE
  5
99
330
1F
100
AcDbEntity
  8
0
  6
Continuous
 62
     7
370
    30
100
AcDbLine
 10
21.2868026506
 20
40.1778601568
 30
0.0
 11
26.6868046533
 21
40.1778601568
 31
0.0
  0
LINE
  5
9A
330
1F
100
AcDbEntity
  8
0
  6
Continuous
 62
     7
370
    30
100
AcDbLine
 10
26.6868046533
 20
60.1778597098
 30
0.0
 11
21.2868026506
 21
60.1778597098
 31
0.0
  0
LINE
  5
9B
330
1F
100
AcDbEntity
  8
0
  6
Continuous
 62
     7
370
    30
100
AcDbLine
 10
26.6868046533
 20
40.1778601568
 30
0.0
 11
26.786806346
 21
40.2778599869
 31
0.0
  0
LINE
  5
9C
330
1F
100
AcDbEntity
  8
0
  6
Continuous
 62
     7
370
    30
100
AcDbLine
 10
26.786806346
 20
60.0778598796
 30
0.0
 11
26.6868046533
 21
60.1778597098
 31
0.0
  0
LINE
  5
9D
330
1F
100
AcDbEntity
  8
0
  6
Continuous
 62
     7
370
    30
100
AcDbLine
 10
26.8868080388
 20
60.0778598796
 30
0.0
 11
26.786806346
 21
60.0778598796
 31
0.0
  0
LINE
  5
9E
330
1F
100
AcDbEntity
  8
0
  6
Continuous
 62
     7
370
    30
100
AcDbLine
 10
30.9868029367
 20
60.0778598796
 30
0.0
 11
30.8868161451
 21
60.0778598796
 31
0.0
  0
LINE
  5
9F
330
1F
100
AcDbEntity
  8
0
  6
Continuous
 62
     7
370
    30
100
AcDbLine
 10
30.8868161451
 20
40.2778599869
 30
0.0
 11
30.9868029367
 21
40.2778599869
 31
0.0
  0
LINE
  5
A0
330
1F
100
AcDbEntity
  8
0
  6
Continuous
 62
     7
370
    30
100
AcDbLine
 10
26.786806346
 20
40.2778599869
 30
0.0
 11
26.8868080388
 21
40.2778599869
 31
0.0
  0
LINE
  5
A1
330
1F
100
AcDbEntity
  8
0
  6
Continuous
 62
     7
370
    30
100
AcDbLine
 10
18.5868016492
 20
40.7778600689
 30
0.0
 11
20.7868090879
 21
40.7778600689
 31
0.0
  0
LINE
  5
A2
330
1F
100
AcDbEntity
  8
0
  6
Continuous
 62
     7
370
    30
100
AcDbLine
 10
20.7868090879
 20
59.5778597977
 30
0.0
 11
18.5868016492
 21
59.5778597977
 31
0.0
  0
LINE
  5
A3
330
1F
100
AcDbEntity
  8
0
  6
Continuous
 62
     7
370
    30
100
AcDbLine
 10
69.9636063586
 20
70.1778594862
 30
0.0
 11
39.6868160974
 21
70.1778594862
 31
0.0
  0
LINE
  5
A4
330
1F
100
AcDbEntity
  8
0
  6
Continuous
 62
     7
370
    30
100
AcDbLine
 10
168.9868087928
 20
70.1778594862
 30
0.0
 11
73.310012282
 21
70.1778594862
 31
0.0
  0
LINE
  5
A5
330
1F
100
AcDbEntity
  8
0
  6
Continuous
 62
     7
370
    30
100
AcDbLine
 10
39.6868160974
 20
30.1778603803
 30
0.0
 11
168.9868087928
 21
30.1778603803
 31
0.0
  0
LINE
  5
A6
330
1F
100
AcDbEntity
  8
0
  6
Continuous
 62
     7
370
    30
100
AcDbLine
 10
180.9868088971
 20
70.1628596048
 30
0.0
 11
168.9868087928
 21
70.1628596048
 31
0.0
  0
LINE
  5
A7
330
1F
100
AcDbEntity
  8
0
  6
Continuous
 62
     7
370
    30
100
AcDbLine
 10
168.9868087928
 20
30.1928602617
 30
0.0
 11
180.9868088971
 21
30.1928602617
 31
0.0
  0
LINE
  5
A8
330
1F
100
AcDbEntity
  8
0
  6
Continuous
 62
     7
370
    30
100
AcDbLine
 10
39.6868160974
 20
70.1628596048
 30
0.0
 11
35.4868046056
 21
70.1628596048
 31
0.0
  0
LINE
  5
A9
330
1F
100
AcDbEntity
  8
0
  6
Continuous
 62
     7
370
    30
100
AcDbLine
 10
35.4868046056
 20
30.1928602617
 30
0.0
 11
39.6868160974
 21
30.1928602617
 31
0.0
  0
LINE
  5
AA
330
1F
100
AcDbEntity
  8
0
  6
Continuous
 62
     7
370
    30
100
AcDbLine
 10
35.4868046056
 20
70.1628596048
 30
0.0
 11
35.2868161212
 21
69.9628599446
 31
0.0
  0
LINE
  5
AB
330
1F
100
AcDbEntity
  8
0
  6
Continuous
 62
     7
370
    30
100
AcDbLine
 10
35.2868161212
 20
30.3928599219
 30
0.0
 11
35.4868046056
 21
30.1928602617
 31
0.0
  0
LINE
  5
AC
330
1F
100
AcDbEntity
  8
0
  6
Continuous
 62
     7
370
    30
100
AcDbLine
 10
18.5868016492
 20
50.1778599333
 30
0.0
 11
18.5868016492
 21
39.1778599929
 31
0.0
  0
LINE
  5
AD
330
1F
100
AcDbEntity
  8
0
  6
Continuous
 62
     7
370
    30
100
AcDbLine
 10
18.5868016492
 20
61.1778598737
 30
0.0
 11
18.5868016492
 21
50.1778599333
 31
0.0
  0
LINE
  5
AE
330
1F
100
AcDbEntity
  8
0
  6
Continuous
 62
     7
370
    30
100
AcDbLine
 10
15.9868023406
 20
61.1778598737
 30
0.0
 11
15.9868023406
 21
61.4278603803
 31
0.0
  0
LINE
  5
AF
330
1F
100
AcDbEntity
  8
0
  6
Continuous
 62
     7
370
    30
100
AcDbLine
 10
15.9868023406
 20
38.9278594862
 30
0.0
 11
15.9868023406
 21
39.1778599929
 31
0.0
  0
LINE
  5
B0
330
1F
100
AcDbEntity
  8
0
  6
Continuous
 62
     7
370
    30
100
AcDbLine
 10
15.9868023406
 20
39.1778599929
 30
0.0
 11
15.9868023406
 21
47.8193646755
 31
0.0
  0
LINE
  5
B1
330
1F
100
AcDbEntity
  8
0
  6
Continuous
 62
     7
370
    30
100
AcDbLine
 10
15.9868023406
 20
47.8193646755
 30
0.0
 11
15.9868023406
 21
52.5363551911
 31
0.0
  0
LINE
  5
B2
330
1F
100
AcDbEntity
  8
0
  6
Continuous
 62
     7
370
    30
100
AcDbLine
 10
15.9868023406
 20
52.5363551911
 30
0.0
 11
15.9868023406
 21
61.1778598737
 31
0.0
  0
LINE
  5
B3
330
1F
100
AcDbEntity
  8
0
  6
Continuous
 62
     7
370
    30
100
AcDbLine
 10
11.9868091355
 20
47.8193646755
 30
0.0
 11
11.9868091355
 21
52.5363551911
 31
0.0
  0
LINE
  5
B4
330
1F
100
AcDbEntity
  8
0
  6
Continuous
 62
     7
370
    30
100
AcDbLine
 10
11.9868091355
 20
39.1778599929
 30
0.0
 11
11.9868091355
 21
47.8193646755
 31
0.0
  0
LINE
  5
B5
330
1F
100
AcDbEntity
  8
0
  6
Continuous
 62
     7
370
    30
100
AcDbLine
 10
11.9868091355
 20
38.9278594862
 30
0.0
 11
11.9868091355
 21
39.1778599929
 31
0.0
  0
LINE
  5
B6
330
1F
100
AcDbEntity
  8
0
  6
Continuous
 62
     7
370
    30
100
AcDbLine
 10
11.9868091355
 20
61.1778598737
 30
0.0
 11
11.9868091355
 21
61.4278603803
 31
0.0
  0
LINE
  5
B7
330
1F
100
AcDbEntity
  8
0
  6
Continuous
 62
     7
370
    30
100
AcDbLine
 10
11.9868091355
 20
52.5363551911
 30
0.0
 11
11.9868091355
 21
61.1778598737
 31
0.0
  0
LINE
  5
B8
330
1F
100
AcDbEntity
  8
0
  6
Continuous
 62
     7
370
    30
100
AcDbLine
 10
11.9868091355
 20
61.1778598737
 30
0.0
 11
12.2368059169
 21
61.1778598737
 31
0.0
  0
LINE
  5
B9
330
1F
100
AcDbEntity
  8
0
  6
Continuous
 62
     7
370
    30
100
AcDbLine
 10
12.2368059169
 20
53.5319618407
 30
0.0
 11
11.9868091355
 21
52.5363551911
 31
0.0
  0
LINE
  5
BA
330
1F
100
AcDbEntity
  8
0
  6
Continuous
 62
     7
370
    30
100
AcDbLine
 10
15.9868023406
 20
52.5363551911
 30
0.0
 11
15.7368055593
 21
53.5319618407
 31
0.0
  0
LINE
  5
BB
330
1F
100
AcDbEntity
  8
0
  6
Continuous
 62
     7
370
    30
100
AcDbLine
 10
15.7368055593
 20
46.8237580258
 30
0.0
 11
15.9868023406
 21
47.8193646755
 31
0.0
  0
LINE
  5
BC
330
1F
100
AcDbEntity
  8
0
  6
Continuous
 62
     7
370
    30
100
AcDbLine
 10
15.7368055593
 20
46.8237580258
 30
0.0
 11
12.2368059169
 21
46.8237580258
 31
0.0
  0
LINE
  5
BD
330
1F
100
AcDbEntity
  8
0
  6
Continuous
 62
     7
370
    30
100
AcDbLine
 10
11.9868091355
 20
47.8193646755
 30
0.0
 11
12.2368059169
 21
46.8237580258
 31
0.0
  0
LINE
  5
BE
330
1F
100
AcDbEntity
  8
0
  6
Continuous
 62
     7
370
    30
100
AcDbLine
 10
12.2368059169
 20
53.5319618407
 30
0.0
 11
15.7368055593
 21
53.5319618407
 31
0.0
  0
LINE
  5
BF
330
1F
100
AcDbEntity
  8
0
  6
Continuous
 62
     7
370
    30
100
AcDbLine
 10
15.7368055593
 20
61.1778598737
 30
0.0
 11
12.2368059169
 21
61.1778598737
 31
0.0
  0
LINE
  5
C0
330
1F
100
AcDbEntity
  8
0
  6
Continuous
 62
     7
370
    30
100
AcDbLine
 10
15.7368055593
 20
61.1778598737
 30
0.0
 11
15.9868023406
 21
61.1778598737
 31
0.0
  0
LINE
  5
C1
330
1F
100
AcDbEntity
  8
0
  6
Continuous
 62
     7
370
    30
100
AcDbLine
 10
12.2368059169
 20
39.1778599929
 30
0.0
 11
11.9868091355
 21
39.1778599929
 31
0.0
  0
LINE
  5
C2
330
1F
100
AcDbEntity
  8
0
  6
Continuous
 62
     7
370
    30
100
AcDbLine
 10
15.9868023406
 20
39.1778599929
 30
0.0
 11
15.7368055593
 21
39.1778599929
 31
0.0
  0
LINE
  5
C3
330
1F
100
AcDbEntity
  8
0
  6
Continuous
 62
     7
370
    30
100
AcDbLine
 10
12.2368059169
 20
39.1778599929
 30
0.0
 11
15.7368055593
 21
39.1778599929
 31
0.0
  0
LINE
  5
C4
330
1F
100
AcDbEntity
  8
0
  6
Continuous
 62
     7
370
    30
100
AcDbLine
 10
1.1868051301
 20
42.3984270069
 30
0.0
 11
1.1868051301
 21
57.9572928596
 31
0.0
  0
LINE
  5
C5
330
1F
100
AcDbEntity
  8
0
  6
Continuous
 62
     7
370
    30
100
AcDbLine
 10
288.4437761317
 20
48.381455335
 30
0.0
 11
287.9388055812
 21
52.2430225733
 31
0.0
  0
LINE
  5
C6
330
1F
100
AcDbEntity
  8
0
  6
Continuous
 62
     7
370
    30
100
AcDbLine
 10
287.9388055812
 20
52.2430225733
 30
0.0
 11
288.4437761317
 21
56.1045895788
 31
0.0
  0
LINE
  5
C7
330
1F
100
AcDbEntity
  8
0
  6
Continuous
 62
     7
370
    30
100
AcDbLine
 10
292.8018442403
 20
56.1045895788
 30
0.0
 11
288.4437761317
 21
56.1045895788
 31
0.0
  0
LINE
  5
C8
330
1F
100
AcDbEntity
  8
0
  6
Continuous
 62
     7
370
    30
100
AcDbLine
 10
293.3068073403
 20
52.2430225733
 30
0.0
 11
292.8018442403
 21
56.1045895788
 31
0.0
  0
LINE
  5
C9
330
1F
100
AcDbEntity
  8
0
  6
Continuous
 62
     7
370
    30
100
AcDbLine
 10
292.8018442403
 20
48.381455335
 30
0.0
 11
293.3068073403
 21
52.2430225733
 31
0.0
  0
LINE
  5
CA
330
1F
100
AcDbEntity
  8
0
  6
Continuous
 62
     7
370
    30
100
AcDbLine
 10
292.8018442403
 20
48.381455335
 30
0.0
 11
288.4437761317
 21
48.381455335
 31
0.0
  0
LINE
  5
CB
330
1F
100
AcDbEntity
  8
0
  6
Continuous
 62
     7
370
    30
100
AcDbLine
 10
298.8906896721
 20
56.0918895986
 30
0.0
 11
298.3868069063
 21
52.2385971613
 31
0.0
  0
LINE
  5
CC
330
1F
100
AcDbEntity
  8
0
  6
Continuous
 62
     7
370
    30
100
AcDbLine
 10
307.5349203359
 20
56.0918895986
 30
0.0
 11
298.8906896721
 21
56.0918895986
 31
0.0
  0
LINE
  5
CD
330
1F
100
AcDbEntity
  8
0
  6
Continuous
 62
     7
370
    30
100
AcDbLine
 10
307.5349203359
 20
56.0918895986
 30
0.0
 11
308.0388031016
 21
52.2385971613
 31
0.0
  0
LINE
  5
CE
330
1F
100
AcDbEntity
  8
0
  6
Continuous
 62
     7
370
    30
100
AcDbLine
 10
308.0388031016
 20
52.2385971613
 30
0.0
 11
307.5349203359
 21
48.3853048404
 31
0.0
  0
LINE
  5
CF
330
1F
100
AcDbEntity
  8
0
  6
Continuous
 62
     7
370
    30
100
AcDbLine
 10
307.5349203359
 20
48.3853048404
 30
0.0
 11
298.8906896721
 21
48.3853048404
 31
0.0
  0
LINE
  5
D0
330
1F
100
AcDbEntity
  8
0
  6
Continuous
 62
     7
370
    30
100
AcDbLine
 10
298.3868069063
 20
52.2385971613
 30
0.0
 11
298.8906896721
 21
48.3853048404
 31
0.0
  0
LINE
  5
D1
330
1F
100
AcDbEntity
  8
0
  6
Continuous
 62
     7
370
    30
100
AcDbLine
 10
293.3068073403
 20
52.2430225733
 30
0.0
 11
293.3068073403
 21
45.4180905122
 31
0.0
  0
LINE
  5
D2
330
1F
100
AcDbEntity
  8
0
  6
Continuous
 62
     7
370
    30
100
AcDbLine
 10
293.3068073403
 20
45.4180905122
 30
0.0
 11
292.8018442403
 21
48.381455335
 31
0.0
  0
LINE
  5
D3
330
1F
100
AcDbEntity
  8
0
  6
Continuous
 62
     7
370
    30
100
AcDbLine
 10
287.9388055812
 20
45.4180905122
 30
0.0
 11
288.4437761317
 21
48.381455335
 31
0.0
  0
LINE
  5
D4
330
1F
100
AcDbEntity
  8
0
  6
Continuous
 62
     7
370
    30
100
AcDbLine
 10
287.9388055812
 20
52.2430225733
 30
0.0
 11
287.9388055812
 21
45.4180905122
 31
0.0
  0
LINE
  5
D5
330
1F
100
AcDbEntity
  8
0
  6
Continuous
 62
     7
370
    30
100
AcDbLine
 10
298.8906896721
 20
48.3853048404
 30
0.0
 11
298.3868069063
 21
45.4282898914
 31
0.0
  0
LINE
  5
D6
330
1F
100
AcDbEntity
  8
0
  6
Continuous
 62
     7
370
    30
100
AcDbLine
 10
298.3868069063
 20
52.2385971613
 30
0.0
 11
298.3868069063
 21
45.4282898914
 31
0.0
  0
LINE
  5
D7
330
1F
100
AcDbEntity
  8
0
  6
Continuous
 62
     7
370
    30
100
AcDbLine
 10
308.0388031016
 20
52.2385971613
 30
0.0
 11
308.0388031016
 21
45.4282898914
 31
0.0
  0
LINE
  5
D8
330
1F
100
AcDbEntity
  8
0
  6
Continuous
 62
     7
370
    30
100
AcDbLine
 10
307.5349203359
 20
48.3853048404
 30
0.0
 11
308.0388031016
 21
45.4282898914
 31
0.0
  0
LINE
  5
D9
330
1F
100
AcDbEntity
  8
0
  6
Continuous
 62
     7
370
    30
100
AcDbLine
 10
311.0868058215
 20
48.6254616167
 30
0.0
 11
311.0868058215
 21
43.1928600642
 31
0.0
  0
LINE
  5
DA
330
1F
100
AcDbEntity
  8
0
  6
Continuous
 62
     7
370
    30
100
AcDbLine
 10
311.0868058215
 20
57.1628598023
 30
0.0
 11
311.0868058215
 21
48.6254616167
 31
0.0
  0
LINE
  5
DB
330
1F
100
AcDbEntity
  8
0
  6
Continuous
 62
     7
370
    30
100
AcDbLine
 10
308.0388031016
 20
57.1628598023
 30
0.0
 11
308.0388031016
 21
56.9881669704
 31
0.0
  0
LINE
  5
DC
330
1F
100
AcDbEntity
  8
0
  6
Continuous
 62
     7
370
    30
100
AcDbLine
 10
308.0388031016
 20
45.4282898914
 30
0.0
 11
308.0388031016
 21
43.1928600642
 31
0.0
  0
LINE
  5
DD
330
1F
100
AcDbEntity
  8
0
  6
Continuous
 62
     7
370
    30
100
AcDbLine
 10
308.0388031016
 20
56.9881669704
 30
0.0
 11
308.0388031016
 21
52.2385971613
 31
0.0
  0
LINE
  5
DE
330
1F
100
AcDbEntity
  8
0
  6
Continuous
 62
     7
370
    30
100
AcDbLine
 10
288.4437761317
 20
42.4547254566
 30
0.0
 11
287.9388055812
 21
45.4180905122
 31
0.0
  0
LINE
  5
DF
330
1F
100
AcDbEntity
  8
0
  6
Continuous
 62
     7
370
    30
100
AcDbLine
 10
292.8018442403
 20
42.4547254566
 30
0.0
 11
293.3068073403
 21
45.4180905122
 31
0.0
  0
LINE
  5
E0
330
1F
100
AcDbEntity
  8
0
  6
Continuous
 62
     7
370
    30
100
AcDbLine
 10
288.4437761317
 20
42.4547254566
 30
0.0
 11
292.8018442403
 21
42.4547254566
 31
0.0
  0
LINE
  5
E1
330
1F
100
AcDbEntity
  8
0
  6
Continuous
 62
     7
370
    30
100
AcDbLine
 10
298.3868069063
 20
45.4282898914
 30
0.0
 11
298.8906896721
 21
42.4712750587
 31
0.0
  0
LINE
  5
E2
330
1F
100
AcDbEntity
  8
0
  6
Continuous
 62
     7
370
    30
100
AcDbLine
 10
308.0388031016
 20
45.4282898914
 30
0.0
 11
307.5349203359
 21
42.4712750587
 31
0.0
  0
LINE
  5
E3
330
1F
100
AcDbEntity
  8
0
  6
Continuous
 62
     7
370
    30
100
AcDbLine
 10
307.5349203359
 20
42.4712750587
 30
0.0
 11
298.8906896721
 21
42.4712750587
 31
0.0
  0
LINE
  5
E4
330
1F
100
AcDbEntity
  8
0
  6
Continuous
 62
     7
370
    30
100
AcDbLine
 10
288.4437761317
 20
56.1045895788
 30
0.0
 11
287.9388055812
 21
57.0027919944
 31
0.0
  0
LINE
  5
E5
330
1F
100
AcDbEntity
  8
0
  6
Continuous
 62
     7
370
    30
100
AcDbLine
 10
287.9388055812
 20
57.0027919944
 30
0.0
 11
287.9388055812
 21
52.2430225733
 31
0.0
  0
LINE
  5
E6
330
1F
100
AcDbEntity
  8
0
  6
Continuous
 62
     7
370
    30
100
AcDbLine
 10
292.8018442403
 20
56.1045895788
 30
0.0
 11
293.3068073403
 21
57.0027919944
 31
0.0
  0
LINE
  5
E7
330
1F
100
AcDbEntity
  8
0
  6
Continuous
 62
     7
370
    30
100
AcDbLine
 10
293.3068073403
 20
57.0027919944
 30
0.0
 11
293.3068073403
 21
52.2430225733
 31
0.0
  0
LINE
  5
E8
330
1F
100
AcDbEntity
  8
0
  6
Continuous
 62
     7
370
    30
100
AcDbLine
 10
308.0388031016
 20
56.9881669704
 30
0.0
 11
307.5349203359
 21
56.0918895986
 31
0.0
  0
LINE
  5
E9
330
1F
100
AcDbEntity
  8
0
  6
Continuous
 62
     7
370
    30
100
AcDbLine
 10
298.3868069063
 20
56.9881669704
 30
0.0
 11
298.8906896721
 21
56.0918895986
 31
0.0
  0
LINE
  5
EA
330
1F
100
AcDbEntity
  8
0
  6
Continuous
 62
     7
370
    30
100
AcDbLine
 10
298.3868069063
 20
56.9881669704
 30
0.0
 11
298.3868069063
 21
52.2385971613
 31
0.0
  0
LINE
  5
EB
330
1F
100
AcDbEntity
  8
0
  6
Continuous
 62
     7
370
    30
100
AcDbLine
 10
295.8468071233
 20
49.1829137077
 30
0.0
 11
295.8468071233
 21
45.7011101294
 31
0.0
  0
LINE
  5
EC
330
1F
100
AcDbEntity
  8
0
  6
Continuous
 62
     7
370
    30
100
AcDbLine
 10
295.8468071233
 20
54.6546097371
 30
0.0
 11
295.8468071233
 21
49.1829137077
 31
0.0
  0
LINE
  5
ED
330
1F
100
AcDbEntity
  8
0
  6
Continuous
 62
     7
370
    30
100
AcDbLine
 10
287.9388055812
 20
57.0027919944
 30
0.0
 11
288.4437761317
 21
57.90099441
 31
0.0
  0
LINE
  5
EE
330
1F
100
AcDbEntity
  8
0
  6
Continuous
 62
     7
370
    30
100
AcDbLine
 10
292.8018442403
 20
57.90099441
 30
0.0
 11
288.4437761317
 21
57.90099441
 31
0.0
  0
LINE
  5
EF
330
1F
100
AcDbEntity
  8
0
  6
Continuous
 62
     7
370
    30
100
AcDbLine
 10
293.3068073403
 20
57.0027919944
 30
0.0
 11
292.8018442403
 21
57.90099441
 31
0.0
  0
LINE
  5
F0
330
1F
100
AcDbEntity
  8
0
  6
Continuous
 62
     7
370
    30
100
AcDbLine
 10
298.8906896721
 20
57.8844448078
 30
0.0
 11
298.3868069063
 21
56.9881669704
 31
0.0
  0
LINE
  5
F1
330
1F
100
AcDbEntity
  8
0
  6
Continuous
 62
     7
370
    30
100
AcDbLine
 10
307.5349203359
 20
57.8844448078
 30
0.0
 11
298.8906896721
 21
57.8844448078
 31
0.0
  0
LINE
  5
F2
330
1F
100
AcDbEntity
  8
0
  6
Continuous
 62
     7
370
    30
100
AcDbLine
 10
307.5349203359
 20
57.8844448078
 30
0.0
 11
308.0388031016
 21
56.9881669704
 31
0.0
  0
LINE
  5
F3
330
1F
100
AcDbEntity
  8
0
  6
Continuous
 62
     7
370
    30
100
AcDbLine
 10
288.1348899614
 20
43.0041480336
 30
0.0
 11
288.4437761317
 21
42.4547254566
 31
0.0
  0
LINE
  5
F4
330
1F
100
AcDbEntity
  8
0
  6
Continuous
 62
     7
370
    30
100
AcDbLine
 10
287.9388055812
 20
45.4180905122
 30
0.0
 11
287.9388055812
 21
43.1778597172
 31
0.0
  0
LINE
  5
F5
330
1F
100
AcDbEntity
  8
0
  6
Continuous
 62
     7
370
    30
100
AcDbLine
 10
293.1107229601
 20
43.0041480336
 30
0.0
 11
292.8018442403
 21
42.4547254566
 31
0.0
  0
LINE
  5
F6
330
1F
100
AcDbEntity
  8
0
  6
Continuous
 62
     7
370
    30
100
AcDbLine
 10
293.3068073403
 20
45.4180905122
 30
0.0
 11
293.3068073403
 21
43.1778597172
 31
0.0
  0
LINE
  5
F7
330
1F
100
AcDbEntity
  8
0
  6
Continuous
 62
     7
370
    30
100
AcDbLine
 10
307.5349203359
 20
42.4712750587
 30
0.0
 11
307.8431508552
 21
43.0195339482
 31
0.0
  0
LINE
  5
F8
330
1F
100
AcDbEntity
  8
0
  6
Continuous
 62
     7
370
    30
100
AcDbLine
 10
298.8906896721
 20
42.4712750587
 30
0.0
 11
298.5824666034
 21
43.0195339482
 31
0.0
  0
LINE
  5
F9
330
1F
100
AcDbEntity
  8
0
  6
Continuous
 62
     7
370
    30
100
AcDbLine
 10
298.3868069063
 20
45.4282898914
 30
0.0
 11
298.3868069063
 21
43.1928600642
 31
0.0
  0
LINE
  5
FA
330
1F
100
AcDbEntity
  8
0
  6
Continuous
 62
     7
370
    30
100
AcDbLine
 10
293.3068073403
 20
57.1778601493
 30
0.0
 11
293.3068073403
 21
57.0027919944
 31
0.0
  0
LINE
  5
FB
330
1F
100
AcDbEntity
  8
0
  6
Continuous
 62
     7
370
    30
100
AcDbLine
 10
287.9388055812
 20
57.1778601493
 30
0.0
 11
287.9388055812
 21
57.0027919944
 31
0.0
  0
LINE
  5
FC
330
1F
100
AcDbEntity
  8
0
  6
Continuous
 62
     7
370
    30
100
AcDbLine
 10
298.3868069063
 20
57.1628598023
 30
0.0
 11
298.3868069063
 21
56.9881669704
 31
0.0
  0
LINE
  5
FD
330
1F
100
AcDbEntity
  8
0
  6
Continuous
 62
     7
370
    30
100
AcDbLine
 10
244.7861752521
 20
17.6778611254
 30
0.0
 11
244.7053141009
 21
17.8237583946
 31
0.0
  0
LINE
  5
FE
330
1F
100
AcDbEntity
  8
0
  6
Continuous
 62
     7
370
    30
100
AcDbLine
 10
244.7053141009
 20
20.9516741793
 30
0.0
 11
244.7053141009
 21
17.8237583946
 31
0.0
  0
LINE
  5
FF
330
1F
100
AcDbEntity
  8
0
  6
Continuous
 62
     7
370
    30
100
AcDbLine
 10
245.6868088852
 20
20.9516741793
 30
0.0
 11
245.6868088852
 21
15.9778584253
 31
0.0
  0
LINE
  5
100
330
1F
100
AcDbEntity
  8
0
  6
Continuous
 62
     7
370
    30
100
AcDbLine
 10
254.3868071448
 20
21.1778607677
 30
0.0
 11
254.3868071448
 21
15.9778584253
 31
0.0
  0
LINE
  5
101
330
1F
100
AcDbEntity
  8
0
  6
Continuous
 62
     7
370
    30
100
AcDbLine
 10
254.3868071448
 20
26.3778593849
 30
0.0
 11
254.3868071448
 21
21.1778607677
 31
0.0
  0
LINE
  5
102
330
1F
100
AcDbEntity
  8
0
  6
Continuous
 62
     7
370
    30
100
AcDbLine
 10
255.2868074785
 20
21.1778607677
 30
0.0
 11
255.2868074785
 21
16.3278606247
 31
0.0
  0
LINE
  5
103
330
1F
100
AcDbEntity
  8
0
  6
Continuous
 62
     7
370
    30
100
AcDbLine
 10
255.2868074785
 20
26.0278590481
 30
0.0
 11
255.2868074785
 21
21.1778607677
 31
0.0
  0
LINE
  5
104
330
1F
100
AcDbEntity
  8
0
  6
Continuous
 62
     7
370
    30
100
AcDbLine
 10
256.7868105184
 20
21.1778607677
 30
0.0
 11
256.7868105184
 21
16.3278606247
 31
0.0
  0
LINE
  5
105
330
1F
100
AcDbEntity
  8
0
  6
Continuous
 62
     7
370
    30
100
AcDbLine
 10
256.7868105184
 20
26.0278590481
 30
0.0
 11
256.7868105184
 21
21.1778607677
 31
0.0
  0
LINE
  5
106
330
1F
100
AcDbEntity
  8
0
  6
Continuous
 62
     7
370
    30
100
AcDbLine
 10
237.6680060338
 20
33.4508780848
 30
0.0
 11
237.6680060338
 21
34.5120531033
 31
0.0
  0
LINE
  5
107
330
1F
100
AcDbEntity
  8
0
  6
Continuous
 62
     7
370
    30
100
AcDbLine
 10
238.1030268084
 20
34.5745187711
 30
0.0
 11
238.8227081905
 21
34.6778601866
 31
0.0
  0
LINE
  5
108
330
1F
100
AcDbEntity
  8
0
  6
Continuous
 62
     7
370
    30
100
AcDbLine
 10
239.977406622
 20
33.4508780848
 30
0.0
 11
239.977406622
 21
34.5120531033
 31
0.0
  0
SPLINE
  5
109
330
1F
100
AcDbEntity
  8
0
  6
Continuous
 62
     7
370
    30
100
AcDbSpline
210
0.0
220
0.0
230
1.0
 70
     8
 71
     3
 72
     9
 73
     5
 74
     0
 42
0.00000001
 43
0.00000001
 12
1.0
 22
0.0
 32
0.0
 13
1.0
 23
0.0
 33
0.0
 40
0.0
 40
0.0
 40
0.0
 40
0.0
 40
0.2505638988133649
 40
1.0
 40
1.0
 40
1.0
 40
1.0
 10
239.9774066220411
 20
34.51205310333865
 30
0.0
 10
240.1693329958573
 20
34.53678398631796
 30
0.0
 10
240.9353107553235
 20
34.63548488894774
 30
0.0
 10
241.7078433754489
 20
34.65970714983013
 30
0.0
 10
242.2868072103151
 20
34.67786018658774
 30
0.0
  0
LINE
  5
10A
330
1F
100
AcDbEntity
  8
0
  6
Continuous
 62
     7
370
    30
100
AcDbLine
 10
241.7868099223
 20
34.6778601866
 30
0.0
 11
242.2868072103
 21
34.6778601866
 31
0.0
  0
LINE
  5
10B
330
1F
100
AcDbEntity
  8
0
  6
Continuous
 62
     7
370
    30
100
AcDbLine
 10
242.2868072103
 20
34.6778601866
 30
0.0
 11
244.5962077986
 21
34.5120531033
 31
0.0
  0
LINE
  5
10C
330
1F
100
AcDbEntity
  8
0
  6
Continuous
 62
     7
370
    30
100
AcDbLine
 10
244.5962077986
 20
33.5046992164
 30
0.0
 11
244.5962077986
 21
34.5120531033
 31
0.0
  0
LINE
  5
10D
330
1F
100
AcDbEntity
  8
0
  6
Continuous
 62
     7
370
    30
100
AcDbLine
 10
242.2868072103
 20
34.6778601866
 30
0.0
 11
242.7868082236
 21
34.6778601866
 31
0.0
  0
LINE
  5
10E
330
1F
100
AcDbEntity
  8
0
  6
Continuous
 62
     7
370
    30
100
AcDbLine
 10
245.7509136807
 20
34.6778601866
 30
0.0
 11
246.4613339912
 21
34.5758486997
 31
0.0
  0
LINE
  5
10F
330
1F
100
AcDbEntity
  8
0
  6
Continuous
 62
     7
370
    30
100
AcDbLine
 10
246.9056121122
 20
33.3654571782
 30
0.0
 11
246.9056121122
 21
34.5120531033
 31
0.0
  0
ARC
  5
110
330
1F
100
AcDbEntity
  8
0
  6
Continuous
 62
     7
370
    30
100
AcDbCircle
 10
242.2868088971
 20
21.1778599333
 30
0.0
 40
3.354101966249683
100
AcDbArc
 50
182.9456963055
 51
270.0
  0
LINE
  5
111
330
1F
100
AcDbEntity
  8
0
  6
Continuous
 62
     7
370
    30
100
AcDbLine
 10
244.7053141009
 20
17.8237583946
 30
0.0
 11
242.2868072103
 21
17.8237583946
 31
0.0
  0
LINE
  5
112
330
1F
100
AcDbEntity
  8
0
  6
Continuous
 62
     7
370
    30
100
AcDbLine
 10
244.7861752521
 20
17.6778611254
 30
0.0
 11
240.5368073891
 21
17.6778611254
 31
0.0
  0
ARC
  5
113
330
1F
100
AcDbEntity
  8
0
  6
Continuous
 62
     7
370
    30
100
AcDbCircle
 10
240.5368088971
 20
19.4278599333
 30
0.0
 40
1.75
100
AcDbArc
 50
180.0
 51
270.0
  0
LINE
  5
114
330
1F
100
AcDbEntity
  8
0
  6
Continuous
 62
     7
370
    30
100
AcDbLine
 10
238.7868075679
 20
19.4278590839
 30
0.0
 11
238.7868075679
 21
21.0054953109
 31
0.0
  0
LINE
  5
115
330
1F
100
AcDbEntity
  8
0
  6
Continuous
 62
     7
370
    30
100
AcDbLine
 10
247.6868054877
 20
32.1281858246
 30
0.0
 11
247.6868054877
 21
26.3778593849
 31
0.0
  0
LINE
  5
116
330
1F
100
AcDbEntity
  8
0
  6
Continuous
 62
     7
370
    30
100
AcDbLine
 10
283.2868120681
 20
51.2654841637
 30
0.0
 11
280.2868059884
 21
51.2654841637
 31
0.0
  0
LINE
  5
117
330
1F
100
AcDbEntity
  8
0
  6
Continuous
 62
     7
370
    30
100
AcDbLine
 10
280.2868059884
 20
62.5902357038
 30
0.0
 11
283.2868120681
 21
62.5902357038
 31
0.0
  0
SPLINE
  5
118
330
1F
100
AcDbEntity
  8
0
  6
Continuous
 62
     7
370
    30
100
AcDbSpline
210
0.0
220
0.0
230
1.0
 70
     8
 71
     3
 72
    12
 73
     8
 74
     0
 42
0.00000001
 43
0.00000001
 12
1.0
 22
0.0
 32
0.0
 13
1.0
 23
0.0
 33
0.0
 40
0.0
 40
0.0
 40
0.0
 40
0.0
 40
0.2238466714053894
 40
0.4546323620055412
 40
0.6623539705413432
 40
0.8783805891699794
 40
1.0
 40
1.0
 40
1.0
 40
1.0
 10
283.2868120680937
 20
62.59023570377725
 30
0.0
 10
283.6564898085885
 20
61.77723259002879
 30
0.0
 10
284.4073049236259
 20
60.12602409270905
 30
0.0
 10
284.8755695400746
 20
57.55063094980717
 30
0.0
 10
284.6973603570763
 20
54.98980871221519
 30
0.0
 10
284.073605648422
 20
52.92028896122884
 30
0.0
 10
283.4951651538913
 20
51.70369781283566
 30
0.0
 10
283.2868120680937
 20
51.26548416369008
 30
0.0
  0
SPLINE
  5
119
330
1F
100
AcDbEntity
  8
0
  6
Continuous
 62
     7
370
    30
100
AcDbSpline
210
0.0
220
0.0
230
1.0
 70
    24
 71
     3
 72
    10
 73
     6
 74
     0
 42
0.00000001
 43
0.00000001
 12
1.0
 22
0.0
 32
0.0
 13
1.0
 23
0.0
 33
0.0
 40
0.0
 40
0.0
 40
0.0
 40
0.0
 40
0.3156379587757695
 40
0.7606989508781019
 40
1.0
 40
1.0
 40
1.0
 40
1.0
 10
284.7279629717955
 20
63.6778602834453
 30
0.0
 10
284.7180128703131
 20
63.6778602834453
 30
0.0
 10
284.6940327641554
 20
63.6778602834453
 30
0.0
 10
284.0727709391951
 20
63.67786028344528
 30
0.0
 10
283.4904369442926
 20
63.6778602834453
 30
0.0
 10
283.2868120680937
 20
63.6778602834453
 30
0.0
  0
SPLINE
  5
11A
330
1F
100
AcDbEntity
  8
0
  6
Continuous
 62
     7
370
    30
100
AcDbSpline
210
0.0
220
0.0
230
1.0
 70
    24
 71
     3
 72
    10
 73
     6
 74
     0
 42
0.00000001
 43
0.00000001
 12
1.0
 22
0.0
 32
0.0
 13
1.0
 23
0.0
 33
0.0
 40
0.0
 40
0.0
 40
0.0
 40
0.0
 40
0.232999473256114
 40
0.6228766162147722
 40
1.0
 40
1.0
 40
1.0
 40
1.0
 10
283.2868120680937
 20
36.67785958309072
 30
0.0
 10
283.4860391519645
 20
36.67785958309072
 30
0.0
 10
284.0186321665561
 20
36.67785958309072
 30
0.0
 10
284.6460930262843
 20
36.67785958309072
 30
0.0
 10
284.7301864245741
 20
36.67785958309072
 30
0.0
 10
284.7715339671263
 20
36.67785958309072
 30
0.0
  0
LINE
  5
11B
330
1F
100
AcDbEntity
  8
0
  6
Continuous
 62
     7
370
    30
100
AcDbLine
 10
283.2868120681
 20
36.6778595831
 30
0.0
 11
283.2868120681
 21
37.7654841628
 31
0.0
  0
SPLINE
  5
11C
330
1F
100
AcDbEntity
  8
0
  6
Continuous
 62
     7
370
    30
100
AcDbSpline
210
0.0
220
0.0
230
1.0
 70
     8
 71
     3
 72
    12
 73
     8
 74
     0
 42
0.00000001
 43
0.00000001
 12
1.0
 22
0.0
 32
0.0
 13
1.0
 23
0.0
 33
0.0
 40
0.0
 40
0.0
 40
0.0
 40
0.0
 40
0.2238467112146694
 40
0.454632353195619
 40
0.6623539619403459
 40
0.8783806142097486
 40
0.9999999999999999
 40
0.9999999999999999
 40
0.9999999999999999
 40
0.9999999999999999
 10
283.2868120680937
 20
49.09023570284592
 30
0.0
 10
283.6564897933793
 20
48.27723261342889
 30
0.0
 10
284.4073047294513
 20
46.62602449117727
 30
0.0
 10
284.8755696091248
 20
44.05063080691875
 30
0.0
 10
284.6973602603696
 20
41.48980853125546
 30
0.0
 10
284.0736058208316
 20
39.42028955262843
 30
0.0
 10
283.4951651641084
 20
38.20369789422425
 30
0.0
 10
283.2868120680937
 20
37.76548416275876
 30
0.0
  0
LINE
  5
11D
330
1F
100
AcDbEntity
  8
0
  6
Continuous
 62
     7
370
    30
100
AcDbLine
 10
283.2868120681
 20
49.0902357028
 30
0.0
 11
283.2868120681
 21
51.2654841637
 31
0.0
  0
LINE
  5
11E
330
1F
100
AcDbEntity
  8
0
  6
Continuous
 62
     7
370
    30
100
AcDbLine
 10
283.2868120681
 20
62.5902357038
 30
0.0
 11
283.2868120681
 21
63.6778602834
 31
0.0
  0
LINE
  5
11F
330
1F
100
AcDbEntity
  8
0
  6
Continuous
 62
     7
370
    30
100
AcDbLine
 10
285.2868086706
 20
63.1778602015
 30
0.0
 11
285.2868086706
 21
37.177859665
 31
0.0
  0
LINE
  5
120
330
1F
100
AcDbEntity
  8
0
  6
Continuous
 62
     7
370
    30
100
AcDbLine
 10
283.2868120681
 20
37.7654841628
 30
0.0
 11
280.2868059884
 21
37.7654841628
 31
0.0
  0
LINE
  5
121
330
1F
100
AcDbEntity
  8
0
  6
Continuous
 62
     7
370
    30
100
AcDbLine
 10
280.2868059884
 20
49.0902357028
 30
0.0
 11
283.2868120681
 21
49.0902357028
 31
0.0
  0
LINE
  5
122
330
1F
100
AcDbEntity
  8
0
  6
Continuous
 62
     7
370
    30
100
AcDbLine
 10
276.2868053328
 20
66.1778606932
 30
0.0
 11
276.2868053328
 21
34.1778591733
 31
0.0
  0
LINE
  5
123
330
1F
100
AcDbEntity
  8
0
  6
Continuous
 62
     7
370
    30
100
AcDbLine
 10
280.2868059884
 20
63.6778602834
 30
0.0
 11
280.2868059884
 21
62.5902357038
 31
0.0
  0
LINE
  5
124
330
1F
100
AcDbEntity
  8
0
  6
Continuous
 62
     7
370
    30
100
AcDbLine
 10
280.2868059884
 20
62.5902357038
 30
0.0
 11
280.2868059884
 21
51.2654841637
 31
0.0
  0
LINE
  5
125
330
1F
100
AcDbEntity
  8
0
  6
Continuous
 62
     7
370
    30
100
AcDbLine
 10
280.2868059884
 20
51.2654841637
 30
0.0
 11
280.2868059884
 21
49.0902357028
 31
0.0
  0
LINE
  5
126
330
1F
100
AcDbEntity
  8
0
  6
Continuous
 62
     7
370
    30
100
AcDbLine
 10
280.2868059884
 20
49.0902357028
 30
0.0
 11
280.2868059884
 21
37.7654841628
 31
0.0
  0
LINE
  5
127
330
1F
100
AcDbEntity
  8
0
  6
Continuous
 62
     7
370
    30
100
AcDbLine
 10
280.2868059884
 20
37.7654841628
 30
0.0
 11
280.2868059884
 21
36.6778595831
 31
0.0
  0
LINE
  5
128
330
1F
100
AcDbEntity
  8
0
  6
Continuous
 62
     7
370
    30
100
AcDbLine
 10
280.2868059884
 20
36.6778595831
 30
0.0
 11
280.2868059884
 21
35.1778602685
 31
0.0
  0
LINE
  5
129
330
1F
100
AcDbEntity
  8
0
  6
Continuous
 62
     7
370
    30
100
AcDbLine
 10
280.2868059884
 20
65.177859598
 30
0.0
 11
280.2868059884
 21
63.6778602834
 31
0.0
  0
LINE
  5
12A
330
1F
100
AcDbEntity
  8
0
  6
Continuous
 62
     7
370
    30
100
AcDbLine
 10
283.2868120681
 20
63.6778602834
 30
0.0
 11
280.2868059884
 21
63.6778602834
 31
0.0
  0
LINE
  5
12B
330
1F
100
AcDbEntity
  8
0
  6
Continuous
 62
     7
370
    30
100
AcDbLine
 10
280.2868059884
 20
36.6778595831
 30
0.0
 11
283.2868120681
 21
36.6778595831
 31
0.0
  0
LINE
  5
12C
330
1F
100
AcDbEntity
  8
0
  6
Continuous
 62
     7
370
    30
100
AcDbLine
 10
218.286810727
 20
69.6970809709
 30
0.0
 11
217.7868097137
 21
69.6970809709
 31
0.0
  0
LINE
  5
12D
330
1F
100
AcDbEntity
  8
0
  6
Continuous
 62
     7
370
    30
100
AcDbLine
 10
218.286810727
 20
30.6586388956
 30
0.0
 11
217.7868097137
 21
30.6586388956
 31
0.0
  0
SPLINE
  5
12E
330
1F
100
AcDbEntity
  8
0
  6
Continuous
 62
     7
370
    30
100
AcDbSpline
210
0.0
220
0.0
230
1.0
 70
     8
 71
     3
 72
     9
 73
     5
 74
     0
 42
0.00000001
 43
0.00000001
 12
1.0
 22
0.0
 32
0.0
 13
1.0
 23
0.0
 33
0.0
 40
0.0
 40
0.0
 40
0.0
 40
0.0
 40
0.1460730718612656
 40
1.0
 40
1.0
 40
1.0
 40
1.0
 10
246.6868109117636
 20
27.2476532023062
 30
0.0
 10
246.730586628422
 20
27.13991248521019
 30
0.0
 10
247.030270314817
 20
26.40233152163367
 30
0.0
 10
247.1147081682456
 20
25.61198688833918
 30
0.0
 10
247.1868119250425
 20
24.93709032345908
 30
0.0
  0
LINE
  5
12F
330
1F
100
AcDbEntity
  8
0
  6
Continuous
 62
     7
370
    30
100
AcDbLine
 10
246.6868109118
 20
27.2476532023
 30
0.0
 11
246.6868109118
 21
28.9030418258
 31
0.0
  0
SPLINE
  5
130
330
1F
100
AcDbEntity
  8
0
  6
Continuous
 62
     7
370
    30
100
AcDbSpline
210
0.0
220
0.0
230
1.0
 70
     8
 71
     3
 72
     9
 73
     5
 74
     0
 42
0.00000001
 43
0.00000001
 12
1.0
 22
0.0
 32
0.0
 13
1.0
 23
0.0
 33
0.0
 40
0.0
 40
0.0
 40
0.0
 40
0.0
 40
0.9680503047885137
 40
1.0
 40
1.0
 40
1.0
 40
1.0
 10
246.6868109117636
 20
28.90304182578223
 30
0.0
 10
246.931140840706
 20
29.53565588338266
 30
0.0
 10
247.1835346757512
 20
30.18914884182828
 30
0.0
 10
247.1867104597129
 20
30.86350537830699
 30
0.0
 10
247.1868119250425
 20
30.88505086411136
 30
0.0
  0
LINE
  5
131
330
1F
100
AcDbEntity
  8
0
  6
Continuous
 62
     7
370
    30
100
AcDbLine
 10
247.186811925
 20
30.8850508641
 30
0.0
 11
247.186811925
 21
24.9370903235
 31
0.0
  0
SPLINE
  5
132
330
1F
100
AcDbEntity
  8
0
  6
Continuous
 62
     7
370
    30
100
AcDbSpline
210
0.0
220
0.0
230
1.0
 70
     8
 71
     3
 72
     9
 73
     5
 74
     0
 42
0.00000001
 43
0.00000001
 12
1.0
 22
0.0
 32
0.0
 13
1.0
 23
0.0
 33
0.0
 40
0.0
 40
0.0
 40
0.0
 40
0.0
 40
0.1460724835844013
 40
1.0
 40
1.0
 40
1.0
 40
1.0
 10
246.6868109117636
 20
32.86705990244048
 30
0.0
 10
246.7305866295878
 20
32.77464010841177
 30
0.0
 10
247.0302715308779
 20
32.14194193171991
 30
0.0
 10
247.1147087015755
 20
31.46398065411903
 30
0.0
 10
247.1868119250425
 20
30.88505086411136
 30
0.0
  0
LINE
  5
133
330
1F
100
AcDbEntity
  8
0
  6
Continuous
 62
     7
370
    30
100
AcDbLine
 10
241.3868106018
 20
28.9030418258
 30
0.0
 11
246.6868109118
 21
28.9030418258
 31
0.0
  0
SPLINE
  5
134
330
1F
100
AcDbEntity
  8
0
  6
Continuous
 62
     7
370
    30
100
AcDbSpline
210
0.0
220
0.0
230
1.0
 70
     8
 71
     3
 72
     9
 73
     5
 74
     0
 42
0.00000001
 43
0.00000001
 12
1.0
 22
0.0
 32
0.0
 13
1.0
 23
0.0
 33
0.0
 40
0.0
 40
0.0
 40
0.0
 40
0.0
 40
0.8977151602694482
 40
1.0
 40
1.0
 40
1.0
 40
1.0
 10
241.3868106018194
 20
28.90304182578223
 30
0.0
 10
241.3234727625482
 20
29.0395067319322
 30
0.0
 10
241.2529182681223
 20
29.19152032398183
 30
0.0
 10
241.1929418904531
 20
29.34629331939268
 30
0.0
 10
241.1868072162756
 20
29.36212425042289
 30
0.0
  0
SPLINE
  5
135
330
1F
100
AcDbEntity
  8
0
  6
Continuous
 62
     7
370
    30
100
AcDbSpline
210
0.0
220
0.0
230
1.0
 70
     8
 71
     3
 72
     9
 73
     5
 74
     0
 42
0.00000001
 43
0.00000001
 12
1.0
 22
0.0
 32
0.0
 13
1.0
 23
0.0
 33
0.0
 40
0.0
 40
0.0
 40
0.0
 40
0.0
 40
0.8763582644710858
 40
1.0
 40
1.0
 40
1.0
 40
1.0
 10
241.1868072162756
 20
32.40797561515467
 30
0.0
 10
241.2419316637822
 20
32.54302493990576
 30
0.0
 10
241.3048333898699
 20
32.69712781110148
 30
0.0
 10
241.3777901067286
 20
32.84836114995482
 30
0.0
 10
241.3868106018194
 20
32.86705990244048
 30
0.0
  0
LINE
  5
136
330
1F
100
AcDbEntity
  8
0
  6
Continuous
 62
     7
370
    30
100
AcDbLine
 10
241.3868106018
 20
32.8670599024
 30
0.0
 11
246.6868109118
 21
32.8670599024
 31
0.0
  0
LINE
  5
137
330
1F
100
AcDbEntity
  8
0
  6
Continuous
 62
     7
370
    30
100
AcDbLine
 10
241.1868072163
 20
29.3621242504
 30
0.0
 11
241.1868072163
 21
32.4079756152
 31
0.0
  0
LINE
  5
138
330
1F
100
AcDbEntity
  8
0
  6
Continuous
 62
     7
370
    30
100
AcDbLine
 10
241.3868106018
 20
28.9030418258
 30
0.0
 11
241.3868106018
 21
27.2476532023
 31
0.0
  0
SPLINE
  5
139
330
1F
100
AcDbEntity
  8
0
  6
Continuous
 62
     7
370
    30
100
AcDbSpline
210
0.0
220
0.0
230
1.0
 70
     8
 71
     3
 72
     9
 73
     5
 74
     0
 42
0.00000001
 43
0.00000001
 12
1.0
 22
0.0
 32
0.0
 13
1.0
 23
0.0
 33
0.0
 40
0.0
 40
0.0
 40
0.0
 40
0.0
 40
0.8763577534791644
 40
1.0
 40
1.0
 40
1.0
 40
1.0
 10
241.1868072162756
 20
26.71246868480342
 30
0.0
 10
241.2419317966512
 20
26.86990528223426
 30
0.0
 10
241.3048337110311
 20
27.04955405786933
 30
0.0
 10
241.3777901088901
 20
27.22585496240567
 30
0.0
 10
241.3868106018194
 20
27.2476532023062
 30
0.0
  0
LINE
  5
13A
330
1F
100
AcDbEntity
  8
0
  6
Continuous
 62
     7
370
    30
100
AcDbLine
 10
241.1868072163
 20
26.7124686848
 30
0.0
 11
241.1868072163
 21
29.3621242504
 31
0.0
  0
LINE
  5
13B
330
1F
100
AcDbEntity
  8
0
  6
Continuous
 62
     7
370
    30
100
AcDbLine
 10
241.3868106018
 20
27.2476532023
 30
0.0
 11
246.6868109118
 21
27.2476532023
 31
0.0
  0
SPLINE
  5
13C
330
1F
100
AcDbEntity
  8
0
  6
Continuous
 62
     7
370
    30
100
AcDbSpline
210
0.0
220
0.0
230
1.0
 70
     8
 71
     3
 72
     9
 73
     5
 74
     0
 42
0.00000001
 43
0.00000001
 12
1.0
 22
0.0
 32
0.0
 13
1.0
 23
0.0
 33
0.0
 40
0.0
 40
0.0
 40
0.0
 40
0.0
 40
0.1460725706472483
 40
1.0
 40
1.0
 40
1.0
 40
1.0
 10
246.6868109117636
 20
22.62652930725711
 30
0.0
 10
246.7305866294153
 20
22.73426939264944
 30
0.0
 10
247.0302713509047
 20
23.4718485624754
 30
0.0
 10
247.1147086226443
 20
24.26219328567486
 30
0.0
 10
247.1868119250425
 20
24.93709032345908
 30
0.0
  0
LINE
  5
13D
330
1F
100
AcDbEntity
  8
0
  6
Continuous
 62
     7
370
    30
100
AcDbLine
 10
241.3868106018
 20
22.6265293073
 30
0.0
 11
246.6868109118
 21
22.6265293073
 31
0.0
  0
SPLINE
  5
13E
330
1F
100
AcDbEntity
  8
0
  6
Continuous
 62
     7
370
    30
100
AcDbSpline
210
0.0
220
0.0
230
1.0
 70
     8
 71
     3
 72
     9
 73
     5
 74
     0
 42
0.00000001
 43
0.00000001
 12
1.0
 22
0.0
 32
0.0
 13
1.0
 23
0.0
 33
0.0
 40
0.0
 40
0.0
 40
0.0
 40
0.0
 40
0.8977128320133321
 40
1.0
 40
1.0
 40
1.0
 40
1.0
 10
241.3868106018194
 20
22.6265293072571
 30
0.0
 10
241.3234721534635
 20
22.78561500531458
 30
0.0
 10
241.2529167975666
 20
22.96282724110348
 30
0.0
 10
241.1929418806747
 20
23.14325806660214
 30
0.0
 10
241.1868072162756
 20
23.16171382475989
 30
0.0
  0
LINE
  5
13F
330
1F
100
AcDbEntity
  8
0
  6
Continuous
 62
     7
370
    30
100
AcDbLine
 10
241.1868072163
 20
23.1617138248
 30
0.0
 11
241.1868072163
 21
26.7124686848
 31
0.0
  0
SPLINE
  5
140
330
1F
100
AcDbEntity
  8
0
  6
Continuous
 62
     7
370
    30
100
AcDbSpline
210
0.0
220
0.0
230
1.0
 70
     8
 71
     3
 72
     9
 73
     5
 74
     0
 42
0.00000001
 43
0.00000001
 12
1.0
 22
0.0
 32
0.0
 13
1.0
 23
0.0
 33
0.0
 40
0.0
 40
0.0
 40
0.0
 40
0.0
 40
0.1460726869910852
 40
1.0
 40
1.0
 40
1.0
 40
1.0
 10
246.6868109117636
 20
21.60877999771731
 30
0.0
 10
246.7305866291847
 20
21.59345971010591
 30
0.0
 10
247.0302711104032
 20
21.48857844909147
 30
0.0
 10
247.1147085171671
 20
21.37619416604533
 30
0.0
 10
247.1868119250425
 20
21.28022615719931
 30
0.0
  0
LINE
  5
141
330
1F
100
AcDbEntity
  8
0
  6
Continuous
 62
     7
370
    30
100
AcDbLine
 10
246.6868109118
 20
21.6087799977
 30
0.0
 11
246.6868109118
 21
22.6265293073
 31
0.0
  0
LINE
  5
142
330
1F
100
AcDbEntity
  8
0
  6
Continuous
 62
     7
370
    30
100
AcDbLine
 10
247.186811925
 20
24.9370903235
 30
0.0
 11
247.186811925
 21
21.2802261572
 31
0.0
  0
LINE
  5
143
330
1F
100
AcDbEntity
  8
0
  6
Continuous
 62
     7
370
    30
100
AcDbLine
 10
246.6868109118
 20
32.8670599024
 30
0.0
 11
246.6868109118
 21
33.5046992164
 31
0.0
  0
SPLINE
  5
144
330
1F
100
AcDbEntity
  8
0
  6
Continuous
 62
     7
370
    30
100
AcDbSpline
210
0.0
220
0.0
230
1.0
 70
     8
 71
     3
 72
     9
 73
     5
 74
     0
 42
0.00000001
 43
0.00000001
 12
1.0
 22
0.0
 32
0.0
 13
1.0
 23
0.0
 33
0.0
 40
0.0
 40
0.0
 40
0.0
 40
0.0
 40
0.9680503354734608
 40
1.0
 40
1.0
 40
1.0
 40
1.0
 10
246.6868109117636
 20
33.50469921637671
 30
0.0
 10
246.9311408404633
 20
33.39982800793984
 30
0.0
 10
247.1835346672577
 20
33.29149561592058
 30
0.0
 10
247.1867104595444
 20
33.17971848048285
 30
0.0
 10
247.1868119250425
 20
33.17614723850387
 30
0.0
  0
LINE
  5
145
330
1F
100
AcDbEntity
  8
0
  6
Continuous
 62
     7
370
    30
100
AcDbLine
 10
247.186811925
 20
30.8850508641
 30
0.0
 11
247.186811925
 21
33.228183956
 31
0.0
  0
LINE
  5
146
330
1F
100
AcDbEntity
  8
0
  6
Continuous
 62
     7
370
    30
100
AcDbLine
 10
241.3868106018
 20
22.6265293073
 30
0.0
 11
241.3868106018
 21
21.6087799977
 31
0.0
  0
SPLINE
  5
147
330
1F
100
AcDbEntity
  8
0
  6
Continuous
 62
     7
370
    30
100
AcDbSpline
210
0.0
220
0.0
230
1.0
 70
     8
 71
     3
 72
     9
 73
     5
 74
     0
 42
0.00000001
 43
0.00000001
 12
1.0
 22
0.0
 32
0.0
 13
1.0
 23
0.0
 33
0.0
 40
0.0
 40
0.0
 40
0.0
 40
0.0
 40
0.8763583012790505
 40
1.0
 40
1.0
 40
1.0
 40
1.0
 10
241.1868072162756
 20
21.53267790485518
 30
0.0
 10
241.2419316542112
 20
21.55506574818862
 30
0.0
 10
241.3048333667358
 20
21.58061219796922
 30
0.0
 10
241.3777901065728
 20
21.60568050914008
 30
0.0
 10
241.3868106018194
 20
21.60877999771731
 30
0.0
  0
LINE
  5
148
330
1F
100
AcDbEntity
  8
0
  6
Continuous
 62
     7
370
    30
100
AcDbLine
 10
241.1868072163
 20
21.5326779049
 30
0.0
 11
241.1868072163
 21
23.1617138248
 31
0.0
  0
LINE
  5
149
330
1F
100
AcDbEntity
  8
0
  6
Continuous
 62
     7
370
    30
100
AcDbLine
 10
241.3868106018
 20
21.6087799977
 30
0.0
 11
246.6868109118
 21
21.6087799977
 31
0.0
  0
LINE
  5
14A
330
1F
100
AcDbEntity
  8
0
  6
Continuous
 62
     7
370
    30
100
AcDbLine
 10
241.3868106018
 20
33.5046992164
 30
0.0
 11
241.3868106018
 21
32.8670599024
 31
0.0
  0
SPLINE
  5
14B
330
1F
100
AcDbEntity
  8
0
  6
Continuous
 62
     7
370
    30
100
AcDbSpline
210
0.0
220
0.0
230
1.0
 70
     8
 71
     3
 72
     9
 73
     5
 74
     0
 42
0.00000001
 43
0.00000001
 12
1.0
 22
0.0
 32
0.0
 13
1.0
 23
0.0
 33
0.0
 40
0.0
 40
0.0
 40
0.0
 40
0.0
 40
0.897714184748815
 40
0.9999999999999999
 40
0.9999999999999999
 40
0.9999999999999999
 40
0.9999999999999999
 10
241.3868106018194
 20
33.50469921637671
 30
0.0
 10
241.3234725073428
 20
33.48207771324287
 30
0.0
 10
241.2529176519637
 20
33.45687870946397
 30
0.0
 10
241.1929418863561
 20
33.43122318263694
 30
0.0
 10
241.1868072162756
 20
33.42859898615973
 30
0.0
  0
LINE
  5
14C
330
1F
100
AcDbEntity
  8
0
  6
Continuous
 62
     7
370
    30
100
AcDbLine
 10
241.1868072163
 20
32.4079756152
 30
0.0
 11
241.1868072163
 21
33.4285989862
 31
0.0
  0
SPLINE
  5
14D
330
1F
100
AcDbEntity
  8
0
  6
Continuous
 62
     7
370
    30
100
AcDbSpline
210
0.0
220
0.0
230
1.0
 70
     8
 71
     3
 72
     9
 73
     5
 74
     0
 42
0.00000001
 43
0.00000001
 12
1.0
 22
0.0
 32
0.0
 13
1.0
 23
0.0
 33
0.0
 40
0.0
 40
0.0
 40
0.0
 40
0.0
 40
0.9680506971370135
 40
1.0
 40
1.0
 40
1.0
 40
1.0
 10
246.6868109117636
 20
20.95167417932646
 30
0.0
 10
246.9311408376049
 20
21.05654477512102
 30
0.0
 10
247.1835345671523
 20
21.1648764938055
 30
0.0
 10
247.1867104575581
 20
21.27665491458043
 30
0.0
 10
247.1868119250425
 20
21.28022615719932
 30
0.0
  0
LINE
  5
14E
330
1F
100
AcDbEntity
  8
0
  6
Continuous
 62
     7
370
    30
100
AcDbLine
 10
241.3868106018
 20
20.9516741793
 30
0.0
 11
246.6868109118
 21
20.9516741793
 31
0.0
  0
SPLINE
  5
14F
330
1F
100
AcDbEntity
  8
0
  6
Continuous
 62
     7
370
    30
100
AcDbSpline
210
0.0
220
0.0
230
1.0
 70
     8
 71
     3
 72
     9
 73
     5
 74
     0
 42
0.00000001
 43
0.00000001
 12
1.0
 22
0.0
 32
0.0
 13
1.0
 23
0.0
 33
0.0
 40
0.0
 40
0.0
 40
0.0
 40
0.0
 40
0.897714184748815
 40
0.9999999999999999
 40
0.9999999999999999
 40
0.9999999999999999
 40
0.9999999999999999
 10
241.3868106018194
 20
20.95167417932646
 30
0.0
 10
241.3234725073428
 20
20.9742956824603
 30
0.0
 10
241.2529176519637
 20
20.99949468623917
 30
0.0
 10
241.1929418863561
 20
21.02515021306624
 30
0.0
 10
241.1868072162756
 20
21.02777440954345
 30
0.0
  0
LINE
  5
150
330
1F
100
AcDbEntity
  8
0
  6
Continuous
 62
     7
370
    30
100
AcDbLine
 10
241.1868072163
 20
21.0277744095
 30
0.0
 11
241.1868072163
 21
21.5326779049
 31
0.0
  0
LINE
  5
151
330
1F
100
AcDbEntity
  8
0
  6
Continuous
 62
     7
370
    30
100
AcDbLine
 10
241.3868106018
 20
33.5046992164
 30
0.0
 11
246.6868109118
 21
33.5046992164
 31
0.0
  0
SPLINE
  5
152
330
1F
100
AcDbEntity
  8
0
  6
Continuous
 62
     7
370
    30
100
AcDbSpline
210
0.0
220
0.0
230
1.0
 70
     8
 71
     3
 72
     9
 73
     5
 74
     0
 42
0.00000001
 43
0.00000001
 12
1.0
 22
0.0
 32
0.0
 13
1.0
 23
0.0
 33
0.0
 40
0.0
 40
0.0
 40
0.0
 40
0.0
 40
0.1460730458813763
 40
1.0
 40
1.0
 40
1.0
 40
1.0
 10
240.6868099282869
 20
31.96620833982126
 30
0.0
 10
240.7305870084827
 20
31.85985979736559
 30
0.0
 10
241.0302800828046
 20
31.13180937701607
 30
0.0
 10
241.1147101263526
 20
30.35167143813844
 30
0.0
 10
241.1868072162756
 20
29.68549062420028
 30
0.0
  0
SPLINE
  5
153
330
1F
100
AcDbEntity
  8
0
  6
Continuous
 62
     7
370
    30
100
AcDbSpline
210
0.0
220
0.0
230
1.0
 70
     8
 71
     3
 72
    10
 73
     6
 74
     0
 42
0.00000001
 43
0.00000001
 12
1.0
 22
0.0
 32
0.0
 13
1.0
 23
0.0
 33
0.0
 40
0.0
 40
0.0
 40
0.0
 40
0.0
 40
0.0115213243952521
 40
0.7376948900663262
 40
1.0
 40
1.0
 40
1.0
 40
1.0
 10
241.1868072162756
 20
29.68549062420028
 30
0.0
 10
241.1867917996451
 20
29.67652975624268
 30
0.0
 10
241.1858046935457
 20
29.10277744478085
 30
0.0
 10
241.0481400114893
 20
28.31971438716728
 30
0.0
 10
240.7625853966713
 20
27.59664765775553
 30
0.0
 10
240.6868099282869
 20
27.40477290857928
 30
0.0
  0
LINE
  5
154
330
1F
100
AcDbEntity
  8
0
  6
Continuous
 62
     7
370
    30
100
AcDbLine
 10
233.486807258
 20
27.4047729086
 30
0.0
 11
240.6868099283
 21
27.4047729086
 31
0.0
  0
SPLINE
  5
155
330
1F
100
AcDbEntity
  8
0
  6
Continuous
 62
     7
370
    30
100
AcDbSpline
210
0.0
220
0.0
230
1.0
 70
     8
 71
     3
 72
     9
 73
     5
 74
     0
 42
0.00000001
 43
0.00000001
 12
1.0
 22
0.0
 32
0.0
 13
1.0
 23
0.0
 33
0.0
 40
0.0
 40
0.0
 40
0.0
 40
0.0
 40
0.8763625500775082
 40
1.0
 40
1.0
 40
1.0
 40
1.0
 10
233.2868075977453
 20
31.43793796111243
 30
0.0
 10
233.3419347876462
 20
31.59334067743645
 30
0.0
 10
233.4048393354226
 20
31.77066764823213
 30
0.0
 10
233.477788063308
 20
31.94469236732869
 30
0.0
 10
233.4868072579989
 20
31.96620833982127
 30
0.0
  0
LINE
  5
156
330
1F
100
AcDbEntity
  8
0
  6
Continuous
 62
     7
370
    30
100
AcDbLine
 10
233.486807258
 20
31.9662083398
 30
0.0
 11
240.6868099283
 21
31.9662083398
 31
0.0
  0
SPLINE
  5
157
330
1F
100
AcDbEntity
  8
0
  6
Continuous
 62
     7
370
    30
100
AcDbSpline
210
0.0
220
0.0
230
1.0
 70
     8
 71
     3
 72
     9
 73
     5
 74
     0
 42
0.00000001
 43
0.00000001
 12
1.0
 22
0.0
 32
0.0
 13
1.0
 23
0.0
 33
0.0
 40
0.0
 40
0.0
 40
0.0
 40
0.0
 40
0.1460734239741167
 40
1.0
 40
1.0
 40
1.0
 40
1.0
 10
240.6868099282869
 20
25.74351695288318
 30
0.0
 10
240.7305870077338
 20
25.64899598729264
 30
0.0
 10
241.030279301211
 20
25.00191753168474
 30
0.0
 10
241.114709783566
 20
24.30854418312645
 30
0.0
 10
241.1868072162756
 20
23.71645425368445
 30
0.0
  0
LINE
  5
158
330
1F
100
AcDbEntity
  8
0
  6
Continuous
 62
     7
370
    30
100
AcDbLine
 10
240.6868099283
 20
25.7435169529
 30
0.0
 11
240.6868099283
 21
27.4047729086
 31
0.0
  0
LINE
  5
159
330
1F
100
AcDbEntity
  8
0
  6
Continuous
 62
     7
370
    30
100
AcDbLine
 10
233.486807258
 20
27.4047729086
 30
0.0
 11
233.486807258
 21
25.7435169529
 31
0.0
  0
LINE
  5
15A
330
1F
100
AcDbEntity
  8
0
  6
Continuous
 62
     7
370
    30
100
AcDbLine
 10
233.486807258
 20
25.7435169529
 30
0.0
 11
240.6868099283
 21
25.7435169529
 31
0.0
  0
SPLINE
  5
15B
330
1F
100
AcDbEntity
  8
0
  6
Continuous
 62
     7
370
    30
100
AcDbSpline
210
0.0
220
0.0
230
1.0
 70
     8
 71
     3
 72
    10
 73
     6
 74
     0
 42
0.00000001
 43
0.00000001
 12
1.0
 22
0.0
 32
0.0
 13
1.0
 23
0.0
 33
0.0
 40
0.0
 40
0.0
 40
0.0
 40
0.0
 40
0.0115211017614662
 40
0.7376947775353305
 40
1.0
 40
1.0
 40
1.0
 40
1.0
 10
241.1868072162756
 20
23.71645425368445
 30
0.0
 10
241.1867917993286
 20
23.70849048968493
 30
0.0
 10
241.1858046540427
 20
23.19857162657592
 30
0.0
 10
241.0481399468161
 20
22.50257406106948
 30
0.0
 10
240.7625853953117
 20
21.85992619332804
 30
0.0
 10
240.6868099282869
 20
21.68939155448573
 30
0.0
  0
LINE
  5
15C
330
1F
100
AcDbEntity
  8
0
  6
Continuous
 62
     7
370
    30
100
AcDbLine
 10
233.486807258
 20
21.6893915545
 30
0.0
 11
240.6868099283
 21
21.6893915545
 31
0.0
  0
LINE
  5
15D
330
1F
100
AcDbEntity
  8
0
  6
Continuous
 62
     7
370
    30
100
AcDbLine
 10
240.6868099283
 20
31.9662083398
 30
0.0
 11
240.6868099283
 21
32.9435661893
 31
0.0
  0
SPLINE
  5
15E
330
1F
100
AcDbEntity
  8
0
  6
Continuous
 62
     7
370
    30
100
AcDbSpline
210
0.0
220
0.0
230
1.0
 70
     8
 71
     3
 72
     9
 73
     5
 74
     0
 42
0.00000001
 43
0.00000001
 12
1.0
 22
0.0
 32
0.0
 13
1.0
 23
0.0
 33
0.0
 40
0.0
 40
0.0
 40
0.0
 40
0.0
 40
0.9680504445248332
 40
1.0
 40
1.0
 40
1.0
 40
1.0
 10
240.6868099282869
 20
32.94356618929999
 30
0.0
 10
240.9311781214559
 20
33.02452389009005
 30
0.0
 10
241.1836114471684
 20
33.10815352039283
 30
0.0
 10
241.1867082740339
 20
33.19446544087577
 30
0.0
 10
241.1868072162756
 20
33.19722306836741
 30
0.0
  0
LINE
  5
15F
330
1F
100
AcDbEntity
  8
0
  6
Continuous
 62
     7
370
    30
100
AcDbLine
 10
233.486807258
 20
32.9435661893
 30
0.0
 11
233.486807258
 21
31.9662083398
 31
0.0
  0
SPLINE
  5
160
330
1F
100
AcDbEntity
  8
0
  6
Continuous
 62
     7
370
    30
100
AcDbSpline
210
0.0
220
0.0
230
1.0
 70
     8
 71
     3
 72
     9
 73
     5
 74
     0
 42
0.00000001
 43
0.00000001
 12
1.0
 22
0.0
 32
0.0
 13
1.0
 23
0.0
 33
0.0
 40
0.0
 40
0.0
 40
0.0
 40
0.0
 40
0.8977124262278631
 40
1.0
 40
1.0
 40
1.0
 40
1.0
 10
233.4868072579989
 20
32.94356618929999
 30
0.0
 10
233.4234705026271
 20
32.96103185204338
 30
0.0
 10
233.3529170007245
 20
32.98048759559011
 30
0.0
 10
233.2929422676764
 20
33.00029368809405
 30
0.0
 10
233.2868075977453
 20
33.00231960524218
 30
0.0
  0
LINE
  5
161
330
1F
100
AcDbEntity
  8
0
  6
Continuous
 62
     7
370
    30
100
AcDbLine
 10
240.6868099283
 20
21.0054953109
 30
0.0
 11
240.6868099283
 21
21.6893915545
 31
0.0
  0
SPLINE
  5
162
330
1F
100
AcDbEntity
  8
0
  6
Continuous
 62
     7
370
    30
100
AcDbSpline
210
0.0
220
0.0
230
1.0
 70
     8
 71
     3
 72
     9
 73
     5
 74
     0
 42
0.00000001
 43
0.00000001
 12
1.0
 22
0.0
 32
0.0
 13
1.0
 23
0.0
 33
0.0
 40
0.0
 40
0.0
 40
0.0
 40
0.0
 40
0.1460730064521807
 40
1.0
 40
1.0
 40
1.0
 40
1.0
 10
240.6868099282869
 20
21.0054953109135
 30
0.0
 10
240.7305870085608
 20
21.01732286522813
 30
0.0
 10
241.0302801643129
 20
21.09829302256175
 30
0.0
 10
241.1147101621
 20
21.18505873951491
 30
0.0
 10
241.1868072162756
 20
21.25915032733577
 30
0.0
  0
LINE
  5
163
330
1F
100
AcDbEntity
  8
0
  6
Continuous
 62
     7
370
    30
100
AcDbLine
 10
233.486807258
 20
32.9435661893
 30
0.0
 11
240.6868099283
 21
32.9435661893
 31
0.0
  0
LINE
  5
164
330
1F
100
AcDbEntity
  8
0
  6
Continuous
 62
     7
370
    30
100
AcDbLine
 10
233.486807258
 20
21.6893915545
 30
0.0
 11
233.486807258
 21
21.0054953109
 31
0.0
  0
LINE
  5
165
330
1F
100
AcDbEntity
  8
0
  6
Continuous
 62
     7
370
    30
100
AcDbLine
 10
233.486807258
 20
21.0054953109
 30
0.0
 11
240.6868099283
 21
21.0054953109
 31
0.0
  0
SPLINE
  5
166
330
1F
100
AcDbEntity
  8
0
  6
Continuous
 62
     7
370
    30
100
AcDbSpline
210
0.0
220
0.0
230
1.0
 70
     8
 71
     3
 72
     9
 73
     5
 74
     0
 42
0.00000001
 43
0.00000001
 12
1.0
 22
0.0
 32
0.0
 13
1.0
 23
0.0
 33
0.0
 40
0.0
 40
0.0
 40
0.0
 40
0.0
 40
0.1460729542501259
 40
1.0
 40
1.0
 40
1.0
 40
1.0
 10
240.6868099282869
 20
33.45087808478969
 30
0.0
 10
240.7305870086642
 20
33.43905053008029
 30
0.0
 10
241.0302802722253
 20
33.35808034110788
 30
0.0
 10
241.1147102094276
 20
33.27131464387657
 30
0.0
 10
241.1868072162756
 20
33.19722306836741
 30
0.0
  0
SPLINE
  5
167
330
1F
100
AcDbEntity
  8
0
  6
Continuous
 62
     7
370
    30
100
AcDbSpline
210
0.0
220
0.0
230
1.0
 70
     8
 71
     3
 72
     9
 73
     5
 74
     0
 42
0.00000001
 43
0.00000001
 12
1.0
 22
0.0
 32
0.0
 13
1.0
 23
0.0
 33
0.0
 40
0.0
 40
0.0
 40
0.0
 40
0.0
 40
0.8763614848562475
 40
1.0
 40
1.0
 40
1.0
 40
1.0
 10
233.2868075977453
 20
33.39212653149264
 30
0.0
 10
233.3419350646045
 20
33.40940983369413
 30
0.0
 10
233.4048400048738
 20
33.42913149250748
 30
0.0
 10
233.4777880678143
 20
33.44848521880746
 30
0.0
 10
233.4868072579989
 20
33.45087808478968
 30
0.0
  0
LINE
  5
168
330
1F
100
AcDbEntity
  8
0
  6
Continuous
 62
     7
370
    30
100
AcDbLine
 10
233.486807258
 20
33.4508780848
 30
0.0
 11
240.6868099283
 21
33.4508780848
 31
0.0
  0
SPLINE
  5
169
330
1F
100
AcDbEntity
  8
0
  6
Continuous
 62
     7
370
    30
100
AcDbSpline
210
0.0
220
0.0
230
1.0
 70
     8
 71
     3
 72
     9
 73
     5
 74
     0
 42
0.00000001
 43
0.00000001
 12
1.0
 22
0.0
 32
0.0
 13
1.0
 23
0.0
 33
0.0
 40
0.0
 40
0.0
 40
0.0
 40
0.0
 40
0.2594827786364385
 40
1.0
 40
1.0
 40
1.0
 40
1.0
 10
246.6868109117636
 20
76.27769824970859
 30
0.0
 10
246.7643358361057
 20
76.0548660154176
 30
0.0
 10
247.0631029633483
 20
75.19611062724906
 30
0.0
 10
247.1341789401762
 20
74.29233046828784
 30
0.0
 10
247.1868119250425
 20
73.62306569625038
 30
0.0
  0
LINE
  5
16A
330
1F
100
AcDbEntity
  8
0
  6
Continuous
 62
     7
370
    30
100
AcDbLine
 10
246.6868109118
 20
76.2776982497
 30
0.0
 11
246.6868109118
 21
79.2765234124
 31
0.0
  0
SPLINE
  5
16B
330
1F
100
AcDbEntity
  8
0
  6
Continuous
 62
     7
370
    30
100
AcDbSpline
210
0.0
220
0.0
230
1.0
 70
     8
 71
     3
 72
     9
 73
     5
 74
     0
 42
0.00000001
 43
0.00000001
 12
1.0
 22
0.0
 32
0.0
 13
1.0
 23
0.0
 33
0.0
 40
0.0
 40
0.0
 40
0.0
 40
0.0
 40
0.0566470080771941
 40
1.0
 40
1.0
 40
1.0
 40
1.0
 10
247.1868119250425
 20
81.55367788780826
 30
0.0
 10
247.1865070285964
 20
81.50998096962648
 30
0.0
 10
247.1811246358364
 20
80.73859127641931
 30
0.0
 10
246.9267633715024
 20
79.98624835666239
 30
0.0
 10
246.6868109117636
 20
79.27652341235775
 30
0.0
  0
LINE
  5
16C
330
1F
100
AcDbEntity
  8
0
  6
Continuous
 62
     7
370
    30
100
AcDbLine
 10
247.186811925
 20
81.5536778878
 30
0.0
 11
247.186811925
 21
73.6230656963
 31
0.0
  0
LINE
  5
16D
330
1F
100
AcDbEntity
  8
0
  6
Continuous
 62
     7
370
    30
100
AcDbLine
 10
241.3868106018
 20
79.2765234124
 30
0.0
 11
241.3868106018
 21
76.2776982497
 31
0.0
  0
LINE
  5
16E
330
1F
100
AcDbEntity
  8
0
  6
Continuous
 62
     7
370
    30
100
AcDbLine
 10
241.1868072163
 20
75.6668344598
 30
0.0
 11
241.3868106018
 21
76.2776982497
 31
0.0
  0
SPLINE
  5
16F
330
1F
100
AcDbEntity
  8
0
  6
Continuous
 62
     7
370
    30
100
AcDbSpline
210
0.0
220
0.0
230
1.0
 70
     8
 71
     3
 72
     9
 73
     5
 74
     0
 42
0.00000001
 43
0.00000001
 12
1.0
 22
0.0
 32
0.0
 13
1.0
 23
0.0
 33
0.0
 40
0.0
 40
0.0
 40
0.0
 40
0.0
 40
0.4876052159842971
 40
1.0
 40
1.0
 40
1.0
 40
1.0
 10
241.3868106018194
 20
79.27652341235775
 30
0.0
 10
241.3516449301901
 20
79.3610536994034
 30
0.0
 10
241.2795257844619
 20
79.53441174454865
 30
0.0
 10
241.2182199870827
 20
79.71036637402
 30
0.0
 10
241.1868072162756
 20
79.80052460838455
 30
0.0
  0
LINE
  5
170
330
1F
100
AcDbEntity
  8
0
  6
Continuous
 62
     7
370
    30
100
AcDbLine
 10
241.1868072163
 20
75.6668344598
 30
0.0
 11
241.1868072163
 21
79.8005246084
 31
0.0
  0
LINE
  5
171
330
1F
100
AcDbEntity
  8
0
  6
Continuous
 62
     7
370
    30
100
AcDbLine
 10
241.3868106018
 20
76.2776982497
 30
0.0
 11
246.6868109118
 21
76.2776982497
 31
0.0
  0
LINE
  5
172
330
1F
100
AcDbEntity
  8
0
  6
Continuous
 62
     7
370
    30
100
AcDbLine
 10
241.3868106018
 20
79.2765234124
 30
0.0
 11
246.6868109118
 21
79.2765234124
 31
0.0
  0
LINE
  5
173
330
1F
100
AcDbEntity
  8
0
  6
Continuous
 62
     7
370
    30
100
AcDbLine
 10
246.6868109118
 20
83.8308323633
 30
0.0
 11
247.186811925
 21
81.5536778878
 31
0.0
  0
LINE
  5
174
330
1F
100
AcDbEntity
  8
0
  6
Continuous
 62
     7
370
    30
100
AcDbLine
 10
241.1868072163
 20
83.3068330299
 30
0.0
 11
241.3868106018
 21
83.8308323633
 31
0.0
  0
LINE
  5
175
330
1F
100
AcDbEntity
  8
0
  6
Continuous
 62
     7
370
    30
100
AcDbLine
 10
241.3868106018
 20
83.8308323633
 30
0.0
 11
246.6868109118
 21
83.8308323633
 31
0.0
  0
LINE
  5
176
330
1F
100
AcDbEntity
  8
0
  6
Continuous
 62
     7
370
    30
100
AcDbLine
 10
241.1868072163
 20
79.8005246084
 30
0.0
 11
241.1868072163
 21
83.3068330299
 31
0.0
  0
SPLINE
  5
177
330
1F
100
AcDbEntity
  8
0
  6
Continuous
 62
     7
370
    30
100
AcDbSpline
210
0.0
220
0.0
230
1.0
 70
     8
 71
     3
 72
     9
 73
     5
 74
     0
 42
0.00000001
 43
0.00000001
 12
1.0
 22
0.0
 32
0.0
 13
1.0
 23
0.0
 33
0.0
 40
0.0
 40
0.0
 40
0.0
 40
0.0
 40
0.0988235237971289
 40
0.9999999999999999
 40
0.9999999999999999
 40
0.9999999999999999
 40
0.9999999999999999
 10
247.1868119250425
 20
73.62306569625038
 30
0.0
 10
247.1858864637027
 20
73.53412496203154
 30
0.0
 10
247.1765216758029
 20
72.63412938606508
 30
0.0
 10
246.9189386633004
 20
71.757989656733
 30
0.0
 10
246.6868109117636
 20
70.96843314279216
 30
0.0
  0
LINE
  5
178
330
1F
100
AcDbEntity
  8
0
  6
Continuous
 62
     7
370
    30
100
AcDbLine
 10
241.3868106018
 20
70.9684331428
 30
0.0
 11
246.6868109118
 21
70.9684331428
 31
0.0
  0
SPLINE
  5
179
330
1F
100
AcDbEntity
  8
0
  6
Continuous
 62
     7
370
    30
100
AcDbSpline
210
0.0
220
0.0
230
1.0
 70
     8
 71
     3
 72
     9
 73
     5
 74
     0
 42
0.00000001
 43
0.00000001
 12
1.0
 22
0.0
 32
0.0
 13
1.0
 23
0.0
 33
0.0
 40
0.0
 40
0.0
 40
0.0
 40
0.0
 40
0.7386099496209336
 40
0.9999999999999999
 40
0.9999999999999999
 40
0.9999999999999999
 40
0.9999999999999999
 10
241.3868106018194
 20
70.96843314279216
 30
0.0
 10
241.3341669052174
 20
71.117904919937
 30
0.0
 10
241.2628928902532
 20
71.32027394735337
 30
0.0
 10
241.2025739794177
 20
71.52561972650537
 30
0.0
 10
241.1868072162756
 20
71.57929507006305
 30
0.0
  0
LINE
  5
17A
330
1F
100
AcDbEntity
  8
0
  6
Continuous
 62
     7
370
    30
100
AcDbLine
 10
241.1868072163
 20
71.5792950701
 30
0.0
 11
241.1868072163
 21
75.6668344598
 31
0.0
  0
LINE
  5
17B
330
1F
100
AcDbEntity
  8
0
  6
Continuous
 62
     7
370
    30
100
AcDbLine
 10
246.6868109118
 20
69.1247255068
 30
0.0
 11
247.186811925
 21
68.7472474288
 31
0.0
  0
LINE
  5
17C
330
1F
100
AcDbEntity
  8
0
  6
Continuous
 62
     7
370
    30
100
AcDbLine
 10
246.6868109118
 20
69.1247255068
 30
0.0
 11
246.6868109118
 21
70.9684331428
 31
0.0
  0
LINE
  5
17D
330
1F
100
AcDbEntity
  8
0
  6
Continuous
 62
     7
370
    30
100
AcDbLine
 10
247.186811925
 20
73.6230656963
 30
0.0
 11
247.186811925
 21
68.7472474288
 31
0.0
  0
LINE
  5
17E
330
1F
100
AcDbEntity
  8
0
  6
Continuous
 62
     7
370
    30
100
AcDbLine
 10
246.6868109118
 20
83.8308323633
 30
0.0
 11
246.6868109118
 21
84.9859517526
 31
0.0
  0
LINE
  5
17F
330
1F
100
AcDbEntity
  8
0
  6
Continuous
 62
     7
370
    30
100
AcDbLine
 10
247.0207757364
 20
84.747514547
 30
0.0
 11
246.6868109118
 21
84.9859517526
 31
0.0
  0
LINE
  5
180
330
1F
100
AcDbEntity
  8
0
  6
Continuous
 62
     7
370
    30
100
AcDbLine
 10
247.186811925
 20
84.677859069
 30
0.0
 11
247.186811925
 21
81.5536778878
 31
0.0
  0
LINE
  5
181
330
1F
100
AcDbEntity
  8
0
  6
Continuous
 62
     7
370
    30
100
AcDbLine
 10
241.3868106018
 20
70.9684331428
 30
0.0
 11
241.3868106018
 21
69.1247255068
 31
0.0
  0
LINE
  5
182
330
1F
100
AcDbEntity
  8
0
  6
Continuous
 62
     7
370
    30
100
AcDbLine
 10
241.1868072163
 20
69.0378629129
 30
0.0
 11
241.3868106018
 21
69.1247255068
 31
0.0
  0
LINE
  5
183
330
1F
100
AcDbEntity
  8
0
  6
Continuous
 62
     7
370
    30
100
AcDbLine
 10
241.1868072163
 20
69.0378629129
 30
0.0
 11
241.1868072163
 21
71.5792950701
 31
0.0
  0
LINE
  5
184
330
1F
100
AcDbEntity
  8
0
  6
Continuous
 62
     7
370
    30
100
AcDbLine
 10
241.3868106018
 20
69.1247255068
 30
0.0
 11
246.6868109118
 21
69.1247255068
 31
0.0
  0
LINE
  5
185
330
1F
100
AcDbEntity
  8
0
  6
Continuous
 62
     7
370
    30
100
AcDbLine
 10
241.3868106018
 20
84.9859517526
 30
0.0
 11
241.3868106018
 21
83.8308323633
 31
0.0
  0
SPLINE
  5
186
330
1F
100
AcDbEntity
  8
0
  6
Continuous
 62
     7
370
    30
100
AcDbSpline
210
0.0
220
0.0
230
1.0
 70
     8
 71
     3
 72
     9
 73
     5
 74
     0
 42
0.00000001
 43
0.00000001
 12
1.0
 22
0.0
 32
0.0
 13
1.0
 23
0.0
 33
0.0
 40
0.0
 40
0.0
 40
0.0
 40
0.0
 40
0.4876046900780682
 40
1.0
 40
1.0
 40
1.0
 40
1.0
 10
241.3868106018194
 20
84.98595175255436
 30
0.0
 10
241.3516449153116
 20
84.97193888536752
 30
0.0
 10
241.279525661286
 20
84.94320071391027
 30
0.0
 10
241.2182199666689
 20
84.91403403046729
 30
0.0
 10
241.1868072162756
 20
84.89908915866512
 30
0.0
  0
LINE
  5
187
330
1F
100
AcDbEntity
  8
0
  6
Continuous
 62
     7
370
    30
100
AcDbLine
 10
241.1868072163
 20
83.3068330299
 30
0.0
 11
241.1868072163
 21
84.8990891587
 31
0.0
  0
LINE
  5
188
330
1F
100
AcDbEntity
  8
0
  6
Continuous
 62
     7
370
    30
100
AcDbLine
 10
241.3868106018
 20
84.9859517526
 30
0.0
 11
246.6868109118
 21
84.9859517526
 31
0.0
  0
SPLINE
  5
189
330
1F
100
AcDbEntity
  8
0
  6
Continuous
 62
     7
370
    30
100
AcDbSpline
210
0.0
220
0.0
230
1.0
 70
     8
 71
     3
 72
     9
 73
     5
 74
     0
 42
0.00000001
 43
0.00000001
 12
1.0
 22
0.0
 32
0.0
 13
1.0
 23
0.0
 33
0.0
 40
0.0
 40
0.0
 40
0.0
 40
0.0
 40
0.0566472672925915
 40
1.0
 40
1.0
 40
1.0
 40
1.0
 10
247.1868119250425
 20
68.74724742878574
 30
0.0
 10
247.1865070311854
 20
68.74000395230902
 30
0.0
 10
247.1811247087583
 20
68.61213412163738
 30
0.0
 10
246.9267633729723
 20
68.48741936101763
 30
0.0
 10
246.6868109117636
 20
68.36976935077804
 30
0.0
  0
LINE
  5
18A
330
1F
100
AcDbEntity
  8
0
  6
Continuous
 62
     7
370
    30
100
AcDbLine
 10
241.3868106018
 20
68.3697693508
 30
0.0
 11
246.6868109118
 21
68.3697693508
 31
0.0
  0
SPLINE
  5
18B
330
1F
100
AcDbEntity
  8
0
  6
Continuous
 62
     7
370
    30
100
AcDbSpline
210
0.0
220
0.0
230
1.0
 70
     8
 71
     3
 72
     9
 73
     5
 74
     0
 42
0.00000001
 43
0.00000001
 12
1.0
 22
0.0
 32
0.0
 13
1.0
 23
0.0
 33
0.0
 40
0.0
 40
0.0
 40
0.0
 40
0.0
 40
0.4876045171531453
 40
1.0
 40
1.0
 40
1.0
 40
1.0
 10
241.3868106018194
 20
68.36976935077804
 30
0.0
 10
241.3516449104194
 20
68.38378144811661
 30
0.0
 10
241.2795256207841
 20
68.41251805092821
 30
0.0
 10
241.2182199599566
 20
68.44168504566882
 30
0.0
 10
241.1868072162756
 20
68.45663008202213
 30
0.0
  0
LINE
  5
18C
330
1F
100
AcDbEntity
  8
0
  6
Continuous
 62
     7
370
    30
100
AcDbLine
 10
241.1868072163
 20
68.456630082
 30
0.0
 11
241.1868072163
 21
69.0378629129
 31
0.0
  0
LINE
  5
18D
330
1F
100
AcDbEntity
  8
0
  6
Continuous
 62
     7
370
    30
100
AcDbLine
 10
247.186811925
 20
68.7472474288
 30
0.0
 11
247.186811925
 21
68.6778601717
 31
0.0
  0
LINE
  5
18E
330
1F
100
AcDbEntity
  8
0
  6
Continuous
 62
     7
370
    30
100
AcDbLine
 10
240.6868099283
 20
77.2483133237
 30
0.0
 11
241.1868072163
 21
74.4859453749
 31
0.0
  0
LINE
  5
18F
330
1F
100
AcDbEntity
  8
0
  6
Continuous
 62
     7
370
    30
100
AcDbLine
 10
240.6868099283
 20
77.2483133237
 30
0.0
 11
240.6868099283
 21
80.1822588306
 31
0.0
  0
SPLINE
  5
190
330
1F
100
AcDbEntity
  8
0
  6
Continuous
 62
     7
370
    30
100
AcDbSpline
210
0.0
220
0.0
230
1.0
 70
     8
 71
     3
 72
     9
 73
     5
 74
     0
 42
0.00000001
 43
0.00000001
 12
1.0
 22
0.0
 32
0.0
 13
1.0
 23
0.0
 33
0.0
 40
0.0
 40
0.0
 40
0.0
 40
0.0
 40
0.098823729794167
 40
0.9999999999999999
 40
0.9999999999999999
 40
0.9999999999999999
 40
0.9999999999999999
 10
241.1868072162756
 20
82.24498373378414
 30
0.0
 10
241.1858830618086
 20
82.17587388041433
 30
0.0
 10
241.1765315177112
 20
81.47654940122557
 30
0.0
 10
240.918942783253
 20
80.7957653040586
 30
0.0
 10
240.6868099282869
 20
80.18225883055824
 30
0.0
  0
SPLINE
  5
191
330
1F
100
AcDbEntity
  8
0
  6
Continuous
 62
     7
370
    30
100
AcDbSpline
210
0.0
220
0.0
230
1.0
 70
     8
 71
     3
 72
     9
 73
     5
 74
     0
 42
0.00000001
 43
0.00000001
 12
1.0
 22
0.0
 32
0.0
 13
1.0
 23
0.0
 33
0.0
 40
0.0
 40
0.0
 40
0.0
 40
0.0
 40
0.0566474430044594
 40
0.9999999999999999
 40
0.9999999999999999
 40
0.9999999999999999
 40
0.9999999999999999
 10
241.1868072162756
 20
74.48594537485737
 30
0.0
 10
241.186504880155
 20
74.43293709539769
 30
0.0
 10
241.1811677262678
 20
73.49717942217862
 30
0.0
 10
240.9267837256904
 20
72.58452971938468
 30
0.0
 10
240.6868099282869
 20
71.72357928861278
 30
0.0
  0
LINE
  5
192
330
1F
100
AcDbEntity
  8
0
  6
Continuous
 62
     7
370
    30
100
AcDbLine
 10
233.486807258
 20
71.7235792886
 30
0.0
 11
240.6868099283
 21
71.7235792886
 31
0.0
  0
LINE
  5
193
330
1F
100
AcDbEntity
  8
0
  6
Continuous
 62
     7
370
    30
100
AcDbLine
 10
233.486807258
 20
77.2483133237
 30
0.0
 11
240.6868099283
 21
77.2483133237
 31
0.0
  0
LINE
  5
194
330
1F
100
AcDbEntity
  8
0
  6
Continuous
 62
     7
370
    30
100
AcDbLine
 10
233.486807258
 20
80.1822588306
 30
0.0
 11
233.486807258
 21
77.2483133237
 31
0.0
  0
LINE
  5
195
330
1F
100
AcDbEntity
  8
0
  6
Continuous
 62
     7
370
    30
100
AcDbLine
 10
233.486807258
 20
80.1822588306
 30
0.0
 11
240.6868099283
 21
80.1822588306
 31
0.0
  0
LINE
  5
196
330
1F
100
AcDbEntity
  8
0
  6
Continuous
 62
     7
370
    30
100
AcDbLine
 10
240.6868099283
 20
69.6184661697
 30
0.0
 11
241.1868072163
 21
68.9188231241
 31
0.0
  0
LINE
  5
197
330
1F
100
AcDbEntity
  8
0
  6
Continuous
 62
     7
370
    30
100
AcDbLine
 10
240.6868099283
 20
69.6184661697
 30
0.0
 11
240.6868099283
 21
71.7235792886
 31
0.0
  0
SPLINE
  5
198
330
1F
100
AcDbEntity
  8
0
  6
Continuous
 62
     7
370
    30
100
AcDbSpline
210
0.0
220
0.0
230
1.0
 70
     8
 71
     3
 72
     9
 73
     5
 74
     0
 42
0.00000001
 43
0.00000001
 12
1.0
 22
0.0
 32
0.0
 13
1.0
 23
0.0
 33
0.0
 40
0.0
 40
0.0
 40
0.0
 40
0.0
 40
0.2594832362216398
 40
0.9999999999999999
 40
0.9999999999999999
 40
0.9999999999999999
 40
0.9999999999999999
 10
240.6868099282869
 20
84.30770677436489
 30
0.0
 10
240.7643349078904
 20
84.13455938154921
 30
0.0
 10
241.0631017212396
 20
83.46728162080872
 30
0.0
 10
241.1341757250127
 20
82.76502013590857
 30
0.0
 10
241.1868072162756
 20
82.24498373378414
 30
0.0
  0
LINE
  5
199
330
1F
100
AcDbEntity
  8
0
  6
Continuous
 62
     7
370
    30
100
AcDbLine
 10
233.2868075977
 20
83.833048911
 30
0.0
 11
233.486807258
 21
84.3077067744
 31
0.0
  0
LINE
  5
19A
330
1F
100
AcDbEntity
  8
0
  6
Continuous
 62
     7
370
    30
100
AcDbLine
 10
233.486807258
 20
84.3077067744
 30
0.0
 11
240.6868099283
 21
84.3077067744
 31
0.0
  0
LINE
  5
19B
330
1F
100
AcDbEntity
  8
0
  6
Continuous
 62
     7
370
    30
100
AcDbLine
 10
233.486807258
 20
71.7235792886
 30
0.0
 11
233.486807258
 21
69.6184661697
 31
0.0
  0
LINE
  5
19C
330
1F
100
AcDbEntity
  8
0
  6
Continuous
 62
     7
370
    30
100
AcDbLine
 10
233.2868075977
 20
69.4574702989
 30
0.0
 11
233.486807258
 21
69.6184661697
 31
0.0
  0
LINE
  5
19D
330
1F
100
AcDbEntity
  8
0
  6
Continuous
 62
     7
370
    30
100
AcDbLine
 10
233.486807258
 20
69.6184661697
 30
0.0
 11
240.6868099283
 21
69.6184661697
 31
0.0
  0
LINE
  5
19E
330
1F
100
AcDbEntity
  8
0
  6
Continuous
 62
     7
370
    30
100
AcDbLine
 10
240.6868099283
 20
84.3077067744
 30
0.0
 11
240.6868099283
 21
85.1365391623
 31
0.0
  0
LINE
  5
19F
330
1F
100
AcDbEntity
  8
0
  6
Continuous
 62
     7
370
    30
100
AcDbLine
 10
240.8451422166
 20
84.92701766
 30
0.0
 11
240.6868099283
 21
85.1365391623
 31
0.0
  0
SPLINE
  5
1A0
330
1F
100
AcDbEntity
  8
0
  6
Continuous
 62
     7
370
    30
100
AcDbSpline
210
0.0
220
0.0
230
1.0
 70
     8
 71
     3
 72
     9
 73
     5
 74
     0
 42
0.00000001
 43
0.00000001
 12
1.0
 22
0.0
 32
0.0
 13
1.0
 23
0.0
 33
0.0
 40
0.0
 40
0.0
 40
0.0
 40
0.0
 40
0.0808962347353881
 40
1.0
 40
1.0
 40
1.0
 40
1.0
 10
241.1868072162756
 20
68.918823124062
 30
0.0
 10
241.1866189136753
 20
68.90539443500803
 30
0.0
 10
241.1842912083013
 20
68.73939549701191
 30
0.0
 10
241.0075686162833
 20
68.57750017796722
 30
0.0
 10
240.8451422165522
 20
68.42870158065456
 30
0.0
  0
LINE
  5
1A1
330
1F
100
AcDbEntity
  8
0
  6
Continuous
 62
     7
370
    30
100
AcDbLine
 10
233.486807258
 20
68.2191782158
 30
0.0
 11
240.6868099283
 21
68.2191782158
 31
0.0
  0
SPLINE
  5
1A2
330
1F
100
AcDbEntity
  8
0
  6
Continuous
 62
     7
370
    30
100
AcDbSpline
210
0.0
220
0.0
230
1.0
 70
     8
 71
     3
 72
     9
 73
     5
 74
     0
 42
0.00000001
 43
0.00000001
 12
1.0
 22
0.0
 32
0.0
 13
1.0
 23
0.0
 33
0.0
 40
0.0
 40
0.0
 40
0.0
 40
0.0
 40
0.4876037111073051
 40
1.0
 40
1.0
 40
1.0
 40
1.0
 10
233.4868072579989
 20
68.21917821575302
 30
0.0
 10
233.4516430883027
 20
68.24514980009606
 30
0.0
 10
233.3795268002288
 20
68.2984135135409
 30
0.0
 10
233.3182206444518
 20
68.3524750292206
 30
0.0
 10
233.2868075977453
 20
68.3801759492268
 30
0.0
  0
LINE
  5
1A3
330
1F
100
AcDbEntity
  8
0
  6
Continuous
 62
     7
370
    30
100
AcDbLine
 10
233.486807258
 20
85.1365391623
 30
0.0
 11
233.486807258
 21
84.3077067744
 31
0.0
  0
SPLINE
  5
1A4
330
1F
100
AcDbEntity
  8
0
  6
Continuous
 62
     7
370
    30
100
AcDbSpline
210
0.0
220
0.0
230
1.0
 70
     8
 71
     3
 72
     9
 73
     5
 74
     0
 42
0.00000001
 43
0.00000001
 12
1.0
 22
0.0
 32
0.0
 13
1.0
 23
0.0
 33
0.0
 40
0.0
 40
0.0
 40
0.0
 40
0.0
 40
0.4876027620482163
 40
1.0
 40
1.0
 40
1.0
 40
1.0
 10
233.4868072579989
 20
85.13653916228908
 30
0.0
 10
233.4516430614526
 20
85.1105692420262
 30
0.0
 10
233.3795265779477
 20
85.0573088376885
 30
0.0
 10
233.3182206076142
 20
85.00324529923695
 30
0.0
 10
233.2868075977453
 20
84.97554329146045
 30
0.0
  0
LINE
  5
1A5
330
1F
100
AcDbEntity
  8
0
  6
Continuous
 62
     7
370
    30
100
AcDbLine
 10
233.2868075977
 20
84.5855948042
 30
0.0
 11
233.2868075977
 21
84.9755432915
 31
0.0
  0
LINE
  5
1A6
330
1F
100
AcDbEntity
  8
0
  6
Continuous
 62
     7
370
    30
100
AcDbLine
 10
233.486807258
 20
85.1365391623
 30
0.0
 11
240.6868099283
 21
85.1365391623
 31
0.0
  0
LINE
  5
1A7
330
1F
100
AcDbEntity
  8
0
  6
Continuous
 62
     7
370
    30
100
AcDbLine
 10
218.286810727
 20
85.1778600823
 30
0.0
 11
218.286810727
 21
69.7737772476
 31
0.0
  0
LINE
  5
1A8
330
1F
100
AcDbEntity
  8
0
  6
Continuous
 62
     7
370
    30
100
AcDbLine
 10
218.286810727
 20
69.7737772476
 30
0.0
 11
232.7868103098
 21
69.7737772476
 31
0.0
  0
LINE
  5
1A9
330
1F
100
AcDbEntity
  8
0
  6
Continuous
 62
     7
370
    30
100
AcDbLine
 10
233.2868075977
 20
69.6200829457
 30
0.0
 11
233.2868075977
 21
30.7356369208
 31
0.0
  0
LINE
  5
1AA
330
1F
100
AcDbEntity
  8
0
  6
Continuous
 62
     7
370
    30
100
AcDbLine
 10
233.2868075977
 20
30.7356369208
 30
0.0
 11
232.7868103098
 21
30.581942619
 31
0.0
  0
LINE
  5
1AB
330
1F
100
AcDbEntity
  8
0
  6
Continuous
 62
     7
370
    30
100
AcDbLine
 10
233.2868075977
 20
69.6200829457
 30
0.0
 11
232.7868103098
 21
69.7737772476
 31
0.0
  0
LINE
  5
1AC
330
1F
100
AcDbEntity
  8
0
  6
Continuous
 62
     7
370
    30
100
AcDbLine
 10
218.286810727
 20
30.581942619
 30
0.0
 11
232.7868103098
 21
30.581942619
 31
0.0
  0
LINE
  5
1AD
330
1F
100
AcDbEntity
  8
0
  6
Continuous
 62
     7
370
    30
100
AcDbLine
 10
218.286810727
 20
30.581942619
 30
0.0
 11
218.286810727
 21
69.7737772476
 31
0.0
  0
LINE
  5
1AE
330
1F
100
AcDbEntity
  8
0
  6
Continuous
 62
     7
370
    30
100
AcDbLine
 10
233.2868075977
 20
84.5855948042
 30
0.0
 11
233.2868075977
 21
69.6200829457
 31
0.0
  0
LINE
  5
1AF
330
1F
100
AcDbEntity
  8
0
  6
Continuous
 62
     7
370
    30
100
AcDbLine
 10
218.286810727
 20
30.581942619
 30
0.0
 11
218.286810727
 21
15.1778597843
 31
0.0
  0
LINE
  5
1B0
330
1F
100
AcDbEntity
  8
0
  6
Continuous
 62
     7
370
    30
100
AcDbLine
 10
233.2868075977
 20
30.7356369208
 30
0.0
 11
233.2868075977
 21
15.6778607975
 31
0.0
  0
SPLINE
  5
1B1
330
1F
100
AcDbEntity
  8
0
  6
Continuous
 62
     7
370
    30
100
AcDbSpline
210
0.0
220
0.0
230
1.0
 70
     8
 71
     3
 72
    10
 73
     6
 74
     0
 42
0.00000001
 43
0.00000001
 12
1.0
 22
0.0
 32
0.0
 13
1.0
 23
0.0
 33
0.0
 40
0.0
 40
0.0
 40
0.0
 40
0.0
 40
0.4185764884578406
 40
0.8377350712919895
 40
1.0
 40
1.0
 40
1.0
 40
1.0
 10
246.0946983705649
 20
34.67786018658774
 30
0.0
 10
246.4892157127107
 20
34.57146339026776
 30
0.0
 10
247.2787990334704
 20
34.35852183667323
 30
0.0
 10
247.7946594691937
 20
34.17466633089379
 30
0.0
 10
247.7330378850509
 20
34.19610961212911
 30
0.0
 10
247.7158404003271
 20
34.20209404934543
 30
0.0
  0
LINE
  5
1B2
330
1F
100
AcDbEntity
  8
0
  6
Continuous
 62
     7
370
    30
100
AcDbLine
 10
238.4789235006
 20
34.6778601866
 30
0.0
 11
241.7868099223
 21
34.6778601866
 31
0.0
  0
LINE
  5
1B3
330
1F
100
AcDbEntity
  8
0
  6
Continuous
 62
     7
370
    30
100
AcDbLine
 10
244.61432016
 20
34.6778601866
 30
0.0
 11
246.0946983706
 21
34.6778601866
 31
0.0
  0
SPLINE
  5
1B4
330
1F
100
AcDbEntity
  8
0
  6
Continuous
 62
     7
370
    30
100
AcDbSpline
210
0.0
220
0.0
230
1.0
 70
     8
 71
     3
 72
    10
 73
     6
 74
     0
 42
0.00000001
 43
0.00000001
 12
1.0
 22
0.0
 32
0.0
 13
1.0
 23
0.0
 33
0.0
 40
0.0
 40
0.0
 40
0.0
 40
0.0
 40
0.2416795467166148
 40
0.6352759295801801
 40
1.0
 40
1.0
 40
1.0
 40
1.0
 10
236.8577814708838
 20
34.20209404934543
 30
0.0
 10
236.8511773755189
 20
34.1997025380041
 30
0.0
 10
236.8338179304232
 20
34.19341624025527
 30
0.0
 10
237.4016667380616
 20
34.39048020979213
 30
0.0
 10
238.1290696319486
 20
34.58452960825196
 30
0.0
 10
238.478923500646
 20
34.67786018658774
 30
0.0
  0
LINE
  5
1B5
330
1F
100
AcDbEntity
  8
0
  6
Continuous
 62
     7
370
    30
100
AcDbLine
 10
211.10539353
 20
30.581942619
 30
0.0
 11
217.7868097137
 21
30.581942619
 31
0.0
  0
SPLINE
  5
1B6
330
1F
100
AcDbEntity
  8
0
  6
Continuous
 62
     7
370
    30
100
AcDbSpline
210
0.0
220
0.0
230
1.0
 70
     8
 71
     3
 72
    18
 73
    14
 74
     0
 42
0.00000001
 43
0.00000001
 12
1.0
 22
0.0
 32
0.0
 13
1.0
 23
0.0
 33
0.0
 40
0.0
 40
0.0
 40
0.0
 40
0.0
 40
0.0624667017171316
 40
0.1869196660973515
 40
0.3109832883494671
 40
0.3774053641472389
 40
0.4437376208230325
 40
0.5104101604112429
 40
0.5770960494798273
 40
0.6543861343601287
 40
0.7572428820555898
 40
0.8603755450543829
 40
1.0
 40
1.0
 40
1.0
 40
1.0
 10
211.1053935300001
 20
69.77377724755901
 30
0.0
 10
210.4543537141132
 20
69.08731450784717
 30
0.0
 10
208.506241493418
 20
67.03320595772307
 30
0.0
 10
205.5132895001179
 20
63.3858590445327
 30
0.0
 10
202.9980771519637
 20
59.30066915811135
 30
0.0
 10
201.536043955745
 20
55.68519914719506
 30
0.0
 10
200.8163368504317
 20
52.73767501808436
 30
0.0
 10
200.6357637560959
 20
49.70216913371102
 30
0.0
 10
201.0072574985014
 20
46.51728024399495
 30
0.0
 10
202.1248530728899
 20
42.92830613882754
 30
0.0
 10
204.1200687993443
 20
39.10716634072926
 30
0.0
 10
207.1628384515593
 20
34.83142485028441
 30
0.0
 10
209.6657919828861
 20
32.13361686902781
 30
0.0
 10
211.1053935300001
 20
30.581942618977
 30
0.0
  0
LINE
  5
1B7
330
1F
100
AcDbEntity
  8
0
  6
Continuous
 62
     7
370
    30
100
AcDbLine
 10
211.10539353
 20
69.7737772476
 30
0.0
 11
217.7868097137
 21
69.7737772476
 31
0.0
  0
LINE
  5
1B8
330
1F
100
AcDbEntity
  8
0
  6
Continuous
 62
     7
370
    30
100
AcDbLine
 10
217.7868097137
 20
69.7737772476
 30
0.0
 11
217.7868097137
 21
30.581942619
 31
0.0
  0
LINE
  5
1B9
330
1F
100
AcDbEntity
  8
0
  6
Continuous
 62
     7
370
    30
100
AcDbLine
 10
211.10539353
 20
85.1778600823
 30
0.0
 11
211.10539353
 21
69.7737772476
 31
0.0
  0
LINE
  5
1BA
330
1F
100
AcDbEntity
  8
0
  6
Continuous
 62
     7
370
    30
100
AcDbLine
 10
217.7868097137
 20
85.1778600823
 30
0.0
 11
217.7868097137
 21
69.7737772476
 31
0.0
  0
LINE
  5
1BB
330
1F
100
AcDbEntity
  8
0
  6
Continuous
 62
     7
370
    30
100
AcDbLine
 10
191.1868092652
 20
73.6778591286
 30
0.0
 11
191.1868092652
 21
26.6778607379
 31
0.0
  0
LINE
  5
1BC
330
1F
100
AcDbEntity
  8
0
  6
Continuous
 62
     7
370
    30
100
AcDbLine
 10
211.10539353
 20
30.581942619
 30
0.0
 11
211.10539353
 21
15.1778597843
 31
0.0
  0
LINE
  5
1BD
330
1F
100
AcDbEntity
  8
0
  6
Continuous
 62
     7
370
    30
100
AcDbLine
 10
217.7868097137
 20
30.581942619
 30
0.0
 11
217.7868097137
 21
15.1778597843
 31
0.0
  0
LINE
  5
1BE
330
1F
100
AcDbEntity
  8
0
  6
Continuous
 62
     7
370
    30
100
AcDbLine
 10
187.2489864986
 20
73.6778591286
 30
0.0
 11
187.2489864986
 21
26.6778607379
 31
0.0
  0
LINE
  5
1BF
330
1F
100
AcDbEntity
  8
0
  6
Continuous
 62
     7
370
    30
100
AcDbLine
 10
181.1868088921
 20
70.1778594862
 30
0.0
 11
181.1868088921
 21
30.1778603803
 31
0.0
  0
SPLINE
  5
1C0
330
1F
100
AcDbEntity
  8
0
  6
Continuous
 62
     7
370
    30
100
AcDbSpline
210
0.0
220
0.0
230
1.0
 70
     8
 71
     3
 72
    12
 73
     8
 74
     0
 42
0.00000001
 43
0.00000001
 12
1.0
 22
0.0
 32
0.0
 13
1.0
 23
0.0
 33
0.0
 40
0.0
 40
0.0
 40
0.0
 40
0.0
 40
0.2146925145352231
 40
0.4293773270633002
 40
0.6441956358337723
 40
0.8591059256585715
 40
1.0
 40
1.0
 40
1.0
 40
1.0
 10
32.48681342707954
 20
70.10754835714
 30
0.0
 10
32.38572141481222
 20
70.10800769496281
 30
0.0
 10
32.18354101691262
 20
70.10892635412984
 30
0.0
 10
31.91343047829448
 20
70.11538136890493
 30
0.0
 10
31.71180264718243
 20
70.12236878438512
 30
0.0
 10
31.59741227788948
 20
70.12737706928604
 30
0.0
 10
31.59807088910099
 20
70.12735377430637
 30
0.0
 10
31.59833169089643
 20
70.12734454978603
 30
0.0
  0
LINE
  5
1C1
330
1F
100
AcDbEntity
  8
0
  6
Continuous
 62
     7
370
    30
100
AcDbLine
 10
32.4386528741
 20
70.1079078477
 30
0.0
 11
32.6851031791
 21
70.1085914384
 31
0.0
  0
SPLINE
  5
1C2
330
1F
100
AcDbEntity
  8
0
  6
Continuous
 62
     7
370
    30
100
AcDbSpline
210
0.0
220
0.0
230
1.0
 70
     8
 71
     3
 72
    13
 73
     9
 74
     0
 42
0.00000001
 43
0.00000001
 12
1.0
 22
0.0
 32
0.0
 13
1.0
 23
0.0
 33
0.0
 40
0.0
 40
0.0
 40
0.0
 40
0.0
 40
0.0059369235439702
 40
0.2204058860238255
 40
0.4348725375256262
 40
0.6495381717742063
 40
0.8642741885421645
 40
0.9999999999999999
 40
0.9999999999999999
 40
0.9999999999999999
 40
0.9999999999999999
 10
33.38544285403577
 20
70.12779903520244
 30
0.0
 10
33.38589642459472
 20
70.12781942652474
 30
0.0
 10
33.40273504819913
 20
70.12857644612058
 30
0.0
 10
33.34211893493516
 20
70.12580257782227
 30
0.0
 10
33.20003987447573
 20
70.12000755864334
 30
0.0
 10
32.96590300314678
 20
70.11275615772341
 30
0.0
 10
32.71536741090314
 20
70.10821263254064
 30
0.0
 10
32.55061734224402
 20
70.1077337985425
 30
0.0
 10
32.4868134270796
 20
70.10754835714
 30
0.0
  0
SPLINE
  5
1C3
330
1F
100
AcDbEntity
  8
0
  6
Continuous
 62
     7
370
    30
100
AcDbSpline
210
0.0
220
0.0
230
1.0
 70
     8
 71
     3
 72
    17
 73
    13
 74
     0
 42
0.00000001
 43
0.00000001
 12
1.0
 22
0.0
 32
0.0
 13
1.0
 23
0.0
 33
0.0
 40
0.0
 40
0.0
 40
0.0
 40
0.0
 40
0.0369189455561609
 40
0.1441800016946398
 40
0.2514841127551944
 40
0.3588830195134373
 40
0.4662824596396267
 40
0.5735860277452801
 40
0.6808456968258132
 40
0.7881823215744651
 40
0.895598341144371
 40
1.0
 40
1.0
 40
1.0
 40
1.0
 10
31.59833169089643
 20
30.22837531674998
 30
0.0
 10
31.59517938610346
 20
30.22823418296139
 30
0.0
 10
31.58286865231785
 20
30.227683011481
 30
0.0
 10
31.6663010498876
 20
30.23144437897797
 30
0.0
 10
31.83991914433138
 20
30.23805672765179
 30
0.0
 10
32.09333522577523
 20
30.24494463746133
 30
0.0
 10
32.38937691370325
 20
30.24872006770333
 30
0.0
 10
32.69662662352207
 20
30.2478266430324
 30
0.0
 10
32.98056390004628
 20
30.24261175338865
 30
0.0
 10
33.20691708050189
 20
30.23547296787787
 30
0.0
 10
33.35860691938603
 20
30.22916802351842
 30
0.0
 10
33.37658281366485
 20
30.22833259910884
 30
0.0
 10
33.38544285403577
 20
30.22792083133357
 30
0.0
  0
SPLINE
  5
1C4
330
1F
100
AcDbEntity
  8
0
  6
Continuous
 62
     7
370
    30
100
AcDbSpline
210
0.0
220
0.0
230
1.0
 70
     8
 71
     3
 72
     9
 73
     5
 74
     0
 42
0.00000001
 43
0.00000001
 12
1.0
 22
0.0
 32
0.0
 13
1.0
 23
0.0
 33
0.0
 40
0.0
 40
0.0
 40
0.0
 40
0.0
 40
0.0446405384855994
 40
1.0
 40
1.0
 40
1.0
 40
1.0
 10
32.68510317908613
 20
30.24712842811244
 30
0.0
 10
32.68234591064518
 20
30.24717444877466
 30
0.0
 10
32.62057988956762
 20
30.24820536515205
 30
0.0
 10
32.55216972503222
 20
30.24818805081333
 30
0.0
 10
32.4868134270796
 20
30.24817150939601
 30
0.0
  0
LINE
  5
1C5
330
1F
100
AcDbEntity
  8
0
  6
Continuous
 62
     7
370
    30
100
AcDbLine
 10
30.9868029367
 20
30.4278590243
 30
0.0
 11
30.9868029367
 21
69.9278608422
 31
0.0
  0
LINE
  5
1C6
330
1F
100
AcDbEntity
  8
0
  6
Continuous
 62
     7
370
    30
100
AcDbLine
 10
34.7868076573
 20
50.1778599333
 30
0.0
 11
34.7868076573
 21
30.4278590243
 31
0.0
  0
LINE
  5
1C7
330
1F
100
AcDbEntity
  8
0
  6
Continuous
 62
     7
370
    30
100
AcDbLine
 10
34.7868076573
 20
69.9278608422
 30
0.0
 11
34.7868076573
 21
50.1778599333
 31
0.0
  0
LINE
  5
1C8
330
1F
100
AcDbEntity
  8
0
  6
Continuous
 62
     7
370
    30
100
AcDbLine
 10
20.7868090879
 20
40.6778602387
 30
0.0
 11
20.7868090879
 21
59.6778596278
 31
0.0
  0
LINE
  5
1C9
330
1F
100
AcDbEntity
  8
0
  6
Continuous
 62
     7
370
    30
100
AcDbLine
 10
26.786806346
 20
60.0778598796
 30
0.0
 11
26.786806346
 21
40.2778599869
 31
0.0
  0
LINE
  5
1CA
330
1F
100
AcDbEntity
  8
0
  6
Continuous
 62
     7
370
    30
100
AcDbLine
 10
30.8868161451
 20
60.0778598796
 30
0.0
 11
30.8868161451
 21
59.0141432818
 31
0.0
  0
LINE
  5
1CB
330
1F
100
AcDbEntity
  8
0
  6
Continuous
 62
     7
370
    30
100
AcDbLine
 10
26.8868080388
 20
59.0141432818
 30
0.0
 11
26.8868080388
 21
60.0778598796
 31
0.0
  0
LINE
  5
1CC
330
1F
100
AcDbEntity
  8
0
  6
Continuous
 62
     7
370
    30
100
AcDbLine
 10
30.8868161451
 20
59.0141432818
 30
0.0
 11
26.8868080388
 21
59.0141432818
 31
0.0
  0
LINE
  5
1CD
330
1F
100
AcDbEntity
  8
0
  6
Continuous
 62
     7
370
    30
100
AcDbLine
 10
30.8868161451
 20
42.0563396524
 30
0.0
 11
30.8868161451
 21
40.2778599869
 31
0.0
  0
LINE
  5
1CE
330
1F
100
AcDbEntity
  8
0
  6
Continuous
 62
     7
370
    30
100
AcDbLine
 10
26.8868080388
 20
42.0563396524
 30
0.0
 11
30.8868161451
 21
42.0563396524
 31
0.0
  0
LINE
  5
1CF
330
1F
100
AcDbEntity
  8
0
  6
Continuous
 62
     7
370
    30
100
AcDbLine
 10
26.8868080388
 20
40.2778599869
 30
0.0
 11
26.8868080388
 21
42.0563396524
 31
0.0
  0
LINE
  5
1D0
330
1F
100
AcDbEntity
  8
0
  6
Continuous
 62
     7
370
    30
100
AcDbLine
 10
30.8868161451
 20
41.3415765848
 30
0.0
 11
26.8868080388
 21
41.3415765848
 31
0.0
  0
LINE
  5
1D1
330
1F
100
AcDbEntity
  8
0
  6
Continuous
 62
     7
370
    30
100
AcDbLine
 10
73.1368086349
 20
69.8778599959
 30
0.0
 11
70.1368100058
 21
69.8778599959
 31
0.0
  0
LWPOLYLINE
  5
1D2
330
1F
100
AcDbEntity
  8
0
  6
Continuous
 62
     7
370
    30
100
AcDbPolyline
 90
        3
 70
   128
 43
0.0
 10
73.310012282
 20
70.1778594862
 10
73.2907227288
 20
70.1444529455
 10
73.1368086349
 20
69.8778599959
  0
LWPOLYLINE
  5
1D3
330
1F
100
AcDbEntity
  8
0
  6
Continuous
 62
     7
370
    30
100
AcDbPolyline
 90
        3
 70
   128
 43
0.0
 10
70.1368100058
 20
69.8778599959
 10
69.9828884612
 20
70.1444529455
 10
69.9636063586
 20
70.1778594862
  0
LINE
  5
1D4
330
1F
100
AcDbEntity
  8
0
  6
Continuous
 62
     7
370
    30
100
AcDbLine
 10
180.9868088971
 20
70.1628596048
 30
0.0
 11
180.9868088971
 21
30.1928602617
 31
0.0
  0
LINE
  5
1D5
330
1F
100
AcDbEntity
  8
0
  6
Continuous
 62
     7
370
    30
100
AcDbLine
 10
35.2868161212
 20
30.3928599219
 30
0.0
 11
35.2868161212
 21
69.9628599446
 31
0.0
  0
LINE
  5
1D6
330
1F
100
AcDbEntity
  8
0
  6
Continuous
 62
     8
370
    30
100
AcDbLine
 10
6.0721806298
 20
50.1778599333
 30
0.0
 11
6.0721806298
 21
38.6778599109
 31
0.0
  0
LINE
  5
1D7
330
1F
100
AcDbEntity
  8
0
  6
Continuous
 62
     8
370
    30
100
AcDbLine
 10
6.0721806298
 20
61.6778599556
 30
0.0
 11
6.0721806298
 21
50.1778599333
 31
0.0
  0
LINE
  5
1D8
330
1F
100
AcDbEntity
  8
0
  6
Continuous
 62
     8
370
    30
100
AcDbLine
 10
242.2868072103
 20
20.9516741793
 30
0.0
 11
242.2868072103
 21
17.8237583946
 31
0.0
  0
DIMENSION
  5
1D9
330
1F
100
AcDbEntity
  8
1
100
AcDbDimension
  2
_D
 10
-32.8591519472
 20
30.1778599333
 30
0.0
 11
-32.8591519472
 21
50.1778599333
 31
0.0
 70
   160
  1
%%c<>
 71
     2
 42
-1.0
  3
SLDDIMSTYLE0
100
AcDbAlignedDimension
 13
39.6868088971
 23
70.1778599333
 33
0.0
 14
39.6868088971
 24
30.1778599333
 34
0.0
 50
90.0
100
AcDbRotatedDimension
  0
DIMENSION
  5
1F1
330
1F
100
AcDbEntity
  8
1
100
AcDbDimension
  2
_D_1
 10
-23.8131911029
 20
38.6778599333
 30
0.0
 11
-23.8131911029
 21
50.1778599333
 31
0.0
 70
   160
  1
%%c<>
 71
     2
 42
-1.0
  3
SLDDIMSTYLE1
100
AcDbAlignedDimension
 13
6.0721813076
 23
61.6778599333
 33
0.0
 14
6.0721813076
 24
38.6778599333
 34
0.0
 50
90.0
100
AcDbRotatedDimension
  0
DIMENSION
  5
1FD
330
1F
100
AcDbEntity
  8
1
100
AcDbDimension
  2
_D_2
 10
18.5868088971
 20
82.99116353
 30
0.0
 11
9.8868088971
 21
82.99116353
 31
0.0
 70
   160
  1
<>
 71
     2
 42
-1.0
  3
SLDDIMSTYLE1
100
AcDbAlignedDimension
 13
1.1868088971
 23
57.9572928827
 33
0.0
 14
18.5868088971
 24
61.1778599333
 34
0.0
100
AcDbRotatedDimension
  0
DIMENSION
  5
207
330
1F
100
AcDbEntity
  8
1
100
AcDbDimension
  2
_D_3
 10
30.9868088971
 20
102.8328229915
 30
0.0
 11
16.0868088971
 21
102.8328229915
 31
0.0
 70
   160
  1
(<>)
 71
     2
 42
-1.0
  3
SLDDIMSTYLE1
100
AcDbAlignedDimension
 13
1.1868088971
 23
57.9572928827
 33
0.0
 14
30.9868088971
 24
69.9278599333
 34
0.0
100
AcDbRotatedDimension
  0
DIMENSION
  5
213
330
1F
100
AcDbEntity
  8
1
100
AcDbDimension
  2
_D_4
 10
285.2868088971
 20
102.8328229915
 30
0.0
 11
158.1368088971
 21
102.8328229915
 31
0.0
 70
   160
  1
<>
 71
     2
 42
-1.0
  3
SLDDIMSTYLE1
100
AcDbAlignedDimension
 13
30.9868088971
 23
69.9278599333
 33
0.0
 14
285.2868088971
 24
63.1778599333
 34
0.0
100
AcDbRotatedDimension
  0
DIMENSION
  5
21D
330
1F
100
AcDbEntity
  8
1
100
AcDbDimension
  2
_D_5
 10
30.9868088971
 20
94.1260452653
 30
0.0
 11
105.9868088971
 21
94.1260452653
 31
0.0
 70
   160
  1
<>
 71
     2
 42
-1.0
  3
SLDDIMSTYLE1
100
AcDbAlignedDimension
 13
180.9868088971
 23
70.1628599333
 33
0.0
 14
30.9868088971
 24
69.9278599333
 34
0.0
100
AcDbRotatedDimension
  0
DIMENSION
  5
227
330
1F
100
AcDbEntity
  8
1
100
AcDbDimension
  2
_D_6
 10
233.2868088971
 20
94.1260452653
 30
0.0
 11
207.1368088971
 21
94.1260452653
 31
0.0
 70
   160
  1
<>
 71
     2
 42
-1.0
  3
SLDDIMSTYLE1
100
AcDbAlignedDimension
 13
180.9868088971
 23
70.1628599333
 33
0.0
 14
233.2868088971
 24
69.6200820285
 34
0.0
100
AcDbRotatedDimension
  0
DIMENSION
  5
231
330
1F
100
AcDbEntity
  8
1
100
AcDbDimension
  2
_D_7
 10
285.2868088971
 20
94.1260452653
 30
0.0
 11
259.2868088971
 21
94.1260452653
 31
0.0
 70
   160
  1
<>
 71
     2
 42
-1.0
  3
SLDDIMSTYLE1
100
AcDbAlignedDimension
 13
233.2868088971
 23
69.6200820285
 33
0.0
 14
285.2868088971
 24
63.1778599333
 34
0.0
100
AcDbRotatedDimension
  0
DIMENSION
  5
23B
330
1F
100
AcDbEntity
  8
1
100
AcDbDimension
  2
_D_8
 10
319.3645029213
 20
34.1778599333
 30
0.0
 11
319.3645029213
 21
50.1778599333
 31
0.0
 70
   160
  1
%%c<>
 71
     2
 42
-1.0
  3
SLDDIMSTYLE1
100
AcDbAlignedDimension
 13
276.2868088971
 23
66.1778599333
 33
0.0
 14
276.2868088971
 24
34.1778599333
 34
0.0
 50
90.0
100
AcDbRotatedDimension
  0
DIMENSION
  5
246
330
1F
100
AcDbEntity
  8
1
100
AcDbDimension
  2
_D_9
 10
326.2264945324
 20
15.1778599333
 30
0.0
 11
326.2264945324
 21
50.1778599333
 31
0.0
 70
   160
  1
%%c<>
 71
     2
 42
-1.0
  3
SLDDIMSTYLE1
100
AcDbAlignedDimension
 13
232.7868088971
 23
85.1778599333
 33
0.0
 14
232.7868088971
 24
15.1778599333
 34
0.0
 50
90.0
100
AcDbRotatedDimension
  0
LINE
  5
251
330
1F
100
AcDbEntity
  8
1
  6
CENTERX2
370
     0
100
AcDbLine
 10
32.4868088971
 20
67.6278599333
 30
0.0
 11
32.4868088971
 21
71.1075488446
 31
0.0
  0
LINE
  5
252
330
1F
100
AcDbEntity
  8
1
  6
CENTERX2
370
     0
100
AcDbLine
 10
32.4868088971
 20
32.7278599333
 30
0.0
 11
32.4868088971
 21
29.2481710219
 31
0.0
  0
LINE
  5
253
330
1F
100
AcDbEntity
  8
1
  6
CENTERX2
370
     0
100
AcDbLine
 10
241.2868088971
 20
21.1778599333
 30
0.0
 11
244.7053134395
 21
21.1778599333
 31
0.0
  0
LINE
  5
254
330
1F
100
AcDbEntity
  8
1
  6
CENTERX2
370
     0
100
AcDbLine
 10
245.6868088971
 20
21.1778599333
 30
0.0
 11
244.7053134395
 21
21.1778599333
 31
0.0
  0
LINE
  5
255
330
1F
100
AcDbEntity
  8
0
  6
Continuous
 62
     7
370
    30
100
AcDbLine
 10
397.4979457637
 20
26.9278593819
 30
0.0
 11
397.4979457637
 21
25.0236362677
 31
0.0
  0
LINE
  5
256
330
1F
100
AcDbEntity
  8
0
  6
Continuous
 62
     7
370
    30
100
AcDbLine
 10
404.4979459798
 20
25.0236362677
 30
0.0
 11
404.4979459798
 21
26.9278593819
 31
0.0
  0
CIRCLE
  5
257
330
1F
100
AcDbEntity
  8
0
  6
Continuous
 62
     7
370
    30
100
AcDbCircle
 10
400.9979458718
 20
50.1778599333
 30
0.0
 40
2.999999999480066
  0
CIRCLE
  5
258
330
1F
100
AcDbEntity
  8
0
  6
Continuous
 62
     7
370
    30
100
AcDbCircle
 10
400.9979458718
 20
50.1778599333
 30
0.0
 40
6.985000000000054
  0
LINE
  5
259
330
1F
100
AcDbEntity
  8
0
  6
Continuous
 62
     7
370
    30
100
AcDbLine
 10
407.6720441883
 20
48.1171227052
 30
0.0
 11
408.8618111057
 21
51.9704150261
 31
0.0
  0
LINE
  5
25A
330
1F
100
AcDbEntity
  8
0
  6
Continuous
 62
     7
370
    30
100
AcDbLine
 10
408.8618111057
 20
51.9704150261
 30
0.0
 11
406.1196458718
 21
54.9274299752
 31
0.0
  0
LINE
  5
25B
330
1F
100
AcDbEntity
  8
0
  6
Continuous
 62
     7
370
    30
100
AcDbLine
 10
403.3774801722
 20
57.8844448078
 30
0.0
 11
399.4455475552
 21
56.9881669704
 31
0.0
  0
LINE
  5
25C
330
1F
100
AcDbEntity
  8
0
  6
Continuous
 62
     7
370
    30
100
AcDbLine
 10
406.1196458718
 20
54.9274299752
 30
0.0
 11
403.3774801722
 21
57.8844448078
 31
0.0
  0
LINE
  5
25D
330
1F
100
AcDbEntity
  8
0
  6
Continuous
 62
     7
370
    30
100
AcDbLine
 10
406.4822768053
 20
44.263830268
 30
0.0
 11
407.6720441883
 21
48.1171227052
 31
0.0
  0
LINE
  5
25E
330
1F
100
AcDbEntity
  8
0
  6
Continuous
 62
     7
370
    30
100
AcDbLine
 10
402.5503441883
 20
43.3675528962
 30
0.0
 11
406.4822768053
 21
44.263830268
 31
0.0
  0
LINE
  5
25F
330
1F
100
AcDbEntity
  8
0
  6
Continuous
 62
     7
370
    30
100
AcDbLine
 10
399.4455475552
 20
56.9881669704
 30
0.0
 11
395.5136149382
 21
56.0918895986
 31
0.0
  0
LINE
  5
260
330
1F
100
AcDbEntity
  8
0
  6
Continuous
 62
     7
370
    30
100
AcDbLine
 10
395.5136149382
 20
56.0918895986
 30
0.0
 11
394.3238475552
 21
52.2385971613
 31
0.0
  0
LINE
  5
261
330
1F
100
AcDbEntity
  8
0
  6
Continuous
 62
     7
370
    30
100
AcDbLine
 10
395.8762458717
 20
45.4282898914
 30
0.0
 11
398.6184113385
 21
42.4712750587
 31
0.0
  0
LINE
  5
262
330
1F
100
AcDbEntity
  8
0
  6
Continuous
 62
     7
370
    30
100
AcDbLine
 10
398.6184113385
 20
42.4712750587
 30
0.0
 11
402.5503441883
 21
43.3675528962
 31
0.0
  0
LINE
  5
263
330
1F
100
AcDbEntity
  8
0
  6
Continuous
 62
     7
370
    30
100
AcDbLine
 10
394.3238475552
 20
52.2385971613
 30
0.0
 11
393.1340806378
 21
48.3853048404
 31
0.0
  0
LINE
  5
264
330
1F
100
AcDbEntity
  8
0
  6
Continuous
 62
     7
370
    30
100
AcDbLine
 10
393.1340806378
 20
48.3853048404
 30
0.0
 11
395.8762458717
 21
45.4282898914
 31
0.0
  0
LINE
  5
265
330
1F
100
AcDbEntity
  8
0
  6
Continuous
 62
     7
370
    30
100
AcDbLine
 10
402.5536778575
 20
43.3529278721
 30
0.0
 11
398.6133014044
 21
42.4547254566
 31
0.0
  0
CIRCLE
  5
266
330
1F
100
AcDbEntity
  8
0
  6
Continuous
 62
     7
370
    30
100
AcDbCircle
 10
400.9979458718
 20
21.1778599333
 30
0.0
 40
2.999999999999883
  0
CIRCLE
  5
267
330
1F
100
AcDbEntity
  8
0
  6
Continuous
 62
     7
370
    30
100
AcDbCircle
 10
400.9979458718
 20
21.1778599333
 30
0.0
 40
4.850000000000023
  0
CIRCLE
  5
268
330
1F
100
AcDbEntity
  8
0
  6
Continuous
 62
     7
370
    30
100
AcDbCircle
 10
400.9979458718
 20
21.1778599333
 30
0.0
 40
5.199999999999932
  0
LINE
  5
269
330
1F
100
AcDbEntity
  8
0
  6
Continuous
 62
     7
370
    30
100
AcDbLine
 10
400.9979458718
 20
27.0936683278
 30
0.0
 11
398.9979457768
 21
26.9278593819
 31
0.0
  0
LINE
  5
26A
330
1F
100
AcDbEntity
  8
0
  6
Continuous
 62
     7
370
    30
100
AcDbLine
 10
398.9979457768
 20
26.9278593819
 30
0.0
 11
396.9979456818
 21
27.0936683278
 31
0.0
  0
LINE
  5
26B
330
1F
100
AcDbEntity
  8
0
  6
Continuous
 62
     7
370
    30
100
AcDbLine
 10
396.9979456818
 20
27.0936683278
 30
0.0
 11
396.9979456818
 21
34.5120531033
 31
0.0
  0
LINE
  5
26C
330
1F
100
AcDbEntity
  8
0
  6
Continuous
 62
     7
370
    30
100
AcDbLine
 10
400.9979458718
 20
27.0936683278
 30
0.0
 11
400.9979458718
 21
34.1778591733
 31
0.0
  0
LINE
  5
26D
330
1F
100
AcDbEntity
  8
0
  6
Continuous
 62
     7
370
    30
100
AcDbLine
 10
402.9979459668
 20
26.9278593819
 30
0.0
 11
400.9979458718
 21
27.0936683278
 31
0.0
  0
LINE
  5
26E
330
1F
100
AcDbEntity
  8
0
  6
Continuous
 62
     7
370
    30
100
AcDbLine
 10
398.9979457768
 20
26.9278593819
 30
0.0
 11
402.9979459668
 21
26.9278593819
 31
0.0
  0
LINE
  5
26F
330
1F
100
AcDbEntity
  8
0
  6
Continuous
 62
     7
370
    30
100
AcDbLine
 10
404.9979460618
 20
27.0936683278
 30
0.0
 11
402.9979459668
 21
26.9278593819
 31
0.0
  0
LINE
  5
270
330
1F
100
AcDbEntity
  8
0
  6
Continuous
 62
     7
370
    30
100
AcDbLine
 10
404.9979460618
 20
27.0936683278
 30
0.0
 11
404.9979460618
 21
34.5120531033
 31
0.0
  0
LINE
  5
271
330
1F
100
AcDbEntity
  8
0
  6
Continuous
 62
     7
370
    30
100
AcDbLine
 10
396.9979456818
 20
34.6778601866
 30
0.0
 11
397.0293186797
 21
34.6778601866
 31
0.0
  0
LINE
  5
272
330
1F
100
AcDbEntity
  8
0
  6
Continuous
 62
     7
370
    30
100
AcDbLine
 10
396.9979456818
 20
26.9278593819
 30
0.0
 11
398.9979457768
 21
26.9278593819
 31
0.0
  0
LINE
  5
273
330
1F
100
AcDbEntity
  8
0
  6
Continuous
 62
     7
370
    30
100
AcDbLine
 10
402.9979459668
 20
26.9278593819
 30
0.0
 11
404.9979460618
 21
26.9278593819
 31
0.0
  0
LINE
  5
274
330
1F
100
AcDbEntity
  8
0
  6
Continuous
 62
     7
370
    30
100
AcDbLine
 10
404.9665730638
 20
34.6778601866
 30
0.0
 11
404.9979460618
 21
34.6778601866
 31
0.0
  0
CIRCLE
  5
275
330
1F
100
AcDbEntity
  8
0
  6
Continuous
 62
     7
370
    30
100
AcDbCircle
 10
414.2479458718
 20
27.228186733
 30
0.0
 40
1.0
  0
CIRCLE
  5
276
330
1F
100
AcDbEntity
  8
0
  6
Continuous
 62
     7
370
    30
100
AcDbCircle
 10
414.2479458718
 20
27.228186733
 30
0.0
 40
2.999999999999954
  0
CIRCLE
  5
277
330
1F
100
AcDbEntity
  8
0
  6
Continuous
 62
     7
370
    30
100
AcDbCircle
 10
414.2479458718
 20
27.228186733
 30
0.0
 40
4.999999999999885
  0
LINE
  5
278
330
1F
100
AcDbEntity
  8
0
  6
Continuous
 62
     7
370
    30
100
AcDbLine
 10
413.0322866334
 20
28.0063290607
 30
0.0
 11
412.9662251292
 21
26.5644666265
 31
0.0
  0
LINE
  5
279
330
1F
100
AcDbEntity
  8
0
  6
Continuous
 62
     7
370
    30
100
AcDbLine
 10
412.9662251292
 20
26.5644666265
 30
0.0
 11
414.1818842111
 21
25.7863242637
 31
0.0
  0
LINE
  5
27A
330
1F
100
AcDbEntity
  8
0
  6
Continuous
 62
     7
370
    30
100
AcDbLine
 10
414.1818842111
 20
25.7863242637
 30
0.0
 11
415.4636047972
 21
26.450044335
 31
0.0
  0
LINE
  5
27B
330
1F
100
AcDbEntity
  8
0
  6
Continuous
 62
     7
370
    30
100
AcDbLine
 10
415.4636047972
 20
26.450044335
 30
0.0
 11
415.5296672327
 21
27.8919067692
 31
0.0
  0
LINE
  5
27C
330
1F
100
AcDbEntity
  8
0
  6
Continuous
 62
     7
370
    30
100
AcDbLine
 10
415.5296672327
 20
27.8919067692
 30
0.0
 11
414.3140081508
 21
28.670049132
 31
0.0
  0
LINE
  5
27D
330
1F
100
AcDbEntity
  8
0
  6
Continuous
 62
     7
370
    30
100
AcDbLine
 10
414.3140081508
 20
28.670049132
 30
0.0
 11
413.0322866334
 21
28.0063290607
 31
0.0
  0
ARC
  5
27E
330
1F
100
AcDbEntity
  8
0
  6
Continuous
 62
     7
370
    30
100
AcDbCircle
 10
414.2479458718
 20
27.228186733
 30
0.0
 40
1.250000000000039
100
AcDbArc
 50
237.3767064137
 51
297.3767064137
  0
ARC
  5
27F
330
1F
100
AcDbEntity
  8
0
  6
Continuous
 62
     7
370
    30
100
AcDbCircle
 10
414.2479458718
 20
27.228186733
 30
0.0
 40
1.249999999999938
100
AcDbArc
 50
357.3767064137
 51
57.3767064137
  0
ARC
  5
280
330
1F
100
AcDbEntity
  8
0
  6
Continuous
 62
     7
370
    30
100
AcDbCircle
 10
414.2479458718
 20
27.228186733
 30
0.0
 40
1.249999999999938
100
AcDbArc
 50
57.3767064137
 51
117.3767064137
  0
ARC
  5
281
330
1F
100
AcDbEntity
  8
0
  6
Continuous
 62
     7
370
    30
100
AcDbCircle
 10
414.2479458718
 20
27.228186733
 30
0.0
 40
1.250000000000039
100
AcDbArc
 50
297.3767064137
 51
357.3767064137
  0
ARC
  5
282
330
1F
100
AcDbEntity
  8
0
  6
Continuous
 62
     7
370
    30
100
AcDbCircle
 10
414.2479458718
 20
27.228186733
 30
0.0
 40
1.249999999999976
100
AcDbArc
 50
117.3767064137
 51
177.3767064137
  0
ARC
  5
283
330
1F
100
AcDbEntity
  8
0
  6
Continuous
 62
     7
370
    30
100
AcDbCircle
 10
414.2479458718
 20
27.228186733
 30
0.0
 40
1.250000000000013
100
AcDbArc
 50
177.3767064137
 51
237.3767064137
  0
CIRCLE
  5
284
330
1F
100
AcDbEntity
  8
0
  6
Continuous
 62
     7
370
    30
100
AcDbCircle
 10
378.0166125782
 20
69.4614882239
 30
0.0
 40
2.049999999999973
  0
CIRCLE
  5
285
330
1F
100
AcDbEntity
  8
0
  6
Continuous
 62
     7
370
    30
100
AcDbCircle
 10
423.9792791653
 20
30.8942316427
 30
0.0
 40
2.050000000000007
  0
CIRCLE
  5
286
330
1F
100
AcDbEntity
  8
0
  6
Continuous
 62
     7
370
    30
100
AcDbCircle
 10
378.0166125782
 20
30.8942316427
 30
0.0
 40
2.050000000000007
  0
CIRCLE
  5
287
330
1F
100
AcDbEntity
  8
0
  6
Continuous
 62
     7
370
    30
100
AcDbCircle
 10
423.9792791653
 20
69.4614882239
 30
0.0
 40
2.049999999999983
  0
CIRCLE
  5
288
330
1F
100
AcDbEntity
  8
0
  6
Continuous
 62
     7
370
    30
100
AcDbCircle
 10
400.9979458718
 20
50.1778599333
 30
0.0
 40
1.750000000000057
  0
SPLINE
  5
289
330
1F
100
AcDbEntity
  8
0
  6
Continuous
 62
     7
370
    30
100
AcDbSpline
210
0.0
220
0.0
230
1.0
 70
    24
 71
     3
 72
    12
 73
     8
 74
     0
 42
0.00000001
 43
0.00000001
 12
1.0
 22
0.0
 32
0.0
 13
1.0
 23
0.0
 33
0.0
 40
0.0
 40
0.0
 40
0.0
 40
0.0
 40
0.2188413904107082
 40
0.4440744415802503
 40
0.6576250615185307
 40
0.8802816681283228
 40
1.0
 40
1.0
 40
1.0
 40
1.0
 10
407.5362941442043
 20
63.6778602834453
 30
0.0
 10
406.618882805506
 20
63.6778602834453
 30
0.0
 10
404.7572654616972
 20
63.6778602834453
 30
0.0
 10
401.810211074619
 20
63.67786028344528
 30
0.0
 10
398.8192413132148
 20
63.6778602834453
 30
0.0
 10
396.3818695666756
 20
63.67786028344528
 30
0.0
 10
394.9576165234197
 20
63.6778602834453
 30
0.0
 10
394.4595975993187
 20
63.6778602834453
 30
0.0
  0
ARC
  5
28A
330
1F
100
AcDbEntity
  8
0
  6
Continuous
 62
     7
370
    30
100
AcDbCircle
 10
400.9979458718
 20
50.1778599333
 30
0.0
 40
15.0
100
AcDbArc
 50
55.8419327632
 51
64.1580672368
  0
SPLINE
  5
28B
330
1F
100
AcDbEntity
  8
0
  6
Continuous
 62
     7
370
    30
100
AcDbSpline
210
0.0
220
0.0
230
1.0
 70
     8
 71
     3
 72
    12
 73
     8
 74
     0
 42
0.00000001
 43
0.00000001
 12
1.0
 22
0.0
 32
0.0
 13
1.0
 23
0.0
 33
0.0
 40
0.0
 40
0.0
 40
0.0
 40
0.0
 40
0.2238467112146694
 40
0.454632353195619
 40
0.6623539619403459
 40
0.8783806142097486
 40
0.9999999999999999
 40
0.9999999999999999
 40
0.9999999999999999
 40
0.9999999999999999
 10
415.9584630472571
 20
51.26548416369008
 30
0.0
 10
415.4890752132383
 20
52.07848725310712
 30
0.0
 10
414.5357491876585
 20
53.72969537535874
 30
0.0
 10
413.0488464982486
 20
56.30508905961725
 30
0.0
 10
411.5703544490146
 20
58.86591133528054
 30
0.0
 10
410.3755163853999
 20
60.93543031390758
 30
0.0
 10
409.6731173981958
 20
62.15202197231176
 30
0.0
 10
409.4201147748143
 20
62.59023570377725
 30
0.0
  0
ARC
  5
28C
330
1F
100
AcDbEntity
  8
0
  6
Continuous
 62
     7
370
    30
100
AcDbCircle
 10
400.9979458718
 20
50.1778599333
 30
0.0
 40
14.99999999999999
100
AcDbArc
 50
355.8419327632
 51
4.1580672368
  0
SPLINE
  5
28D
330
1F
100
AcDbEntity
  8
0
  6
Continuous
 62
     7
370
    30
100
AcDbSpline
210
0.0
220
0.0
230
1.0
 70
     8
 71
     3
 72
    12
 73
     8
 74
     0
 42
0.00000001
 43
0.00000001
 12
1.0
 22
0.0
 32
0.0
 13
1.0
 23
0.0
 33
0.0
 40
0.0
 40
0.0
 40
0.0
 40
0.0
 40
0.2238466714053894
 40
0.4546323620055412
 40
0.6623539705413432
 40
0.8783805891699794
 40
1.0
 40
1.0
 40
1.0
 40
1.0
 10
409.4201147748143
 20
37.76548416275876
 30
0.0
 10
409.8895021833385
 20
38.57848727650722
 30
0.0
 10
410.8428275327539
 20
40.22969577382696
 30
0.0
 10
412.3297313405091
 20
42.80508891672883
 30
0.0
 10
413.8082236194928
 20
45.36591115432081
 30
0.0
 10
415.003060119315
 20
47.43543090530716
 30
0.0
 10
415.7054600319887
 20
48.65202205370034
 30
0.0
 10
415.9584630472571
 20
49.09023570284592
 30
0.0
  0
ARC
  5
28E
330
1F
100
AcDbEntity
  8
0
  6
Continuous
 62
     7
370
    30
100
AcDbCircle
 10
400.9979458718
 20
50.1778599333
 30
0.0
 40
14.99999999999998
100
AcDbArc
 50
295.8419327632
 51
304.1580672368
  0
SPLINE
  5
28F
330
1F
100
AcDbEntity
  8
0
  6
Continuous
 62
     7
370
    30
100
AcDbSpline
210
0.0
220
0.0
230
1.0
 70
    24
 71
     3
 72
    13
 73
     9
 74
     0
 42
0.00000001
 43
0.00000001
 12
1.0
 22
0.0
 32
0.0
 13
1.0
 23
0.0
 33
0.0
 40
0.0
 40
0.0
 40
0.0
 40
0.0
 40
0.1166130254330361
 40
0.3147998582746982
 40
0.5126092421831705
 40
0.7185397875111289
 40
0.9249438249773997
 40
1.0
 40
1.0
 40
1.0
 40
1.0
 10
394.4595975993187
 20
36.67785958309072
 30
0.0
 10
394.9446257143442
 20
36.67785958309072
 30
0.0
 10
396.2539715725988
 20
36.67785958309072
 30
0.0
 10
398.4926095430843
 20
36.67785958309072
 30
0.0
 10
401.2058363580267
 20
36.67785958309071
 30
0.0
 10
403.9487578409115
 20
36.67785958309072
 30
0.0
 10
406.0578343822639
 20
36.67785958309072
 30
0.0
 10
407.2250390699828
 20
36.67785958309072
 30
0.0
 10
407.5362941442043
 20
36.67785958309072
 30
0.0
  0
ARC
  5
290
330
1F
100
AcDbEntity
  8
0
  6
Continuous
 62
     7
370
    30
100
AcDbCircle
 10
400.9979458718
 20
50.1778599333
 30
0.0
 40
15.00000000000003
100
AcDbArc
 50
235.8419327632
 51
244.1580672368
  0
SPLINE
  5
291
330
1F
100
AcDbEntity
  8
0
  6
Continuous
 62
     7
370
    30
100
AcDbSpline
210
0.0
220
0.0
230
1.0
 70
     8
 71
     3
 72
    12
 73
     8
 74
     0
 42
0.00000001
 43
0.00000001
 12
1.0
 22
0.0
 32
0.0
 13
1.0
 23
0.0
 33
0.0
 40
0.0
 40
0.0
 40
0.0
 40
0.0
 40
0.2238467112146694
 40
0.454632353195619
 40
0.6623539619403459
 40
0.8783806142097486
 40
0.9999999999999999
 40
0.9999999999999999
 40
0.9999999999999999
 40
0.9999999999999999
 10
386.0374286962659
 20
49.09023570284592
 30
0.0
 10
386.5068165302847
 20
48.27723261342889
 30
0.0
 10
387.4601425558644
 20
46.62602449117727
 30
0.0
 10
388.9470452452742
 20
44.05063080691875
 30
0.0
 10
390.4255372945083
 20
41.48980853125546
 30
0.0
 10
391.620375358123
 20
39.42028955262843
 30
0.0
 10
392.3227743453272
 20
38.20369789422425
 30
0.0
 10
392.5757769687087
 20
37.76548416275876
 30
0.0
  0
ARC
  5
292
330
1F
100
AcDbEntity
  8
0
  6
Continuous
 62
     7
370
    30
100
AcDbCircle
 10
400.9979458718
 20
50.1778599333
 30
0.0
 40
15.0000000000001
100
AcDbArc
 50
175.8419327632
 51
184.1580672368
  0
SPLINE
  5
293
330
1F
100
AcDbEntity
  8
0
  6
Continuous
 62
     7
370
    30
100
AcDbSpline
210
0.0
220
0.0
230
1.0
 70
     8
 71
     3
 72
    12
 73
     8
 74
     0
 42
0.00000001
 43
0.00000001
 12
1.0
 22
0.0
 32
0.0
 13
1.0
 23
0.0
 33
0.0
 40
0.0
 40
0.0
 40
0.0
 40
0.0
 40
0.2238466714053894
 40
0.4546323620055412
 40
0.6623539705413432
 40
0.8783805891699794
 40
1.0
 40
1.0
 40
1.0
 40
1.0
 10
392.5757769687087
 20
62.59023570377725
 30
0.0
 10
392.1063895601845
 20
61.77723259002879
 30
0.0
 10
391.153064210769
 20
60.12602409270905
 30
0.0
 10
389.6661604030138
 20
57.55063094980717
 30
0.0
 10
388.18766812403
 20
54.98980871221519
 30
0.0
 10
386.9928316242079
 20
52.92028896122884
 30
0.0
 10
386.2904317115342
 20
51.70369781283566
 30
0.0
 10
386.0374286962659
 20
51.26548416369008
 30
0.0
  0
ARC
  5
294
330
1F
100
AcDbEntity
  8
0
  6
Continuous
 62
     7
370
    30
100
AcDbCircle
 10
400.9979458718
 20
50.1778599333
 30
0.0
 40
15.00000000000003
100
AcDbArc
 50
115.8419327632
 51
124.1580672368
  0
CIRCLE
  5
295
330
1F
100
AcDbEntity
  8
0
  6
Continuous
 62
     7
370
    30
100
AcDbCircle
 10
400.9979458718
 20
50.1778599333
 30
0.0
 40
12.99999999999994
  0
ARC
  5
296
330
1F
100
AcDbEntity
  8
0
  6
Continuous
 62
     7
370
    30
100
AcDbCircle
 10
400.9979458718
 20
50.1778599333
 30
0.0
 40
15.00000000000009
100
AcDbArc
 50
124.1580672368
 51
175.8419327632
  0
ARC
  5
297
330
1F
100
AcDbEntity
  8
0
  6
Continuous
 62
     7
370
    30
100
AcDbCircle
 10
400.9979458718
 20
50.1778599333
 30
0.0
 40
15.0000000000001
100
AcDbArc
 50
184.1580672368
 51
235.8419327632
  0
ARC
  5
298
330
1F
100
AcDbEntity
  8
0
  6
Continuous
 62
     7
370
    30
100
AcDbCircle
 10
400.9979458718
 20
50.1778599333
 30
0.0
 40
15.00000000000003
100
AcDbArc
 50
244.1580672368
 51
295.8419327632
  0
ARC
  5
299
330
1F
100
AcDbEntity
  8
0
  6
Continuous
 62
     7
370
    30
100
AcDbCircle
 10
400.9979458718
 20
50.1778599333
 30
0.0
 40
14.99999999999997
100
AcDbArc
 50
304.1580672368
 51
355.8419327632
  0
ARC
  5
29A
330
1F
100
AcDbEntity
  8
0
  6
Continuous
 62
     7
370
    30
100
AcDbCircle
 10
400.9979458718
 20
50.1778599333
 30
0.0
 40
15.0
100
AcDbArc
 50
4.1580672368
 51
55.8419327632
  0
ARC
  5
29B
330
1F
100
AcDbEntity
  8
0
  6
Continuous
 62
     7
370
    30
100
AcDbCircle
 10
400.9979458718
 20
50.1778599333
 30
0.0
 40
15.00000000000003
100
AcDbArc
 50
64.1580672368
 51
115.8419327632
  0
CIRCLE
  5
29C
330
1F
100
AcDbEntity
  8
0
  6
Continuous
 62
     7
370
    30
100
AcDbCircle
 10
400.9979458718
 20
50.1778599333
 30
0.0
 40
15.99999999999994
  0
LWPOLYLINE
  5
29D
330
1F
100
AcDbEntity
  8
0
  6
Continuous
 62
     7
370
    30
100
AcDbPolyline
 90
        3
 70
   128
 43
0.0
 10
391.4479462622
 20
27.2281866979
 10
391.2668552442
 20
28.371549071
 10
391.167577189
 20
28.6410291206
  0
ARC
  5
29E
330
1F
100
AcDbEntity
  8
0
  6
Continuous
 62
     7
370
    30
100
AcDbCircle
 10
387.7479458718
 20
27.228186733
 30
0.0
 40
3.700000000000045
100
AcDbArc
 50
292.4482808468
 51
0.0
  0
CIRCLE
  5
29F
330
1F
100
AcDbEntity
  8
0
  6
Continuous
 62
     7
370
    30
100
AcDbCircle
 10
387.7479458718
 20
27.228186733
 30
0.0
 40
3.600000000000023
  0
ARC
  5
2A0
330
1F
100
AcDbEntity
  8
0
  6
Continuous
 62
     7
370
    30
100
AcDbCircle
 10
387.7479458718
 20
27.228186733
 30
0.0
 40
6.000000000000036
100
AcDbArc
 50
322.4482808468
 51
22.4482808468
  0
ARC
  5
2A1
330
1F
100
AcDbEntity
  8
0
  6
Continuous
 62
     7
370
    30
100
AcDbCircle
 10
387.7479458718
 20
27.228186733
 30
0.0
 40
6.000000000000036
100
AcDbArc
 50
262.4482808468
 51
322.4482808468
  0
ARC
  5
2A2
330
1F
100
AcDbEntity
  8
0
  6
Continuous
 62
     7
370
    30
100
AcDbCircle
 10
387.7479458718
 20
27.228186733
 30
0.0
 40
6.0
100
AcDbArc
 50
202.4482808468
 51
262.4482808468
  0
ARC
  5
2A3
330
1F
100
AcDbEntity
  8
0
  6
Continuous
 62
     7
370
    30
100
AcDbCircle
 10
387.7479458718
 20
27.228186733
 30
0.0
 40
6.000000000000008
100
AcDbArc
 50
142.4482808468
 51
202.4482808468
  0
ARC
  5
2A4
330
1F
100
AcDbEntity
  8
0
  6
Continuous
 62
     7
370
    30
100
AcDbCircle
 10
387.7479458718
 20
27.228186733
 30
0.0
 40
6.000000000000008
100
AcDbArc
 50
82.4482808468
 51
142.4482808468
  0
ARC
  5
2A5
330
1F
100
AcDbEntity
  8
0
  6
Continuous
 62
     7
370
    30
100
AcDbCircle
 10
387.7479458718
 20
27.228186733
 30
0.0
 40
6.000000000000004
100
AcDbArc
 50
22.4482808468
 51
82.4482808468
  0
CIRCLE
  5
2A6
330
1F
100
AcDbEntity
  8
0
  6
Continuous
 62
     7
370
    30
100
AcDbCircle
 10
387.7479458718
 20
27.228186733
 30
0.0
 40
5.199999999999986
  0
SPLINE
  5
2A7
330
1F
100
AcDbEntity
  8
0
  6
Continuous
 62
     7
370
    30
100
AcDbSpline
210
0.0
220
0.0
230
1.0
 70
     8
 71
     3
 72
     9
 73
     5
 74
     0
 42
0.00000001
 43
0.00000001
 12
1.0
 22
0.0
 32
0.0
 13
1.0
 23
0.0
 33
0.0
 40
0.0
 40
0.0
 40
0.0
 40
0.0
 40
0.1460724846830915
 40
1.0
 40
1.0
 40
1.0
 40
1.0
 10
394.247916825673
 20
27.20872205604213
 30
0.0
 10
394.203403318669
 20
27.31646214735591
 30
0.0
 10
393.8986675766808
 20
28.05404179178739
 30
0.0
 10
393.5721315712998
 20
28.84438621914557
 30
0.0
 10
393.2932934915632
 20
29.5192830722441
 30
0.0
  0
ARC
  5
2A8
330
1F
100
AcDbEntity
  8
0
  6
Continuous
 62
     7
370
    30
100
AcDbCircle
 10
387.7479458718
 20
27.228186733
 30
0.0
 40
6.500000000000001
100
AcDbArc
 50
345.0681457949
 51
359.8284158988
  0
SPLINE
  5
2A9
330
1F
100
AcDbEntity
  8
0
  6
Continuous
 62
     7
370
    30
100
AcDbSpline
210
0.0
220
0.0
230
1.0
 70
     8
 71
     3
 72
    10
 73
     6
 74
     0
 42
0.00000001
 43
0.00000001
 12
1.0
 22
0.0
 32
0.0
 13
1.0
 23
0.0
 33
0.0
 40
0.0
 40
0.0
 40
0.0
 40
0.0
 40
0.0115214698395278
 40
0.7376958038974977
 40
0.9999999999999999
 40
0.9999999999999999
 40
0.9999999999999999
 40
0.9999999999999999
 10
392.5047673476845
 20
23.57132253159183
 30
0.0
 10
392.5107536741776
 20
23.57910997568835
 30
0.0
 10
392.8940457364072
 20
24.07772386029738
 30
0.0
 10
393.4172105553096
 20
24.75822032203115
 30
0.0
 10
393.9002736121062
 20
25.38658716874672
 30
0.0
 10
394.0284599741906
 20
25.55333156992095
 30
0.0
  0
ARC
  5
2AA
330
1F
100
AcDbEntity
  8
0
  6
Continuous
 62
     7
370
    30
100
AcDbCircle
 10
387.7479458718
 20
27.228186733
 30
0.0
 40
6.500000000000007
100
AcDbArc
 50
45.0681457949
 51
59.8284158988
  0
SPLINE
  5
2AB
330
1F
100
AcDbEntity
  8
0
  6
Continuous
 62
     7
370
    30
100
AcDbSpline
210
0.0
220
0.0
230
1.0
 70
     8
 71
     3
 72
    10
 73
     6
 74
     0
 42
0.00000001
 43
0.00000001
 12
1.0
 22
0.0
 32
0.0
 13
1.0
 23
0.0
 33
0.0
 40
0.0
 40
0.0
 40
0.0
 40
0.0
 40
0.0115208330369452
 40
0.7376953179871193
 40
0.9999999999999999
 40
0.9999999999999999
 40
0.9999999999999999
 40
0.9999999999999999
 10
393.2932934915632
 20
29.5192830722441
 30
0.0
 10
393.2895428772705
 20
29.52836066054816
 30
0.0
 10
393.049385712037
 20
30.10961154484151
 30
0.0
 10
392.7216315712581
 20
30.9029297788799
 30
0.0
 10
392.4189814851516
 20
31.6354588128263
 30
0.0
 10
392.3386696917922
 20
31.82984408844607
 30
0.0
  0
SPLINE
  5
2AC
330
1F
100
AcDbEntity
  8
0
  6
Continuous
 62
     7
370
    30
100
AcDbSpline
210
0.0
220
0.0
230
1.0
 70
     8
 71
     3
 72
     9
 73
     5
 74
     0
 42
0.00000001
 43
0.00000001
 12
1.0
 22
0.0
 32
0.0
 13
1.0
 23
0.0
 33
0.0
 40
0.0
 40
0.0
 40
0.0
 40
0.0
 40
0.1460723966976673
 40
0.9999999999999999
 40
0.9999999999999999
 40
0.9999999999999999
 40
0.9999999999999999
 10
391.0147890640408
 20
32.84759339798587
 30
0.0
 10
390.8992267234304
 20
32.86291368844064
 30
0.0
 10
390.108096138714
 20
32.96779517735392
 30
0.0
 10
389.2603696697025
 20
33.08017931834131
 30
0.0
 10
388.5364726377637
 20
33.17614723850387
 30
0.0
  0
CIRCLE
  5
2AD
330
1F
100
AcDbEntity
  8
0
  6
Continuous
 62
     7
370
    30
100
AcDbCircle
 10
387.7479458718
 20
27.228186733
 30
0.0
 40
3.700000000000007
  0
ARC
  5
2AE
330
1F
100
AcDbEntity
  8
0
  6
Continuous
 62
     7
370
    30
100
AcDbCircle
 10
387.7479458718
 20
27.228186733
 30
0.0
 40
6.500000000000004
100
AcDbArc
 50
285.0681457949
 51
299.8284158988
  0
SPLINE
  5
2AF
330
1F
100
AcDbEntity
  8
0
  6
Continuous
 62
     7
370
    30
100
AcDbSpline
210
0.0
220
0.0
230
1.0
 70
     8
 71
     3
 72
     9
 73
     5
 74
     0
 42
0.00000001
 43
0.00000001
 12
1.0
 22
0.0
 32
0.0
 13
1.0
 23
0.0
 33
0.0
 40
0.0
 40
0.0
 40
0.0
 40
0.0
 40
0.9680506971370135
 40
1.0
 40
1.0
 40
1.0
 40
1.0
 10
389.4377358449609
 20
20.95167417932646
 30
0.0
 10
388.6467153876745
 20
21.05654477512102
 30
0.0
 10
387.8295882892429
 20
21.1648764938055
 30
0.0
 10
386.9863599754632
 20
21.27665491458043
 30
0.0
 10
386.9594194186837
 20
21.28022615719932
 30
0.0
  0
SPLINE
  5
2B0
330
1F
100
AcDbEntity
  8
0
  6
Continuous
 62
     7
370
    30
100
AcDbSpline
210
0.0
220
0.0
230
1.0
 70
     8
 71
     3
 72
     9
 73
     5
 74
     0
 42
0.00000001
 43
0.00000001
 12
1.0
 22
0.0
 32
0.0
 13
1.0
 23
0.0
 33
0.0
 40
0.0
 40
0.0
 40
0.0
 40
0.0
 40
0.1460724196226834
 40
1.0
 40
1.0
 40
1.0
 40
1.0
 10
390.9810733241946
 20
21.5893134932627
 30
0.0
 10
391.0521223188735
 20
21.68173329107076
 30
0.0
 10
391.5385180044002
 20
22.31443177067963
 30
0.0
 10
392.0597084508402
 20
22.99239285945979
 30
0.0
 10
392.5047673476845
 20
23.57132253159183
 30
0.0
  0
SPLINE
  5
2B1
330
1F
100
AcDbEntity
  8
0
  6
Continuous
 62
     7
370
    30
100
AcDbSpline
210
0.0
220
0.0
230
1.0
 70
     8
 71
     3
 72
     9
 73
     5
 74
     0
 42
0.00000001
 43
0.00000001
 12
1.0
 22
0.0
 32
0.0
 13
1.0
 23
0.0
 33
0.0
 40
0.0
 40
0.0
 40
0.0
 40
0.0
 40
0.1460724835844013
 40
1.0
 40
1.0
 40
1.0
 40
1.0
 10
384.5148178009302
 20
32.86705990244048
 30
0.0
 10
384.4437688013996
 20
32.77464010841177
 30
0.0
 10
383.9573732956405
 20
32.14194193171991
 30
0.0
 10
383.4361837415724
 20
31.46398065411903
 30
0.0
 10
382.9911256400854
 20
30.88505086411136
 30
0.0
  0
ARC
  5
2B2
330
1F
100
AcDbEntity
  8
0
  6
Continuous
 62
     7
370
    30
100
AcDbCircle
 10
387.7479458718
 20
27.228186733
 30
0.0
 40
6.500000000000007
100
AcDbArc
 50
105.0681457949
 51
119.8284158988
  0
SPLINE
  5
2B3
330
1F
100
AcDbEntity
  8
0
  6
Continuous
 62
     7
370
    30
100
AcDbSpline
210
0.0
220
0.0
230
1.0
 70
     8
 71
     3
 72
     9
 73
     5
 74
     0
 42
0.00000001
 43
0.00000001
 12
1.0
 22
0.0
 32
0.0
 13
1.0
 23
0.0
 33
0.0
 40
0.0
 40
0.0
 40
0.0
 40
0.0
 40
0.9680503354734608
 40
1.0
 40
1.0
 40
1.0
 40
1.0
 10
386.0581562114865
 20
33.50469921637671
 30
0.0
 10
386.849176276897
 20
33.39982800793984
 30
0.0
 10
387.6663032757979
 20
33.29149561592058
 30
0.0
 10
388.5095317702468
 20
33.17971848048285
 30
0.0
 10
388.5364726377637
 20
33.17614723850387
 30
0.0
  0
ARC
  5
2B4
330
1F
100
AcDbEntity
  8
0
  6
Continuous
 62
     7
370
    30
100
AcDbCircle
 10
387.7479458718
 20
27.228186733
 30
0.0
 40
6.500000000000006
100
AcDbArc
 50
225.0681457949
 51
239.8284158988
  0
SPLINE
  5
2B5
330
1F
100
AcDbEntity
  8
0
  6
Continuous
 62
     7
370
    30
100
AcDbSpline
210
0.0
220
0.0
230
1.0
 70
     8
 71
     3
 72
     9
 73
     5
 74
     0
 42
0.00000001
 43
0.00000001
 12
1.0
 22
0.0
 32
0.0
 13
1.0
 23
0.0
 33
0.0
 40
0.0
 40
0.0
 40
0.0
 40
0.0
 40
0.1460725706472483
 40
1.0
 40
1.0
 40
1.0
 40
1.0
 10
383.1572214333326
 20
22.62652930725711
 30
0.0
 10
383.1127077564001
 20
22.73426939264944
 30
0.0
 10
382.8079710304347
 20
23.4718485624754
 30
0.0
 10
382.4814361346752
 20
24.26219328567486
 30
0.0
 10
382.2025990305454
 20
24.93709032345908
 30
0.0
  0
SPLINE
  5
2B6
330
1F
100
AcDbEntity
  8
0
  6
Continuous
 62
     7
370
    30
100
AcDbSpline
210
0.0
220
0.0
230
1.0
 70
     8
 71
     3
 72
     9
 73
     5
 74
     0
 42
0.00000001
 43
0.00000001
 12
1.0
 22
0.0
 32
0.0
 13
1.0
 23
0.0
 33
0.0
 40
0.0
 40
0.0
 40
0.0
 40
0.0
 40
0.1460726869910852
 40
1.0
 40
1.0
 40
1.0
 40
1.0
 10
384.481102061084
 20
21.60877999771731
 30
0.0
 10
384.5966647133606
 20
21.59345971010591
 30
0.0
 10
385.3877958594848
 20
21.48857844909147
 30
0.0
 10
386.2355224926548
 20
21.37619416604533
 30
0.0
 10
386.9594194186837
 20
21.28022615719931
 30
0.0
  0
ARC
  5
2B7
330
1F
100
AcDbEntity
  8
0
  6
Continuous
 62
     7
370
    30
100
AcDbCircle
 10
387.7479458718
 20
27.228186733
 30
0.0
 40
6.500000000000009
100
AcDbArc
 50
165.0681457949
 51
179.8284158988
  0
SPLINE
  5
2B8
330
1F
100
AcDbEntity
  8
0
  6
Continuous
 62
     7
370
    30
100
AcDbSpline
210
0.0
220
0.0
230
1.0
 70
     8
 71
     3
 72
     9
 73
     5
 74
     0
 42
0.00000001
 43
0.00000001
 12
1.0
 22
0.0
 32
0.0
 13
1.0
 23
0.0
 33
0.0
 40
0.0
 40
0.0
 40
0.0
 40
0.0
 40
0.9680503047885137
 40
1.0
 40
1.0
 40
1.0
 40
1.0
 10
381.4674316165954
 20
28.90304182578223
 30
0.0
 10
381.9537551764715
 20
29.53565588338266
 30
0.0
 10
382.4561294409807
 20
30.18914884182828
 30
0.0
 10
382.9745618816192
 20
30.86350537830699
 30
0.0
 10
382.9911256400854
 20
30.88505086411136
 30
0.0
  0
SPLINE
  5
2B9
330
1F
100
AcDbEntity
  8
0
  6
Continuous
 62
     7
370
    30
100
AcDbSpline
210
0.0
220
0.0
230
1.0
 70
     8
 71
     3
 72
     9
 73
     5
 74
     0
 42
0.00000001
 43
0.00000001
 12
1.0
 22
0.0
 32
0.0
 13
1.0
 23
0.0
 33
0.0
 40
0.0
 40
0.0
 40
0.0
 40
0.0
 40
0.1460730718612656
 40
1.0
 40
1.0
 40
1.0
 40
1.0
 10
381.247974765113
 20
27.2476532023062
 30
0.0
 10
381.2924884200241
 20
27.13991248521019
 30
0.0
 10
381.5972239496049
 20
26.40233152163367
 30
0.0
 10
381.9237605955493
 20
25.61198688833918
 30
0.0
 10
382.2025990305454
 20
24.93709032345908
 30
0.0
  0
CIRCLE
  5
2BA
330
1F
100
AcDbEntity
  8
0
  6
Continuous
 62
     7
370
    30
100
AcDbCircle
 10
400.9979458718
 20
76.6778599333
 30
0.0
 40
5.699999999999989
  0
ARC
  5
2BB
330
1F
100
AcDbEntity
  8
0
  6
Continuous
 62
     7
370
    30
100
AcDbCircle
 10
400.9979458718
 20
76.6778599333
 30
0.0
 40
7.999999999999989
100
AcDbArc
 50
322.4482808468
 51
22.4482808468
  0
ARC
  5
2BC
330
1F
100
AcDbEntity
  8
0
  6
Continuous
 62
     7
370
    30
100
AcDbCircle
 10
400.9979458718
 20
76.6778599333
 30
0.0
 40
8.000000000000007
100
AcDbArc
 50
262.4482808468
 51
322.4482808468
  0
ARC
  5
2BD
330
1F
100
AcDbEntity
  8
0
  6
Continuous
 62
     7
370
    30
100
AcDbCircle
 10
400.9979458718
 20
76.6778599333
 30
0.0
 40
8.000000000000025
100
AcDbArc
 50
202.4482808468
 51
262.4482808468
  0
ARC
  5
2BE
330
1F
100
AcDbEntity
  8
0
  6
Continuous
 62
     7
370
    30
100
AcDbCircle
 10
400.9979458718
 20
76.6778599333
 30
0.0
 40
8.000000000000025
100
AcDbArc
 50
142.4482808468
 51
202.4482808468
  0
ARC
  5
2BF
330
1F
100
AcDbEntity
  8
0
  6
Continuous
 62
     7
370
    30
100
AcDbCircle
 10
400.9979458718
 20
76.6778599333
 30
0.0
 40
7.999999999999993
100
AcDbArc
 50
82.4482808468
 51
142.4482808468
  0
ARC
  5
2C0
330
1F
100
AcDbEntity
  8
0
  6
Continuous
 62
     7
370
    30
100
AcDbCircle
 10
400.9979458718
 20
76.6778599333
 30
0.0
 40
7.999999999999993
100
AcDbArc
 50
22.4482808468
 51
82.4482808468
  0
SPLINE
  5
2C1
330
1F
100
AcDbEntity
  8
0
  6
Continuous
 62
     7
370
    30
100
AcDbSpline
210
0.0
220
0.0
230
1.0
 70
     8
 71
     3
 72
     9
 73
     5
 74
     0
 42
0.00000001
 43
0.00000001
 12
1.0
 22
0.0
 32
0.0
 13
1.0
 23
0.0
 33
0.0
 40
0.0
 40
0.0
 40
0.0
 40
0.0
 40
0.9011759997455425
 40
1.0
 40
1.0
 40
1.0
 40
1.0
 10
409.4885213492424
 20
77.07802099097866
 30
0.0
 10
409.1623098223408
 20
77.86757691063525
 30
0.0
 10
408.8003255628914
 20
78.74371644373373
 30
0.0
 10
408.4284891606938
 20
79.6437140440039
 30
0.0
 10
408.3917427999884
 20
79.73265540708202
 30
0.0
  0
ARC
  5
2C2
330
1F
100
AcDbEntity
  8
0
  6
Continuous
 62
     7
370
    30
100
AcDbCircle
 10
400.9979458718
 20
76.6778599333
 30
0.0
 40
8.499999999999995
100
AcDbArc
 50
342.1982036425
 51
2.6983580512
  0
SPLINE
  5
2C3
330
1F
100
AcDbEntity
  8
0
  6
Continuous
 62
     7
370
    30
100
AcDbSpline
210
0.0
220
0.0
230
1.0
 70
     8
 71
     3
 72
     9
 73
     5
 74
     0
 42
0.00000001
 43
0.00000001
 12
1.0
 22
0.0
 32
0.0
 13
1.0
 23
0.0
 33
0.0
 40
0.0
 40
0.0
 40
0.0
 40
0.0
 40
0.0566470080771941
 40
1.0
 40
1.0
 40
1.0
 40
1.0
 10
407.3403741424889
 20
71.80204135287899
 30
0.0
 10
407.373966780375
 20
71.84573827106075
 30
0.0
 10
407.9669837644377
 20
72.61712796426792
 30
0.0
 10
408.5453553710166
 20
73.36947088402486
 30
0.0
 10
409.090963956526
 20
74.0791958283295
 30
0.0
  0
ARC
  5
2C4
330
1F
100
AcDbEntity
  8
0
  6
Continuous
 62
     7
370
    30
100
AcDbCircle
 10
400.9979458718
 20
76.6778599333
 30
0.0
 40
8.500000000000028
100
AcDbArc
 50
42.1982036425
 51
62.6983580512
  0
SPLINE
  5
2C5
330
1F
100
AcDbEntity
  8
0
  6
Continuous
 62
     7
370
    30
100
AcDbSpline
210
0.0
220
0.0
230
1.0
 70
     8
 71
     3
 72
     9
 73
     5
 74
     0
 42
0.00000001
 43
0.00000001
 12
1.0
 22
0.0
 32
0.0
 13
1.0
 23
0.0
 33
0.0
 40
0.0
 40
0.0
 40
0.0
 40
0.0
 40
0.7405170854825087
 40
1.0
 40
1.0
 40
1.0
 40
1.0
 10
408.3917427999884
 20
79.73265540708202
 30
0.0
 10
408.1152317445262
 20
80.40191949409994
 30
0.0
 10
407.7418290764676
 20
81.30569889384444
 30
0.0
 10
407.3870284783462
 20
82.1644538571581
 30
0.0
 10
407.2949637850732
 20
82.38728609789509
 30
0.0
  0
LINE
  5
2C6
330
1F
100
AcDbEntity
  8
0
  6
Continuous
 62
     7
370
    30
100
AcDbLine
 10
404.896683591
 20
84.2309955965
 30
0.0
 11
402.0493145293
 21
84.6084718119
 31
0.0
  0
LINE
  5
2C7
330
1F
100
AcDbEntity
  8
0
  6
Continuous
 62
     7
370
    30
100
AcDbLine
 10
405.5897833971
 20
69.5248868774
 30
0.0
 11
407.3403741425
 21
71.8020413529
 31
0.0
  0
ARC
  5
2C8
330
1F
100
AcDbEntity
  8
0
  6
Continuous
 62
     7
370
    30
100
AcDbCircle
 10
400.9979458718
 20
76.6778599333
 30
0.0
 40
8.50000000000001
100
AcDbArc
 50
282.1982036425
 51
302.6983580512
  0
SPLINE
  5
2C9
330
1F
100
AcDbEntity
  8
0
  6
Continuous
 62
     7
370
    30
100
AcDbSpline
210
0.0
220
0.0
230
1.0
 70
     8
 71
     3
 72
     9
 73
     5
 74
     0
 42
0.00000001
 43
0.00000001
 12
1.0
 22
0.0
 32
0.0
 13
1.0
 23
0.0
 33
0.0
 40
0.0
 40
0.0
 40
0.0
 40
0.0
 40
0.0566472672925915
 40
1.0
 40
1.0
 40
1.0
 40
1.0
 10
399.9465772142619
 20
68.74724742878574
 30
0.0
 10
400.001216455949
 20
68.74000395230902
 30
0.0
 10
400.9657685746743
 20
68.61213412163738
 30
0.0
 10
401.9065023664282
 20
68.48741936101763
 30
0.0
 10
402.7939461596296
 20
68.36976935077804
 30
0.0
  0
LINE
  5
2CA
330
1F
100
AcDbEntity
  8
0
  6
Continuous
 62
     7
370
    30
100
AcDbLine
 10
397.0992081525
 20
69.1247255068
 30
0.0
 11
399.9465772143
 21
68.7472474288
 31
0.0
  0
ARC
  5
2CB
330
1F
100
AcDbEntity
  8
0
  6
Continuous
 62
     7
370
    30
100
AcDbCircle
 10
400.9979458718
 20
76.6778599333
 30
0.0
 40
8.5
100
AcDbArc
 50
222.1982036425
 51
242.6983580512
  0
SPLINE
  5
2CC
330
1F
100
AcDbEntity
  8
0
  6
Continuous
 62
     7
370
    30
100
AcDbSpline
210
0.0
220
0.0
230
1.0
 70
     8
 71
     3
 72
     9
 73
     5
 74
     0
 42
0.00000001
 43
0.00000001
 12
1.0
 22
0.0
 32
0.0
 13
1.0
 23
0.0
 33
0.0
 40
0.0
 40
0.0
 40
0.0
 40
0.0
 40
0.0988235237971289
 40
0.9999999999999999
 40
0.9999999999999999
 40
0.9999999999999999
 40
0.9999999999999999
 10
393.6041489435345
 20
73.62306569625038
 30
0.0
 10
393.6408954765093
 20
73.53412496203154
 30
0.0
 10
394.0127354146422
 20
72.63412938606508
 30
0.0
 10
394.3747178778284
 20
71.757989656733
 30
0.0
 10
394.7009279584498
 20
70.96843314279216
 30
0.0
  0
LINE
  5
2CD
330
1F
100
AcDbEntity
  8
0
  6
Continuous
 62
     7
370
    30
100
AcDbLine
 10
396.4061083464
 20
83.8308323633
 30
0.0
 11
394.655517601
 21
81.5536778878
 31
0.0
  0
ARC
  5
2CE
330
1F
100
AcDbEntity
  8
0
  6
Continuous
 62
     7
370
    30
100
AcDbCircle
 10
400.9979458718
 20
76.6778599333
 30
0.0
 40
8.50000000000001
100
AcDbArc
 50
102.1982036425
 51
122.6983580512
  0
SPLINE
  5
2CF
330
1F
100
AcDbEntity
  8
0
  6
Continuous
 62
     7
370
    30
100
AcDbSpline
210
0.0
220
0.0
230
1.0
 70
     8
 71
     3
 72
     9
 73
     5
 74
     0
 42
0.00000001
 43
0.00000001
 12
1.0
 22
0.0
 32
0.0
 13
1.0
 23
0.0
 33
0.0
 40
0.0
 40
0.0
 40
0.0
 40
0.0
 40
0.0566473464347169
 40
1.0
 40
1.0
 40
1.0
 40
1.0
 10
402.049314529261
 20
84.60847181190151
 30
0.0
 10
401.9946752897915
 20
84.61571592655159
 30
0.0
 10
401.030124557791
 20
84.74359684430019
 30
0.0
 10
400.0893900130116
 20
84.86830653495234
 30
0.0
 10
399.2019455838934
 20
84.98595175255436
 30
0.0
  0
SPLINE
  5
2D0
330
1F
100
AcDbEntity
  8
0
  6
Continuous
 62
     7
370
    30
100
AcDbSpline
210
0.0
220
0.0
230
1.0
 70
     8
 71
     3
 72
     9
 73
     5
 74
     0
 42
0.00000001
 43
0.00000001
 12
1.0
 22
0.0
 32
0.0
 13
1.0
 23
0.0
 33
0.0
 40
0.0
 40
0.0
 40
0.0
 40
0.0
 40
0.2594827786364385
 40
1.0
 40
1.0
 40
1.0
 40
1.0
 10
392.5073703942806
 20
76.27769824970859
 30
0.0
 10
392.5994351036092
 20
76.0548660154176
 30
0.0
 10
392.954235949401
 20
75.19611062724906
 30
0.0
 10
393.3276381692448
 20
74.29233046828784
 30
0.0
 10
393.6041489435345
 20
73.62306569625038
 30
0.0
  0
ARC
  5
2D1
330
1F
100
AcDbEntity
  8
0
  6
Continuous
 62
     7
370
    30
100
AcDbCircle
 10
400.9979458718
 20
76.6778599333
 30
0.0
 40
8.50000000000005
100
AcDbArc
 50
162.1982036425
 51
182.6983580512
  0
SPLINE
  5
2D2
330
1F
100
AcDbEntity
  8
0
  6
Continuous
 62
     7
370
    30
100
AcDbSpline
210
0.0
220
0.0
230
1.0
 70
     8
 71
     3
 72
     9
 73
     5
 74
     0
 42
0.00000001
 43
0.00000001
 12
1.0
 22
0.0
 32
0.0
 13
1.0
 23
0.0
 33
0.0
 40
0.0
 40
0.0
 40
0.0
 40
0.0
 40
0.0566470080771941
 40
1.0
 40
1.0
 40
1.0
 40
1.0
 10
394.6555176010341
 20
81.55367788780826
 30
0.0
 10
394.6219249631479
 20
81.50998096962648
 30
0.0
 10
394.0289079790852
 20
80.73859127641931
 30
0.0
 10
393.4505363725063
 20
79.98624835666239
 30
0.0
 10
392.904927786997
 20
79.27652341235775
 30
0.0
  0
ARC
  5
2D3
330
1F
100
AcDbEntity
  8
0
  6
Continuous
 62
     7
370
    30
100
AcDbCircle
 10
400.9979458718
 20
76.6778599333
 30
0.0
 40
8.499999999999941
100
AcDbArc
 50
215.6517146362
 51
222.1982036425
  0
LINE
  5
2D4
330
1F
100
AcDbEntity
  8
0
  6
Continuous
 62
     7
370
    30
100
AcDbLine
 10
393.4294421418
 20
74.0459252607
 30
0.0
 11
394.0910583554
 21
71.7235792886
 31
0.0
  0
ARC
  5
2D5
330
1F
100
AcDbEntity
  8
0
  6
Continuous
 62
     7
370
    30
100
AcDbCircle
 10
400.9979458718
 20
76.6778599333
 30
0.0
 40
8.500000000000062
100
AcDbArc
 50
35.6517146362
 51
42.1982036425
  0
LINE
  5
2D6
330
1F
100
AcDbEntity
  8
0
  6
Continuous
 62
     7
370
    30
100
AcDbLine
 10
408.5664496018
 20
79.3097958427
 30
0.0
 11
407.9048333881
 21
81.6321399521
 31
0.0
  0
ARC
  5
2D7
330
1F
100
AcDbEntity
  8
0
  6
Continuous
 62
     7
370
    30
100
AcDbCircle
 10
400.9979458718
 20
50.1778599333
 30
0.0
 40
35.00000000000006
100
AcDbArc
 50
34.04773237
 51
145.95226763
  0
ARC
  5
2D8
330
1F
100
AcDbEntity
  8
0
  6
Continuous
 62
     7
370
    30
100
AcDbCircle
 10
400.9979458718
 20
50.1778599333
 30
0.0
 40
35.00000000000008
100
AcDbArc
 50
214.04773237
 51
325.95226763
  0
LINE
  5
2D9
330
1F
100
AcDbEntity
  8
0
  6
Continuous
 62
     7
370
    30
100
AcDbLine
 10
429.9979450373
 20
69.7737772476
 30
0.0
 11
429.9979450373
 21
30.581942619
 31
0.0
  0
CIRCLE
  5
2DA
330
1F
100
AcDbEntity
  8
0
  6
Continuous
 62
     7
370
    30
100
AcDbCircle
 10
378.0166125782
 20
69.4614882239
 30
0.0
 40
2.349999999999966
  0
CIRCLE
  5
2DB
330
1F
100
AcDbEntity
  8
0
  6
Continuous
 62
     7
370
    30
100
AcDbCircle
 10
423.9792791653
 20
69.4614882239
 30
0.0
 40
2.350000000000023
  0
CIRCLE
  5
2DC
330
1F
100
AcDbEntity
  8
0
  6
Continuous
 62
     7
370
    30
100
AcDbCircle
 10
378.0166125782
 20
30.8942316427
 30
0.0
 40
2.349999999999966
  0
CIRCLE
  5
2DD
330
1F
100
AcDbEntity
  8
0
  6
Continuous
 62
     7
370
    30
100
AcDbCircle
 10
423.9792791653
 20
30.8942316427
 30
0.0
 40
2.350000000000023
  0
LINE
  5
2DE
330
1F
100
AcDbEntity
  8
0
  6
Continuous
 62
     7
370
    30
100
AcDbLine
 10
371.9979467062
 20
30.581942619
 30
0.0
 11
371.9979467062
 21
69.7737772476
 31
0.0
  0
DIMENSION
  5
2DF
330
1F
100
AcDbEntity
  8
1
100
AcDbDimension
  2
_D_10
 10
429.9979458718
 20
0.690544921
 30
0.0
 11
400.9979458718
 21
0.690544921
 31
0.0
 70
   160
  1
<>
 71
     2
 42
-1.0
  3
SLDDIMSTYLE1
100
AcDbAlignedDimension
 13
371.9979458718
 23
30.581941991
 33
0.0
 14
429.9979458718
 24
30.581941991
 34
0.0
 50
0.0
100
AcDbRotatedDimension
  0
MTEXT
  5
2E9
330
1F
100
AcDbEntity
  8
1
100
AcDbMText
 10
356.1603483771
 20
19.8215590468
 30
0.0
 40
3.5
 41
0.0
 71
     1
 72
     1
  1
ｹｰﾌﾞﾙ
  7
SLDTEXTSTYLE0
 73
     1
 44
1.0
  0
LEADER
  5
2F3
330
1F
100
AcDbEntity
  8
1
100
AcDbLeader
  3
SLDDIMSTYLE2
 76
     3
 10
387.5386968716
 20
25.8549909814
 30
0.0
 10
367.6483622351
 20
15.3179190751
 30
0.0
 10
356.0693641618
 20
15.3179190751
 30
0.0
  0
MTEXT
  5
2F4
330
1F
100
AcDbEntity
  8
1
100
AcDbMText
 10
363.3345685709
 20
-2.1789172821
 30
0.0
 40
3.5
 41
0.0
 71
     1
 72
     1
  1
ﾄﾞﾚﾝ排出口φ6
  7
SLDTEXTSTYLE0
 73
     1
 44
1.0
  0
LEADER
  5
2F5
330
1F
100
AcDbEntity
  8
1
100
AcDbLeader
  3
SLDDIMSTYLE2
 76
     3
 10
401.135031297
 20
20.1898516375
 30
0.0
 10
389.6136801541
 20
-6.6473988439
 30
0.0
 10
363.2947976879
 20
-6.6473988439
 30
0.0
  0
MTEXT
  5
2F6
330
1F
100
AcDbEntity
  8
1
100
AcDbMText
 10
432.995804492
 20
11.773043107
 30
0.0
 40
3.5
 41
0.0
 71
     1
 72
     1
  1
冷却ｴｱ供給口φ6
  7
SLDTEXTSTYLE0
 73
     1
 44
1.0
  0
LEADER
  5
2F7
330
1F
100
AcDbEntity
  8
1
100
AcDbLeader
  3
SLDDIMSTYLE2
 76
     3
 10
414.8185217123
 20
25.1577430622
 30
0.0
 10
432.4479768786
 20
7.3217726397
 30
0.0
 10
464.3545279383
 20
7.3217726397
 30
0.0
  0
INSERT
  5
2FD
102
{ACAD_REACTORS
330
2FE
102
}
330
1F
100
AcDbEntity
  8
1
100
AcDbBlockReference
  2
SW_NOTE_0
 10
455.5876685934
 20
77.9383429672
 30
0.0
  0
LEADER
  5
2FE
330
1F
100
AcDbEntity
  8
1
100
AcDbLeader
  3
SLDDIMSTYLE2
 73
     2
 76
     3
 10
401.2615594005
 20
50.1263822464
 30
0.0
 10
427.2456647399
 20
77.9383429672
 30
0.0
 10
455.5876685934
 20
77.9383429672
 30
0.0
340
2FD
  0
MTEXT
  5
2FF
330
1F
100
AcDbEntity
  8
1
100
AcDbMText
 10
372.9760476686
 20
92.7066957684
 30
0.0
 40
3.5
 41
0.0
 71
     1
 72
     1
  1
ｹｰﾌﾞﾙ
  7
SLDTEXTSTYLE0
 73
     1
 44
1.0
  0
LEADER
  5
300
330
1F
100
AcDbEntity
  8
1
100
AcDbLeader
  3
SLDDIMSTYLE2
 76
     3
 10
398.4552007542
 20
76.4368691735
 30
0.0
 10
384.5077071291
 20
88.246628131
 30
0.0
 10
372.9287090559
 20
88.246628131
 30
0.0
  0
ENDSEC
  0
SECTION
  2
OBJECTS
  0
DICTIONARY
  5
C
330
0
100
AcDbDictionary
281
     1
  3
ACAD_GROUP
350
D
  3
ACAD_LAYOUT
350
1A
  3
ACAD_MLINESTYLE
350
17
  3
ACAD_PLOTSETTINGS
350
19
  3
ACAD_PLOTSTYLENAME
350
E
  0
DICTIONARY
  5
D
102
{ACAD_REACTORS
330
C
102
}
330
C
100
AcDbDictionary
281
     1
  0
DICTIONARY
  5
1A
102
{ACAD_REACTORS
330
C
102
}
330
C
100
AcDbDictionary
281
     1
  3
Layout1
350
1E
  3
Layout2
350
26
  3
Model
350
22
  0
DICTIONARY
  5
17
102
{ACAD_REACTORS
330
C
102
}
330
C
100
AcDbDictionary
281
     1
  3
Standard
350
18
  0
DICTIONARY
  5
19
102
{ACAD_REACTORS
330
C
102
}
330
C
100
AcDbDictionary
281
     1
  0
ACDBDICTIONARYWDFLT
  5
E
102
{ACAD_REACTORS
330
C
102
}
330
C
100
AcDbDictionary
281
     1
  3
Normal
350
F
100
AcDbDictionaryWithDefault
340
F
  0
LAYOUT
  5
1E
102
{ACAD_REACTORS
330
1A
102
}
330
1A
100
AcDbPlotSettings
  1

  2
none_device
  4

  6

 40
0.0
 41
0.0
 42
0.0
 43
0.0
 44
0.0
 45
0.0
 46
0.0
 47
0.0
 48
0.0
 49
0.0
140
0.0
141
0.0
142
1.0
143
1.0
 70
   688
 72
     0
 73
     0
 74
     5
  7

 75
    16
147
1.0
148
0.0
149
0.0
100
AcDbLayout
  1
Layout1
 70
     1
 71
     1
 10
0.0
 20
0.0
 11
420.0
 21
297.0
 12
0.0
 22
0.0
 32
0.0
 14
1.0000000000E+20
 24
1.0000000000E+20
 34
1.0000000000E+20
 15
-1.0000000000E+20
 25
-1.0000000000E+20
 35
-1.0000000000E+20
146
0.0
 13
0.0
 23
0.0
 33
0.0
 16
1.0
 26
0.0
 36
0.0
 17
0.0
 27
1.0
 37
0.0
 76
     0
330
1B
  0
LAYOUT
  5
26
102
{ACAD_REACTORS
330
1A
102
}
330
1A
100
AcDbPlotSettings
  1

  2
none_device
  4

  6

 40
0.0
 41
0.0
 42
0.0
 43
0.0
 44
0.0
 45
0.0
 46
0.0
 47
0.0
 48
0.0
 49
0.0
140
0.0
141
0.0
142
1.0
143
1.0
 70
   688
 72
     0
 73
     0
 74
     5
  7

 75
    16
147
1.0
148
0.0
149
0.0
100
AcDbLayout
  1
Layout2
 70
     1
 71
     2
 10
0.0
 20
0.0
 11
0.0
 21
0.0
 12
0.0
 22
0.0
 32
0.0
 14
0.0
 24
0.0
 34
0.0
 15
0.0
 25
0.0
 35
0.0
146
0.0
 13
0.0
 23
0.0
 33
0.0
 16
1.0
 26
0.0
 36
0.0
 17
0.0
 27
1.0
 37
0.0
 76
     0
330
23
  0
LAYOUT
  5
22
102
{ACAD_REACTORS
330
1A
102
}
330
1A
100
AcDbPlotSettings
  1

  2
none_device
  4

  6

 40
0.0
 41
0.0
 42
0.0
 43
0.0
 44
0.0
 45
0.0
 46
0.0
 47
0.0
 48
0.0
 49
0.0
140
0.0
141
0.0
142
1.0
143
1.0
 70
  1712
 72
     0
 73
     0
 74
     0
  7

 75
     0
147
1.0
148
0.0
149
0.0
100
AcDbLayout
  1
Model
 70
     1
 71
     0
 10
0.0
 20
0.0
 11
297.0
 21
210.0
 12
0.0
 22
0.0
 32
0.0
 14
0.0
 24
0.0
 34
0.0
 15
297.0
 25
210.0
 35
0.0
146
0.0
 13
0.0
 23
0.0
 33
0.0
 16
1.0
 26
0.0
 36
0.0
 17
0.0
 27
1.0
 37
0.0
 76
     0
330
1F
331
29
  0
MLINESTYLE
  5
18
102
{ACAD_REACTORS
330
17
102
}
330
17
100
AcDbMlineStyle
  2
Standard
 70
     0
  3

 62
   256
 51
90.0
 52
90.0
 71
     2
 49
0.5
 62
   256
  6
BYLAYER
 49
-0.5
 62
   256
  6
BYLAYER
  0
ACDBPLACEHOLDER
  5
F
102
{ACAD_REACTORS
330
E
102
}
330
E
  0
ENDSEC
  0
EOF
