  0
SECTION
  2
HEADER
  9
$ACADVER
  1
AC1009
  9
$INSBASE
 10
0.000000000
 20
0.000000000
  9
$EXTMIN
 10
-26.646521739
 20
-25.552536232
  9
$EXTMAX
 10
293.111739130
 20
281.077898551
  9
$LIMMIN
 10
-26.646521739
 20
-25.552536232
  9
$LIMMAX
 10
293.111739130
 20
281.077898551
  9
$SNAPBASE
 10
0.000000000
 20
0.000000000
  9
$SNAPANG
 50
0.000000000
  9
$SNAPSTYLE
 70
0
  9
$GRIDMODE
 70
0
  9
$GRIDUNIT
 10
0.000000000
 20
0.000000000
  9
$DIMEXO
 40
0.000000000
  9
$DIMDLI
 40
8.000000000
  9
$DIMDLE
 40
0.000000000
  9
$DIMEXE
 40
1.000000000
  9
$DIMTIH
 70
1
  9
$DIMTOH
 70
1
  9
$DIMTAD
 70
2
  9
$DIMZIN
 70
0
  9
$FILLETRAD
 40
1.000000000
  9
$CHAMFERA
 40
1.000000000
  9
$CHAMFERB
 40
1.000000000
  9
$TDCREATE
 40
2454182.600173611
  9
$TDUPDATE
 40
2454182.600173611
  9
$ANGBASE
 50
0.000000000
  9
$ANGDIR
 70
0
  0
ENDSEC
  0
SECTION
  2
TABLES
  0
TABLE
  2
LTYPE
 70
4
  0
LTYPE
  2
CENTER
 70
64
  3
___ _ ___ _ __
 72
65
 73
4
 40
13.000000000
 49
8.500000000
 49
-1.500000000
 49
1.500000000
 49
-1.500000000
  0
LTYPE
  2
CONTINUOUS
 70
64
  3
______________
 72
65
 73
0
 40
0.000000000
  0
LTYPE
  2
DASHED
 70
64
  3
___ ___ ___ __
 72
65
 73
2
 40
5.000000119
 49
3.400000095
 49
-1.600000024
  0
LTYPE
  2
DIVIDE
 70
64
  3
___ . . ___ . 
 72
65
 73
6
 40
12.999999523
 49
5.199999809
 49
-2.599999905
 49
0.000000000
 49
-2.599999905
 49
0.000000000
 49
-2.599999905
  0
ENDTAB
  0
TABLE
  2
LAYER
 70
2
  0
LAYER
  2
1
 70
0
 62
7
  6
CONTINUOUS
  0
LAYER
  2
15
 70
0
 62
5
  6
CONTINUOUS
999
ﾁｬｯｸ
  0
LAYER
  2
_CONSTR
 70
0
 62
5
  6
CONTINUOUS
  0
ENDTAB
  0
TABLE
  2
STYLE
 70
1
  0
STYLE
  2
STANDARD
 70
64
 40
0.000000000
 41
1.000000000
 50
0.000000000
 71
0
 42
3.200000000
  3
TXT
  4
EXTFONT
  0
ENDTAB
  0
TABLE
  2
VIEW
 70
0
  0
ENDTAB
  0
ENDSEC
  0
SECTION
  2
BLOCKS
  0
BLOCK
  8
0
  2
*D105
 70
65
 10
0.000000000
 20
0.000000000
  3
*D
  0
TEXT
  8
1
 62
4
  6
CONTINUOUS
 72
5
 10
264.260217391
 20
194.663762319
 40
2.800000000
  1
φ
 41
1.270648030
 50
90.000000000
 11
264.260217391
 21
198.023762319
  0
TEXT
  8
1
 62
4
  6
CONTINUOUS
 72
5
 10
264.260217391
 20
199.703762319
 40
2.800000000
  1
46
 41
0.899998740
 50
90.000000000
 11
264.260217391
 21
203.903762319
  0
LINE
  8
1
 62
4
  6
CONTINUOUS
 10
197.565217391
 20
222.275362319
 11
268.465217391
 21
222.275362319
  0
POLYLINE
  8
1
 62
4
  6
CONTINUOUS
 66
1
  0
VERTEX
  8
1
 10
266.765217391
 20
220.275362319
  0
VERTEX
  8
1
 10
266.465217391
 20
222.275362319
  0
VERTEX
  8
1
 10
266.165217391
 20
220.275362319
  0
SEQEND
  8
1
  0
LINE
  8
1
 62
4
  6
CONTINUOUS
 10
266.465217391
 20
222.275362319
 11
266.465217391
 21
176.275362319
  0
POLYLINE
  8
1
 62
4
  6
CONTINUOUS
 66
1
  0
VERTEX
  8
1
 10
266.165217391
 20
178.275362319
  0
VERTEX
  8
1
 10
266.465217391
 20
176.275362319
  0
VERTEX
  8
1
 10
266.765217391
 20
178.275362319
  0
SEQEND
  8
1
  0
LINE
  8
1
 62
4
  6
CONTINUOUS
 10
197.565217391
 20
176.275362319
 11
268.465217391
 21
176.275362319
  0
ENDBLK
  8
0
  0
BLOCK
  8
0
  2
*D106
 70
65
 10
0.000000000
 20
0.000000000
  3
*D
  0
TEXT
  8
1
 62
4
  6
CONTINUOUS
 72
5
 10
74.688714776
 20
192.143762319
 40
2.800000000
  1
φ
 41
1.270648030
 50
90.000000000
 11
74.688714776
 21
195.503762319
  0
TEXT
  8
1
 62
4
  6
CONTINUOUS
 72
5
 10
74.688714776
 20
197.183762319
 40
2.800000000
  1
44.5
 41
1.099999267
 50
90.000000000
 11
74.688714776
 21
206.423762319
  0
LINE
  8
1
 62
4
  6
CONTINUOUS
 10
127.415217391
 20
221.525362308
 11
74.893714776
 21
221.525362308
  0
POLYLINE
  8
1
 62
4
  6
CONTINUOUS
 66
1
  0
VERTEX
  8
1
 10
77.193714776
 20
219.525362308
  0
VERTEX
  8
1
 10
76.893714776
 20
221.525362308
  0
VERTEX
  8
1
 10
76.593714776
 20
219.525362308
  0
SEQEND
  8
1
  0
LINE
  8
1
 62
4
  6
CONTINUOUS
 10
76.893714776
 20
221.525362308
 11
76.893714776
 21
177.025362329
  0
POLYLINE
  8
1
 62
4
  6
CONTINUOUS
 66
1
  0
VERTEX
  8
1
 10
76.593714776
 20
179.025362329
  0
VERTEX
  8
1
 10
76.893714776
 20
177.025362329
  0
VERTEX
  8
1
 10
77.193714776
 20
179.025362329
  0
SEQEND
  8
1
  0
LINE
  8
1
 62
4
  6
CONTINUOUS
 10
127.415217391
 20
177.025362329
 11
74.893714776
 21
177.025362329
  0
ENDBLK
  8
0
  0
BLOCK
  8
0
  2
*D107
 70
65
 10
0.000000000
 20
0.000000000
  3
*D
  0
TEXT
  8
1
 62
4
  6
CONTINUOUS
 72
5
 10
82.688714776
 20
192.143762319
 40
2.800000000
  1
φ
 41
1.270648030
 50
90.000000000
 11
82.688714776
 21
195.503762319
  0
TEXT
  8
1
 62
4
  6
CONTINUOUS
 72
5
 10
82.688714776
 20
197.183762319
 40
2.800000000
  1
11.8
 41
1.414284098
 50
90.000000000
 11
82.688714776
 21
206.423762319
  0
LINE
  8
1
 62
4
  6
CONTINUOUS
 10
106.452560503
 20
205.175362319
 11
82.893714776
 21
205.175362319
  0
POLYLINE
  8
1
 62
4
  6
CONTINUOUS
 66
1
  0
VERTEX
  8
1
 10
85.193714776
 20
203.175362319
  0
VERTEX
  8
1
 10
84.893714776
 20
205.175362319
  0
VERTEX
  8
1
 10
84.593714776
 20
203.175362319
  0
SEQEND
  8
1
  0
LINE
  8
1
 62
4
  6
CONTINUOUS
 10
84.893714776
 20
205.175362319
 11
84.893714776
 21
193.375362319
  0
POLYLINE
  8
1
 62
4
  6
CONTINUOUS
 66
1
  0
VERTEX
  8
1
 10
84.593714776
 20
195.375362319
  0
VERTEX
  8
1
 10
84.893714776
 20
193.375362319
  0
VERTEX
  8
1
 10
85.193714776
 20
195.375362319
  0
SEQEND
  8
1
  0
LINE
  8
1
 62
4
  6
CONTINUOUS
 10
106.452560503
 20
193.375362319
 11
82.893714776
 21
193.375362319
  0
ENDBLK
  8
0
  0
BLOCK
  8
0
  2
blk176
 70
64
 10
0.000000000
 20
0.000000000
  3
blk176
  0
ARC
  8
1
 62
7
  6
CONTINUOUS
 10
0.000000000
 20
0.000000000
 40
1.000000000
 50
187.755570002
 51
270.000000000
  0
ENDBLK
  8
0
  0
BLOCK
  8
0
  2
blk177
 70
64
 10
0.000000000
 20
0.000000000
  3
blk177
  0
ARC
  8
1
 62
7
  6
CONTINUOUS
 10
0.000000000
 20
0.000000000
 40
1.000000000
 50
180.000000000
 51
270.000000000
  0
ENDBLK
  8
0
  0
BLOCK
  8
0
  2
blk178
 70
64
 10
0.000000000
 20
0.000000000
  3
blk178
  0
ARC
  8
1
 62
7
  6
CONTINUOUS
 10
0.000000000
 20
0.000000000
 40
1.000000000
 50
90.000000000
 51
180.000000000
  0
ENDBLK
  8
0
  0
BLOCK
  8
0
  2
*D194
 70
65
 10
0.000000000
 20
0.000000000
  3
*D
  0
TEXT
  8
1
 62
4
  6
CONTINUOUS
 72
5
 10
66.688714776
 20
192.143762319
 40
2.800000000
  1
φ
 41
1.270648030
 50
90.000000000
 11
66.688714776
 21
195.503762319
  0
TEXT
  8
1
 62
4
  6
CONTINUOUS
 72
5
 10
66.688714776
 20
197.183762319
 40
2.800000000
  1
49.5
 41
1.099999267
 50
90.000000000
 11
66.688714776
 21
206.423762319
  0
LINE
  8
1
 62
4
  6
CONTINUOUS
 10
153.008593064
 20
224.025362319
 11
66.893714776
 21
224.025362319
  0
POLYLINE
  8
1
 62
4
  6
CONTINUOUS
 66
1
  0
VERTEX
  8
1
 10
69.193714776
 20
222.025362319
  0
VERTEX
  8
1
 10
68.893714776
 20
224.025362319
  0
VERTEX
  8
1
 10
68.593714776
 20
222.025362319
  0
SEQEND
  8
1
  0
LINE
  8
1
 62
4
  6
CONTINUOUS
 10
68.893714776
 20
224.025362319
 11
68.893714776
 21
174.525362319
  0
POLYLINE
  8
1
 62
4
  6
CONTINUOUS
 66
1
  0
VERTEX
  8
1
 10
68.593714776
 20
176.525362319
  0
VERTEX
  8
1
 10
68.893714776
 20
174.525362319
  0
VERTEX
  8
1
 10
69.193714776
 20
176.525362319
  0
SEQEND
  8
1
  0
LINE
  8
1
 62
4
  6
CONTINUOUS
 10
153.008593064
 20
174.525362319
 11
66.893714776
 21
174.525362319
  0
ENDBLK
  8
0
  0
BLOCK
  8
0
  2
*D199
 70
65
 10
0.000000000
 20
0.000000000
  3
*D
  0
TEXT
  8
1
 62
4
  6
CONTINUOUS
 72
5
 10
196.233617391
 20
241.730362319
 40
2.800000000
  1
6
 41
0.899996850
 11
197.913617391
 21
241.730362319
  0
LINE
  8
1
 62
4
  6
CONTINUOUS
 10
194.065217391
 20
224.275362319
 11
194.065217391
 21
241.525362319
  0
POLYLINE
  8
1
 62
4
  6
CONTINUOUS
 66
1
  0
VERTEX
  8
1
 10
192.065217391
 20
239.825362319
  0
VERTEX
  8
1
 10
194.065217391
 20
239.525362319
  0
SEQEND
  8
1
  0
POLYLINE
  8
1
 62
4
  6
CONTINUOUS
 66
1
  0
VERTEX
  8
1
 10
191.065217391
 20
239.525362319
  0
VERTEX
  8
1
 10
194.065217391
 20
239.525362319
  0
VERTEX
  8
1
 10
192.065217391
 20
239.225362319
  0
SEQEND
  8
1
  0
LINE
  8
1
 62
4
  6
CONTINUOUS
 10
194.065217391
 20
239.525362319
 11
200.065217391
 21
239.525362319
  0
POLYLINE
  8
1
 62
4
  6
CONTINUOUS
 66
1
  0
VERTEX
  8
1
 10
202.065217391
 20
239.225362319
  0
VERTEX
  8
1
 10
200.065217391
 20
239.525362319
  0
SEQEND
  8
1
  0
POLYLINE
  8
1
 62
4
  6
CONTINUOUS
 66
1
  0
VERTEX
  8
1
 10
203.065217391
 20
239.525362319
  0
VERTEX
  8
1
 10
200.065217391
 20
239.525362319
  0
VERTEX
  8
1
 10
202.065217391
 20
239.825362319
  0
SEQEND
  8
1
  0
LINE
  8
1
 62
4
  6
CONTINUOUS
 10
200.065217391
 20
215.150362319
 11
200.065217391
 21
241.525362319
  0
ENDBLK
  8
0
  0
BLOCK
  8
0
  2
*D200
 70
65
 10
0.000000000
 20
0.000000000
  3
*D
  0
TEXT
  8
1
 62
4
  6
CONTINUOUS
 72
5
 10
103.097866084
 20
257.730362319
 40
2.800000000
  1
(
 41
1.800001800
 11
104.777866084
 21
257.730362319
  0
TEXT
  8
1
 62
4
  6
CONTINUOUS
 72
5
 10
105.617866084
 20
257.730362319
 40
2.800000000
  1
14.7
 41
1.237498917
 11
114.857866084
 21
257.730362319
  0
TEXT
  8
1
 62
4
  6
CONTINUOUS
 72
5
 10
115.697866084
 20
257.730362319
 40
2.800000000
  1
)
 41
1.800001800
 11
117.377866084
 21
257.730362319
  0
LINE
  8
1
 62
4
  6
CONTINUOUS
 10
102.893714776
 20
202.698012050
 11
102.893714776
 21
257.525362319
  0
POLYLINE
  8
1
 62
4
  6
CONTINUOUS
 66
1
  0
VERTEX
  8
1
 10
104.893714776
 20
255.825362319
  0
VERTEX
  8
1
 10
102.893714776
 20
255.525362319
  0
VERTEX
  8
1
 10
104.893714776
 20
255.225362319
  0
SEQEND
  8
1
  0
LINE
  8
1
 62
4
  6
CONTINUOUS
 10
102.893714776
 20
255.525362319
 11
117.565217391
 21
255.525362319
  0
POLYLINE
  8
1
 62
4
  6
CONTINUOUS
 66
1
  0
VERTEX
  8
1
 10
115.565217391
 20
255.225362319
  0
VERTEX
  8
1
 10
117.565217391
 20
255.525362319
  0
VERTEX
  8
1
 10
115.565217391
 20
255.825362319
  0
SEQEND
  8
1
  0
LINE
  8
1
 62
4
  6
CONTINUOUS
 10
117.565217391
 20
211.775362319
 11
117.565217391
 21
257.525362319
  0
ENDBLK
  8
0
  0
BLOCK
  8
0
  2
*D201
 70
65
 10
0.000000000
 20
0.000000000
  3
*D
  0
TEXT
  8
1
 62
4
  6
CONTINUOUS
 72
5
 10
174.623617391
 20
257.730362319
 40
2.800000000
  1
(
 41
1.800001800
 11
176.303617391
 21
257.730362319
  0
TEXT
  8
1
 62
4
  6
CONTINUOUS
 72
5
 10
177.143617391
 20
257.730362319
 40
2.800000000
  1
130.9
 41
1.199999314
 11
188.903617391
 21
257.730362319
  0
TEXT
  8
1
 62
4
  6
CONTINUOUS
 72
5
 10
189.743617391
 20
257.730362319
 40
2.800000000
  1
)
 41
1.800001800
 11
191.423617391
 21
257.730362319
  0
POLYLINE
  8
1
 62
4
  6
CONTINUOUS
 66
1
  0
VERTEX
  8
1
 10
119.565217391
 20
255.825362319
  0
VERTEX
  8
1
 10
117.565217391
 20
255.525362319
  0
VERTEX
  8
1
 10
119.565217391
 20
255.225362319
  0
SEQEND
  8
1
  0
LINE
  8
1
 62
4
  6
CONTINUOUS
 10
117.565217391
 20
255.525362319
 11
248.465217391
 21
255.525362319
  0
POLYLINE
  8
1
 62
4
  6
CONTINUOUS
 66
1
  0
VERTEX
  8
1
 10
246.465217391
 20
255.225362319
  0
VERTEX
  8
1
 10
248.465217391
 20
255.525362319
  0
VERTEX
  8
1
 10
246.465217391
 20
255.825362319
  0
SEQEND
  8
1
  0
LINE
  8
1
 62
4
  6
CONTINUOUS
 10
248.465217391
 20
207.658004850
 11
248.465217391
 21
257.525362319
  0
ENDBLK
  8
0
  0
BLOCK
  8
0
  2
*D202
 70
65
 10
0.000000000
 20
0.000000000
  3
*D
  0
TEXT
  8
1
 62
4
  6
CONTINUOUS
 72
5
 10
151.683617391
 20
249.730362319
 40
2.800000000
  1
(
 41
1.800001800
 11
153.363617391
 21
249.730362319
  0
TEXT
  8
1
 62
4
  6
CONTINUOUS
 72
5
 10
154.203617391
 20
249.730362319
 40
2.800000000
  1
82.5
 41
1.099999267
 11
163.443617391
 21
249.730362319
  0
TEXT
  8
1
 62
4
  6
CONTINUOUS
 72
5
 10
164.283617391
 20
249.730362319
 40
2.800000000
  1
)
 41
1.800001800
 11
165.963617391
 21
249.730362319
  0
LINE
  8
1
 62
4
  6
CONTINUOUS
 10
117.565217391
 20
211.775362319
 11
117.565217391
 21
249.525362319
  0
POLYLINE
  8
1
 62
4
  6
CONTINUOUS
 66
1
  0
VERTEX
  8
1
 10
119.565217391
 20
247.825362319
  0
VERTEX
  8
1
 10
117.565217391
 20
247.525362319
  0
VERTEX
  8
1
 10
119.565217391
 20
247.225362319
  0
SEQEND
  8
1
  0
LINE
  8
1
 62
4
  6
CONTINUOUS
 10
117.565217391
 20
247.525362319
 11
200.065217391
 21
247.525362319
  0
POLYLINE
  8
1
 62
4
  6
CONTINUOUS
 66
1
  0
VERTEX
  8
1
 10
198.065217391
 20
247.225362319
  0
VERTEX
  8
1
 10
200.065217391
 20
247.525362319
  0
VERTEX
  8
1
 10
198.065217391
 20
247.825362319
  0
SEQEND
  8
1
  0
LINE
  8
1
 62
4
  6
CONTINUOUS
 10
200.065217391
 20
215.150362319
 11
200.065217391
 21
249.525362319
  0
ENDBLK
  8
0
  0
BLOCK
  8
0
  2
*D203
 70
65
 10
0.000000000
 20
0.000000000
  3
*D
  0
TEXT
  8
1
 62
4
  6
CONTINUOUS
 72
5
 10
219.653617391
 20
249.730362319
 40
2.800000000
  1
48.4
 41
1.099999267
 11
228.893617391
 21
249.730362319
  0
POLYLINE
  8
1
 62
4
  6
CONTINUOUS
 66
1
  0
VERTEX
  8
1
 10
202.065217391
 20
247.825362319
  0
VERTEX
  8
1
 10
200.065217391
 20
247.525362319
  0
VERTEX
  8
1
 10
202.065217391
 20
247.225362319
  0
SEQEND
  8
1
  0
LINE
  8
1
 62
4
  6
CONTINUOUS
 10
200.065217391
 20
247.525362319
 11
248.465217391
 21
247.525362319
  0
POLYLINE
  8
1
 62
4
  6
CONTINUOUS
 66
1
  0
VERTEX
  8
1
 10
246.465217391
 20
247.225362319
  0
VERTEX
  8
1
 10
248.465217391
 20
247.525362319
  0
VERTEX
  8
1
 10
246.465217391
 20
247.825362319
  0
SEQEND
  8
1
  0
LINE
  8
1
 62
4
  6
CONTINUOUS
 10
248.465217391
 20
207.658004850
 11
248.465217391
 21
249.525362319
  0
ENDBLK
  8
0
  0
BLOCK
  8
0
  2
*D204
 70
65
 10
0.000000000
 20
0.000000000
  3
*D
  0
TEXT
  8
1
 62
4
  6
CONTINUOUS
 72
5
 10
129.953617391
 20
241.730362319
 40
2.800000000
  1
(
 41
1.800001800
 11
131.633617391
 21
241.730362319
  0
TEXT
  8
1
 62
4
  6
CONTINUOUS
 72
5
 10
132.473617391
 20
241.730362319
 40
2.800000000
  1
34
 41
0.899998740
 11
136.673617391
 21
241.730362319
  0
TEXT
  8
1
 62
4
  6
CONTINUOUS
 72
5
 10
137.513617391
 20
241.730362319
 40
2.800000000
  1
)
 41
1.800001800
 11
139.193617391
 21
241.730362319
  0
LINE
  8
1
 62
4
  6
CONTINUOUS
 10
117.565217391
 20
211.775362319
 11
117.565217391
 21
241.525362319
  0
POLYLINE
  8
1
 62
4
  6
CONTINUOUS
 66
1
  0
VERTEX
  8
1
 10
119.565217391
 20
239.825362319
  0
VERTEX
  8
1
 10
117.565217391
 20
239.525362319
  0
VERTEX
  8
1
 10
119.565217391
 20
239.225362319
  0
SEQEND
  8
1
  0
LINE
  8
1
 62
4
  6
CONTINUOUS
 10
117.565217391
 20
239.525362319
 11
151.565217391
 21
239.525362319
  0
POLYLINE
  8
1
 62
4
  6
CONTINUOUS
 66
1
  0
VERTEX
  8
1
 10
149.565217391
 20
239.225362319
  0
VERTEX
  8
1
 10
151.565217391
 20
239.525362319
  0
VERTEX
  8
1
 10
149.565217391
 20
239.825362319
  0
SEQEND
  8
1
  0
LINE
  8
1
 62
4
  6
CONTINUOUS
 10
151.565217391
 20
221.525362319
 11
151.565217391
 21
241.525362319
  0
ENDBLK
  8
0
  0
BLOCK
  8
0
  2
*D205
 70
65
 10
0.000000000
 20
0.000000000
  3
*D
  0
TEXT
  8
1
 62
4
  6
CONTINUOUS
 72
5
 10
155.703617391
 20
241.730362319
 40
2.800000000
  1
17.5
 41
1.237498917
 11
164.943617391
 21
241.730362319
  0
POLYLINE
  8
1
 62
4
  6
CONTINUOUS
 66
1
  0
VERTEX
  8
1
 10
153.565217391
 20
239.825362319
  0
VERTEX
  8
1
 10
151.565217391
 20
239.525362319
  0
VERTEX
  8
1
 10
153.565217391
 20
239.225362319
  0
SEQEND
  8
1
  0
LINE
  8
1
 62
4
  6
CONTINUOUS
 10
151.565217391
 20
239.525362319
 11
169.065217391
 21
239.525362319
  0
POLYLINE
  8
1
 62
4
  6
CONTINUOUS
 66
1
  0
VERTEX
  8
1
 10
167.065217391
 20
239.225362319
  0
VERTEX
  8
1
 10
169.065217391
 20
239.525362319
  0
VERTEX
  8
1
 10
167.065217391
 20
239.825362319
  0
SEQEND
  8
1
  0
LINE
  8
1
 62
4
  6
CONTINUOUS
 10
169.065217391
 20
223.525362319
 11
169.065217391
 21
241.525362319
  0
ENDBLK
  8
0
  0
BLOCK
  8
0
  2
*D206
 70
65
 10
0.000000000
 20
0.000000000
  3
*D
  0
TEXT
  8
1
 62
4
  6
CONTINUOUS
 72
5
 10
118.197187527
 20
233.730362319
 40
2.800000000
  1
(
 41
1.650001650
 11
119.737187527
 21
233.730362319
  0
TEXT
  8
1
 62
4
  6
CONTINUOUS
 72
5
 10
120.507187527
 20
233.730362319
 40
2.800000000
  1
9.9
 41
1.099998900
 11
126.667187527
 21
233.730362319
  0
TEXT
  8
1
 62
4
  6
CONTINUOUS
 72
5
 10
127.437187527
 20
233.730362319
 40
2.800000000
  1
)
 41
1.650001650
 11
128.977187527
 21
233.730362319
  0
LINE
  8
1
 62
4
  6
CONTINUOUS
 10
117.565217391
 20
211.775362319
 11
117.565217391
 21
233.525362319
  0
POLYLINE
  8
1
 62
4
  6
CONTINUOUS
 66
1
  0
VERTEX
  8
1
 10
115.565217391
 20
231.825362319
  0
VERTEX
  8
1
 10
117.565217391
 20
231.525362319
  0
SEQEND
  8
1
  0
POLYLINE
  8
1
 62
4
  6
CONTINUOUS
 66
1
  0
VERTEX
  8
1
 10
114.565217391
 20
231.525362319
  0
VERTEX
  8
1
 10
117.565217391
 20
231.525362319
  0
VERTEX
  8
1
 10
115.565217391
 20
231.225362319
  0
SEQEND
  8
1
  0
LINE
  8
1
 62
4
  6
CONTINUOUS
 10
117.565217391
 20
231.525362319
 11
127.415217391
 21
231.525362319
  0
POLYLINE
  8
1
 62
4
  6
CONTINUOUS
 66
1
  0
VERTEX
  8
1
 10
129.415217391
 20
231.225362319
  0
VERTEX
  8
1
 10
127.415217391
 20
231.525362319
  0
SEQEND
  8
1
  0
POLYLINE
  8
1
 62
4
  6
CONTINUOUS
 66
1
  0
VERTEX
  8
1
 10
130.415217391
 20
231.525362319
  0
VERTEX
  8
1
 10
127.415217391
 20
231.525362319
  0
VERTEX
  8
1
 10
129.415217391
 20
231.825362319
  0
SEQEND
  8
1
  0
LINE
  8
1
 62
4
  6
CONTINUOUS
 10
127.415217391
 20
221.525362308
 11
127.415217391
 21
233.525362319
  0
ENDBLK
  8
0
  0
ENDSEC
  0
SECTION
  2
ENTITIES
  0
LINE
  8
1
 62
1
  6
CENTER
 10
89.893714776
 20
199.275362319
 11
251.465217391
 21
199.275362319
  0
LINE
  8
1
 62
7
  6
CONTINUOUS
 10
125.865217391
 20
178.475362319
 11
126.065217391
 21
178.475362319
  0
LINE
  8
1
 62
7
  6
CONTINUOUS
 10
127.415217391
 20
221.525362308
 11
147.065217391
 21
221.525362308
  0
LINE
  8
1
 62
7
  6
CONTINUOUS
 10
126.165217391
 20
220.275362308
 11
127.415217391
 21
221.525362308
  0
ARC
  8
1
 62
7
  6
CONTINUOUS
 10
106.452560503
 20
194.375362319
 40
1.000000000
 50
240.000000000
 51
270.000000000
  0
LINE
  8
1
 62
4
  6
CONTINUOUS
 10
115.065217391
 20
201.336915132
 11
117.565217391
 21
197.213809506
  0
LINE
  8
1
 62
7
  6
CONTINUOUS
 10
117.565217391
 20
186.775362319
 11
125.865217391
 21
178.475362319
  0
LINE
  8
1
 62
4
  6
CONTINUOUS
 10
117.565217391
 20
201.336915132
 11
115.065217391
 21
197.213809506
  0
LINE
  8
1
 62
7
  6
CONTINUOUS
 10
115.065217391
 20
194.775362319
 11
115.065217391
 21
203.775362319
  0
LINE
  8
1
 62
7
  6
CONTINUOUS
 10
115.065217391
 20
201.336915132
 11
117.565217391
 21
201.336915132
  0
LINE
  8
1
 62
7
  6
CONTINUOUS
 10
114.393714776
 20
194.575362319
 11
114.865217391
 21
194.575362319
  0
LINE
  8
1
 62
7
  6
CONTINUOUS
 10
126.065217391
 20
220.075362319
 11
126.065217391
 21
178.475362319
  0
LINE
  8
1
 62
7
  6
CONTINUOUS
 10
106.743714776
 20
193.375362319
 11
106.452560503
 21
193.375362319
  0
LINE
  8
1
 62
7
  6
CONTINUOUS
 10
117.565217391
 20
186.775362319
 11
117.565217391
 21
211.775362319
  0
LINE
  8
1
 62
7
  6
CONTINUOUS
 10
117.565217391
 20
211.775362319
 11
125.865217391
 21
220.075362319
  0
LINE
  8
1
 62
7
  6
CONTINUOUS
 10
125.865217391
 20
220.075362319
 11
125.865217391
 21
178.475362319
  0
LINE
  8
1
 62
7
  6
CONTINUOUS
 10
125.865217391
 20
220.075362319
 11
126.065217391
 21
220.075362319
  0
LINE
  8
1
 62
7
  6
CONTINUOUS
 10
117.565217391
 20
194.775362319
 11
115.065217391
 21
194.775362319
  0
LINE
  8
1
 62
7
  6
CONTINUOUS
 10
106.743714776
 20
205.175362319
 11
106.893714776
 21
205.025362319
  0
LINE
  8
1
 62
7
  6
CONTINUOUS
 10
106.893714776
 20
204.775362319
 11
109.893714776
 21
204.775362319
  0
LINE
  8
1
 62
7
  6
CONTINUOUS
 10
114.865217391
 20
194.575362319
 11
114.865217391
 21
203.975362319
  0
LINE
  8
1
 62
7
  6
CONTINUOUS
 10
114.393714776
 20
204.375362319
 11
114.393714776
 21
194.175362319
  0
LINE
  8
1
 62
7
  6
CONTINUOUS
 10
115.065217391
 20
203.775362319
 11
114.865217391
 21
203.975362319
  0
LINE
  8
1
 62
7
  6
CONTINUOUS
 10
117.565217391
 20
203.775362319
 11
115.065217391
 21
203.775362319
  0
LINE
  8
1
 62
7
  6
CONTINUOUS
 10
115.065217391
 20
194.775362319
 11
114.865217391
 21
194.575362319
  0
LINE
  8
1
 62
7
  6
CONTINUOUS
 10
114.393714776
 20
203.975362319
 11
114.865217391
 21
203.975362319
  0
LINE
  8
1
 62
7
  6
CONTINUOUS
 10
113.593714776
 20
205.175362319
 11
110.043714776
 21
205.175362319
  0
LINE
  8
1
 62
7
  6
CONTINUOUS
 10
115.065217391
 20
197.213809506
 11
117.565217391
 21
197.213809506
  0
LINE
  8
1
 62
7
  6
CONTINUOUS
 10
103.393714776
 20
194.986687184
 11
105.952560503
 21
193.509336915
  0
LINE
  8
1
 62
7
  6
CONTINUOUS
 10
106.893714776
 20
193.525362319
 11
106.893714776
 21
205.025362319
  0
ARC
  8
1
 62
7
  6
CONTINUOUS
 10
113.593714776
 20
194.175362319
 40
0.800000000
 50
270.000000000
 51
0.000000000
  0
ARC
  8
1
 62
7
  6
CONTINUOUS
 10
103.893714776
 20
195.852712588
 40
1.000000000
 50
180.000000000
 51
240.000000000
  0
ARC
  8
1
 62
7
  6
CONTINUOUS
 10
103.893714776
 20
202.698012050
 40
1.000000000
 50
120.000000000
 51
180.000000000
  0
ARC
  8
1
 62
7
  6
CONTINUOUS
 10
113.593714776
 20
204.375362319
 40
0.800000000
 50
0.000000000
 51
90.000000000
  0
LINE
  8
1
 62
7
  6
CONTINUOUS
 10
106.743714776
 20
193.375362319
 11
106.893714776
 21
193.525362319
  0
LINE
  8
1
 62
7
  6
CONTINUOUS
 10
107.043714776
 20
201.410777969
 11
106.893714776
 21
201.260777969
  0
LINE
  8
1
 62
7
  6
CONTINUOUS
 10
103.393714776
 20
203.564037453
 11
105.952560503
 21
205.041387723
  0
LINE
  8
1
 62
7
  6
CONTINUOUS
 10
106.893714776
 20
193.775362319
 11
109.893714776
 21
193.775362319
  0
LINE
  8
1
 62
7
  6
CONTINUOUS
 10
113.593714776
 20
193.375362319
 11
110.043714776
 21
193.375362319
  0
ARC
  8
15
 62
7
  6
CONTINUOUS
 10
93.093714776
 20
201.075362319
 40
0.200000000
 50
90.000000000
 51
180.000000000
  0
LINE
  8
1
 62
7
  6
CONTINUOUS
 10
109.893714776
 20
205.025362319
 11
110.043714776
 21
205.175362319
  0
ARC
  8
15
 62
7
  6
CONTINUOUS
 10
93.093714776
 20
197.475362319
 40
0.200000000
 50
180.000000000
 51
270.000000000
  0
ARC
  8
1
 62
7
  6
CONTINUOUS
 10
106.452560503
 20
204.175362319
 40
1.000000000
 50
90.000000000
 51
120.000000000
  0
LINE
  8
1
 62
7
  6
CONTINUOUS
 10
106.743714776
 20
205.175362319
 11
106.452560503
 21
205.175362319
  0
LINE
  8
1
 62
7
  6
CONTINUOUS
 10
106.893714776
 20
197.289946668
 11
107.043714776
 21
197.139946668
  0
LINE
  8
15
 62
7
  6
CONTINUOUS
 10
102.893714776
 20
197.275362319
 11
93.093714776
 21
197.275362319
  0
LINE
  8
15
 62
7
  6
CONTINUOUS
 10
93.093714776
 20
201.275362319
 11
102.893714776
 21
201.275362319
  0
LINE
  8
1
 62
4
  6
CONTINUOUS
 10
109.893714776
 20
201.260777969
 11
106.893714776
 21
197.289946668
  0
LINE
  8
15
 62
7
  6
CONTINUOUS
 10
92.893714776
 20
201.075362319
 11
92.893714776
 21
197.475362319
  0
LINE
  8
1
 62
7
  6
CONTINUOUS
 10
109.893714776
 20
205.025362319
 11
109.893714776
 21
193.525362319
  0
LINE
  8
1
 62
7
  6
CONTINUOUS
 10
103.393714776
 20
203.064037453
 11
103.393714776
 21
195.486687184
  0
LINE
  8
1
 62
7
  6
CONTINUOUS
 10
109.893714776
 20
193.525362319
 11
110.043714776
 21
193.375362319
  0
LINE
  8
1
 62
7
  6
CONTINUOUS
 10
106.452560503
 20
205.175362319
 11
106.452560503
 21
193.375362319
  0
LINE
  8
1
 62
7
  6
CONTINUOUS
 10
102.893714776
 20
195.852712588
 11
102.893714776
 21
202.698012050
  0
LINE
  8
1
 62
7
  6
CONTINUOUS
 10
113.593714776
 20
205.175362319
 11
113.593714776
 21
193.375362319
  0
LINE
  8
1
 62
7
  6
CONTINUOUS
 10
109.743714776
 20
201.410777969
 11
109.743714776
 21
204.775362319
  0
LINE
  8
1
 62
7
  6
CONTINUOUS
 10
107.043714776
 20
201.410777969
 11
107.043714776
 21
204.775362319
  0
LINE
  8
1
 62
4
  6
CONTINUOUS
 10
106.893714776
 20
201.260777969
 11
109.893714776
 21
197.289946668
  0
LINE
  8
1
 62
7
  6
CONTINUOUS
 10
107.043714776
 20
197.139946668
 11
109.743714776
 21
197.139946668
  0
LINE
  8
1
 62
7
  6
CONTINUOUS
 10
107.043714776
 20
201.410777969
 11
109.743714776
 21
201.410777969
  0
LINE
  8
1
 62
7
  6
CONTINUOUS
 10
109.743714776
 20
193.775362319
 11
109.743714776
 21
197.139946668
  0
LINE
  8
1
 62
7
  6
CONTINUOUS
 10
107.043714776
 20
193.775362319
 11
107.043714776
 21
197.139946668
  0
LINE
  8
1
 62
7
  6
CONTINUOUS
 10
109.893714776
 20
201.260777969
 11
109.743714776
 21
201.410777969
  0
LINE
  8
1
 62
7
  6
CONTINUOUS
 10
109.743714776
 20
197.139946668
 11
109.893714776
 21
197.289946668
  0
LINE
  8
1
 62
7
  6
CONTINUOUS
 10
106.743714776
 20
193.375362319
 11
106.743714776
 21
205.175362319
  0
LINE
  8
1
 62
7
  6
CONTINUOUS
 10
110.043714776
 20
193.375362319
 11
110.043714776
 21
205.175362319
  0
LINE
  8
1
 62
7
  6
CONTINUOUS
 10
105.952560503
 20
204.541387723
 11
105.952560503
 21
194.009336915
  0
LINE
  8
1
 62
7
  6
CONTINUOUS
 10
126.065217391
 20
216.525362319
 11
126.165217391
 21
216.525362319
  0
LINE
  8
1
 62
7
  6
CONTINUOUS
 10
147.065217391
 20
221.525362308
 11
151.065217391
 21
221.525362308
  0
LINE
  8
1
 62
7
  6
CONTINUOUS
 10
126.165217391
 20
220.275362308
 11
126.165217391
 21
178.275362329
  0
LINE
  8
1
 62
7
  6
CONTINUOUS
 10
147.065217391
 20
177.025362329
 11
147.065217391
 21
221.525362308
  0
LINE
  8
1
 62
7
  6
CONTINUOUS
 10
126.065217391
 20
182.025362319
 11
126.165217391
 21
182.025362319
  0
LINE
  8
1
 62
7
  6
CONTINUOUS
 10
126.065217391
 20
216.525362319
 11
126.065217391
 21
182.025362319
  0
LINE
  8
1
 62
7
  6
CONTINUOUS
 10
147.065217391
 20
177.025362329
 11
151.065217391
 21
177.025362329
  0
LINE
  8
1
 62
7
  6
CONTINUOUS
 10
151.065217391
 20
177.025362329
 11
151.065217391
 21
221.525362308
  0
LINE
  8
1
 62
7
  6
CONTINUOUS
 10
147.065217391
 20
221.525362308
 11
147.065217391
 21
177.025362329
  0
LINE
  8
1
 62
7
  6
CONTINUOUS
 10
127.415217391
 20
177.025362329
 11
147.065217391
 21
177.025362329
  0
LINE
  8
1
 62
7
  6
CONTINUOUS
 10
126.165217391
 20
178.275362329
 11
127.415217391
 21
177.025362329
  0
LINE
  8
1
 62
7
  6
CONTINUOUS
 10
127.415217391
 20
221.525362308
 11
127.415217391
 21
177.025362329
  0
LINE
  8
1
 62
7
  6
CONTINUOUS
 10
169.115217391
 20
177.275362319
 11
169.515217391
 21
177.275362319
  0
LINE
  8
1
 62
7
  6
CONTINUOUS
 10
169.115217391
 20
221.275362319
 11
169.115217391
 21
177.275362319
  0
LINE
  8
1
 62
7
  6
CONTINUOUS
 10
151.515217391
 20
221.275362319
 11
151.115217391
 21
221.275362319
  0
LINE
  8
1
 62
7
  6
CONTINUOUS
 10
151.515217391
 20
177.275362319
 11
151.515217391
 21
221.275362319
  0
LINE
  8
1
 62
7
  6
CONTINUOUS
 10
151.115217391
 20
177.275362319
 11
151.515217391
 21
177.275362319
  0
LINE
  8
1
 62
7
  6
CONTINUOUS
 10
151.115217391
 20
221.275362319
 11
151.115217391
 21
177.275362319
  0
LINE
  8
1
 62
7
  6
CONTINUOUS
 10
174.565217391
 20
174.825362319
 11
174.565217391
 21
223.725362319
  0
LINE
  8
1
 62
7
  6
CONTINUOUS
 10
174.265217391
 20
224.025362319
 11
174.565217391
 21
223.725362319
  0
LINE
  8
1
 62
7
  6
CONTINUOUS
 10
169.865217391
 20
174.525362319
 11
174.265217391
 21
174.525362319
  0
LINE
  8
1
 62
7
  6
CONTINUOUS
 10
169.565217391
 20
223.725362319
 11
169.565217391
 21
174.825362319
  0
LINE
  8
1
 62
7
  6
CONTINUOUS
 10
174.565217391
 20
174.825362319
 11
174.265217391
 21
174.525362319
  0
LINE
  8
1
 62
7
  6
CONTINUOUS
 10
169.865217391
 20
224.025362319
 11
174.265217391
 21
224.025362319
  0
LINE
  8
1
 62
7
  6
CONTINUOUS
 10
169.865217391
 20
174.525362319
 11
169.565217391
 21
174.825362319
  0
LINE
  8
1
 62
7
  6
CONTINUOUS
 10
169.565217391
 20
223.725362319
 11
169.865217391
 21
224.025362319
  0
LINE
  8
1
 62
7
  6
CONTINUOUS
 10
162.029217391
 20
170.525362319
 11
162.029217391
 21
163.725362319
  0
LINE
  8
1
 62
7
  6
CONTINUOUS
 10
153.008593064
 20
174.525362319
 11
153.008593064
 21
224.025362319
  0
LINE
  8
1
 62
7
  6
CONTINUOUS
 10
151.565217391
 20
221.525362319
 11
153.008593064
 21
224.025362319
  0
LINE
  8
1
 62
7
  6
CONTINUOUS
 10
153.008593064
 20
174.525362319
 11
168.565217391
 21
174.525362319
  0
LINE
  8
1
 62
7
  6
CONTINUOUS
 10
153.008593064
 20
224.025362319
 11
168.565217391
 21
224.025362319
  0
LINE
  8
1
 62
7
  6
CONTINUOUS
 10
151.565217391
 20
177.025362319
 11
153.008593064
 21
174.525362319
  0
LINE
  8
1
 62
7
  6
CONTINUOUS
 10
168.565217391
 20
174.525362319
 11
169.065217391
 21
175.025362319
  0
LINE
  8
1
 62
7
  6
CONTINUOUS
 10
168.565217391
 20
224.025362319
 11
169.065217391
 21
223.525362319
  0
LINE
  8
1
 62
1
  6
CENTER
 10
158.565217391
 20
176.525362319
 11
158.565217391
 21
154.025362319
  0
LINE
  8
1
 62
7
  6
CONTINUOUS
 10
169.065217391
 20
223.525362319
 11
169.065217391
 21
175.025362319
  0
LINE
  8
1
 62
7
  6
CONTINUOUS
 10
151.565217391
 20
177.025362319
 11
151.565217391
 21
221.525362319
  0
DIMENSION
  8
1
 62
4
  6
CONTINUOUS
  2
*D105
 70
1
 10
266.465217391
 20
176.275362319
 11
266.465217391
 21
199.275362319
 14
197.565217391
 24
176.275362319
 13
197.565217391
 23
222.275362319
 50
90.000000000
  0
DIMENSION
  8
1
 62
4
  6
CONTINUOUS
  2
*D106
 70
1
 10
76.893714776
 20
177.025362329
 11
76.893714776
 21
199.275362319
 14
127.415217391
 24
177.025362329
 13
127.415217391
 23
221.525362308
 50
90.000000000
  0
DIMENSION
  8
1
 62
4
  6
CONTINUOUS
  2
*D107
 70
1
 10
84.893714776
 20
193.375362319
 11
84.893714776
 21
199.275362319
 14
106.452560503
 24
193.375362319
 13
106.452560503
 23
205.175362319
 50
90.000000000
  0
TEXT
  8
1
 62
3
  6
CONTINUOUS
 72
5
 10
132.765217391
 20
139.041362319
 40
4.000000000
  1
ＨＴＳ１５０１Ｓ－ＢＴ３０
 41
0.834180548
 11
183.965217391
 21
139.041362319
  0
LINE
  8
1
 62
7
  6
CONTINUOUS
 10
155.101217391
 20
170.525362319
 11
155.101217391
 21
163.725362319
  0
LINE
  8
1
 62
1
  6
CONTINUOUS
 10
154.213217391
 20
172.357362319
 11
154.281055264
 21
174.525362319
  0
LINE
  8
1
 62
7
  6
CONTINUOUS
 10
152.815217391
 20
156.025362319
 11
164.315217391
 21
156.025362319
  0
LINE
  8
1
 62
7
  6
CONTINUOUS
 10
169.515217391
 20
177.275362319
 11
169.515217391
 21
221.275362319
  0
LINE
  8
1
 62
7
  6
CONTINUOUS
 10
169.515217391
 20
221.275362319
 11
169.115217391
 21
221.275362319
  0
LINE
  8
1
 62
7
  6
CONTINUOUS
 10
151.637217391
 20
170.525362319
 11
165.493217391
 21
170.525362319
  0
LINE
  8
1
 62
7
  6
CONTINUOUS
 10
152.565217391
 20
161.225362319
 11
164.565217391
 21
161.225362319
  0
LINE
  8
1
 62
7
  6
CONTINUOUS
 10
151.637217391
 20
163.725362319
 11
165.493217391
 21
163.725362319
  0
LINE
  8
1
 62
1
  6
CONTINUOUS
 10
162.917217391
 20
172.357362319
 11
162.849379518
 21
174.525362319
  0
LINE
  8
1
 62
7
  6
CONTINUOUS
 10
151.637217391
 20
170.525362319
 11
151.637217391
 21
163.725362319
  0
LINE
  8
1
 62
7
  6
CONTINUOUS
 10
165.493217391
 20
170.525362319
 11
165.493217391
 21
163.725362319
  0
LINE
  8
1
 62
7
  6
CONTINUOUS
 10
164.465217391
 20
163.725362319
 11
164.465217391
 21
161.225362319
  0
LINE
  8
1
 62
7
  6
CONTINUOUS
 10
152.665217391
 20
163.725362319
 11
152.665217391
 21
161.225362319
  0
LINE
  8
1
 62
7
  6
CONTINUOUS
 10
164.315217391
 20
156.025362319
 11
164.315217391
 21
157.525362319
  0
LINE
  8
1
 62
7
  6
CONTINUOUS
 10
152.815217391
 20
156.025362319
 11
152.815217391
 21
157.525362319
  0
LINE
  8
1
 62
7
  6
CONTINUOUS
 10
152.815217391
 20
157.525362319
 11
164.315217391
 21
157.525362319
  0
LINE
  8
1
 62
7
  6
CONTINUOUS
 10
162.065217391
 20
157.525362319
 11
162.065217391
 21
159.325362319
  0
LINE
  8
1
 62
7
  6
CONTINUOUS
 10
155.065217391
 20
157.525362319
 11
155.065217391
 21
159.325362319
  0
LINE
  8
1
 62
7
  6
CONTINUOUS
 10
164.565217391
 20
159.325362319
 11
164.565217391
 21
161.225362319
  0
LINE
  8
1
 62
7
  6
CONTINUOUS
 10
152.565217391
 20
159.325362319
 11
152.565217391
 21
161.225362319
  0
LINE
  8
1
 62
7
  6
CONTINUOUS
 10
152.565217391
 20
159.325362319
 11
164.565217391
 21
159.325362319
  0
LINE
  8
1
 62
7
  6
CONTINUOUS
 10
153.575217391
 20
170.525362319
 11
153.700217391
 21
174.525362319
  0
LINE
  8
1
 62
7
  6
CONTINUOUS
 10
163.498217391
 20
172.357362319
 11
153.632217391
 21
172.357362319
  0
LINE
  8
1
 62
7
  6
CONTINUOUS
 10
163.555217391
 20
170.525362319
 11
163.430217391
 21
174.525362319
  0
LINE
  8
1
 62
7
  6
CONTINUOUS
 10
189.115217391
 20
185.600392135
 11
198.065217391
 21
185.600392135
  0
LINE
  8
1
 62
7
  6
CONTINUOUS
 10
198.065217391
 20
198.467584977
 11
189.115217391
 21
198.467584977
  0
LINE
  8
1
 62
7
  6
CONTINUOUS
 10
189.115217391
 20
183.593124504
 11
198.065217391
 21
183.593124504
  0
LINE
  8
1
 62
7
  6
CONTINUOUS
 10
248.465217391
 20
190.892719788
 11
248.465217391
 21
207.658004850
  0
ARC
  8
1
 62
7
  6
CONTINUOUS
 10
247.965217391
 20
190.892719788
 40
0.500000000
 50
278.299076869
 51
0.000000000
  0
LINE
  8
1
 62
7
  6
CONTINUOUS
 10
200.065217391
 20
183.400362319
 11
200.065217391
 21
215.150362319
  0
LINE
  8
1
 62
7
  6
CONTINUOUS
 10
248.037387520
 20
190.397955730
 11
200.065217391
 21
183.400362319
  0
LINE
  8
1
 62
7
  6
CONTINUOUS
 10
198.065217391
 20
176.775362319
 11
198.065217391
 21
221.775362319
  0
LINE
  8
1
 62
7
  6
CONTINUOUS
 10
198.065217391
 20
176.775362319
 11
197.565217391
 21
176.275362319
  0
LINE
  8
1
 62
7
  6
CONTINUOUS
 10
178.065217391
 20
222.275362319
 11
178.065217391
 21
176.275362319
  0
LINE
  8
1
 62
7
  6
CONTINUOUS
 10
190.465217391
 20
176.275362319
 11
190.465217391
 21
183.593124504
  0
LINE
  8
1
 62
7
  6
CONTINUOUS
 10
182.465217391
 20
176.275362319
 11
182.465217391
 21
186.596177403
  0
LINE
  8
1
 62
7
  6
CONTINUOUS
 10
188.155816315
 20
180.275362319
 11
184.774618468
 21
180.275362319
  0
LINE
  8
1
 62
7
  6
CONTINUOUS
 10
190.465217391
 20
176.275362319
 11
197.565217391
 21
176.275362319
  0
LINE
  8
1
 62
7
  6
CONTINUOUS
 10
182.465217391
 20
176.275362319
 11
178.065217391
 21
176.275362319
  0
LINE
  8
1
 62
7
  6
CONTINUOUS
 10
190.465217391
 20
176.275362319
 11
188.155816315
 21
180.275362319
  0
LINE
  8
1
 62
7
  6
CONTINUOUS
 10
182.465217391
 20
176.275362319
 11
184.774618468
 21
180.275362319
  0
LINE
  8
1
 62
7
  6
CONTINUOUS
 10
188.155816315
 20
180.275362319
 11
188.155816315
 21
183.642164484
  0
LINE
  8
1
 62
7
  6
CONTINUOUS
 10
184.774618468
 20
180.275362319
 11
184.774618468
 21
184.679044784
  0
LINE
  8
1
 62
7
  6
CONTINUOUS
 10
199.765217391
 20
183.700362319
 11
200.065217391
 21
183.400362319
  0
LINE
  8
1
 62
7
  6
CONTINUOUS
 10
199.765217391
 20
183.700362319
 11
198.065217391
 21
183.700362319
  0
ARC
  8
1
 62
7
  6
CONTINUOUS
 10
247.965217391
 20
207.658004850
 40
0.500000000
 50
0.000000000
 51
81.700923131
  0
LINE
  8
1
 62
7
  6
CONTINUOUS
 10
248.037387520
 20
208.152768907
 11
200.065217391
 21
215.150362319
  0
LINE
  8
1
 62
7
  6
CONTINUOUS
 10
198.065217391
 20
221.775362319
 11
197.565217391
 21
222.275362319
  0
LINE
  8
1
 62
7
  6
CONTINUOUS
 10
188.155816315
 20
218.275362319
 11
184.774618468
 21
218.275362319
  0
LINE
  8
1
 62
7
  6
CONTINUOUS
 10
190.465217391
 20
222.275362319
 11
197.565217391
 21
222.275362319
  0
LINE
  8
1
 62
7
  6
CONTINUOUS
 10
182.465217391
 20
222.275362319
 11
178.065217391
 21
222.275362319
  0
LINE
  8
1
 62
7
  6
CONTINUOUS
 10
190.465217391
 20
222.275362319
 11
188.155816315
 21
218.275362319
  0
LINE
  8
1
 62
7
  6
CONTINUOUS
 10
182.465217391
 20
222.275362319
 11
184.774618468
 21
218.275362319
  0
LINE
  8
1
 62
7
  6
CONTINUOUS
 10
199.765217391
 20
214.850362319
 11
200.065217391
 21
215.150362319
  0
LINE
  8
1
 62
7
  6
CONTINUOUS
 10
199.765217391
 20
214.850362319
 11
198.065217391
 21
214.850362319
  0
LINE
  8
1
 62
7
  6
CONTINUOUS
 10
174.565217391
 20
174.825362319
 11
174.565217391
 21
223.725362319
  0
LINE
  8
1
 62
7
  6
CONTINUOUS
 10
176.315217391
 20
174.525362319
 11
174.865217391
 21
174.525362319
  0
LINE
  8
1
 62
7
  6
CONTINUOUS
 10
178.065217391
 20
176.275362319
 11
176.315217391
 21
174.525362319
  0
LINE
  8
1
 62
7
  6
CONTINUOUS
 10
174.565217391
 20
174.825362319
 11
174.865217391
 21
174.525362319
  0
LINE
  8
1
 62
7
  6
CONTINUOUS
 10
176.315217391
 20
224.025362319
 11
174.865217391
 21
224.025362319
  0
LINE
  8
1
 62
7
  6
CONTINUOUS
 10
178.065217391
 20
222.275362319
 11
176.315217391
 21
224.025362319
  0
LINE
  8
1
 62
7
  6
CONTINUOUS
 10
174.565217391
 20
223.725362319
 11
174.865217391
 21
224.025362319
  0
LINE
  8
1
 62
7
  6
CONTINUOUS
 10
176.315217391
 20
174.525362319
 11
176.315217391
 21
224.025362319
  0
LINE
  8
1
 62
7
  6
CONTINUOUS
 10
190.465217391
 20
198.467584977
 11
190.465217391
 21
222.275362319
  0
LINE
  8
1
 62
7
  6
CONTINUOUS
 10
188.155816315
 20
198.410609224
 11
188.155816315
 21
218.275362319
  0
LINE
  8
1
 62
7
  6
CONTINUOUS
 10
184.774618468
 20
197.205938368
 11
184.774618468
 21
218.275362319
  0
LINE
  8
1
 62
7
  6
CONTINUOUS
 10
199.765217391
 20
214.850362319
 11
199.765217391
 21
183.700362319
  0
INSERT
  8
1
 62
7
  6
CONTINUOUS
  2
blk176
 10
189.115217391
 20
192.480911005
 41
8.050000000
 42
6.880518871
 50
0.000000000
  0
INSERT
  8
1
 62
7
  6
CONTINUOUS
  2
blk177
 10
189.115217391
 20
190.473643374
 41
8.050000000
 42
6.880518871
 50
0.000000000
  0
INSERT
  8
1
 62
7
  6
CONTINUOUS
  2
blk178
 10
189.115217391
 20
190.473643374
 41
8.050000000
 42
7.993941603
 50
0.000000000
  0
LINE
  8
1
 62
1
  6
DASHED
 10
191.515217391
 20
221.475362319
 11
190.715217391
 21
222.275362319
  0
LINE
  8
1
 62
1
  6
DASHED
 10
196.615217391
 20
221.475362319
 11
191.515217391
 21
221.475362319
  0
LINE
  8
1
 62
1
  6
DASHED
 10
196.615217391
 20
221.475362319
 11
197.415217391
 21
222.275362319
  0
LINE
  8
1
 62
7
  6
CONTINUOUS
 10
182.465217391
 20
194.978570564
 11
182.465217391
 21
222.275362319
  0
LINE
  8
1
 62
1
  6
DASHED
 10
191.065217391
 20
216.275362319
 11
197.065217391
 21
216.275362319
  0
LINE
  8
1
 62
1
  6
DASHED
 10
191.065217391
 20
216.275362319
 11
191.515217391
 21
215.495939455
  0
LINE
  8
1
 62
1
  6
DASHED
 10
191.065217391
 20
221.925362319
 11
191.065217391
 21
216.275362319
  0
LINE
  8
1
 62
1
  6
DASHED
 10
197.065217391
 20
216.275362319
 11
196.615217391
 21
215.495939455
  0
LINE
  8
1
 62
1
  6
DASHED
 10
197.065217391
 20
221.925362319
 11
197.065217391
 21
216.275362319
  0
LINE
  8
1
 62
1
  6
DASHED
 10
196.615217391
 20
213.275362319
 11
191.515217391
 21
213.275362319
  0
LINE
  8
1
 62
1
  6
DASHED
 10
191.515217391
 20
213.275362319
 11
194.065217391
 21
211.803119132
  0
LINE
  8
1
 62
1
  6
DASHED
 10
196.615217391
 20
213.275362319
 11
194.065217391
 21
211.803119132
  0
LINE
  8
1
 62
1
  6
DASHED
 10
191.515217391
 20
221.475362319
 11
191.515217391
 21
213.275362319
  0
LINE
  8
1
 62
1
  6
DASHED
 10
196.615217391
 20
221.475362319
 11
196.615217391
 21
213.275362319
  0
LINE
  8
1
 62
1
  6
CENTER
 10
194.065217391
 20
209.803119132
 11
194.065217391
 21
224.275362319
  0
DIMENSION
  8
1
 62
4
  6
CONTINUOUS
  2
*D194
 70
1
 10
68.893714776
 20
174.525362319
 11
68.893714776
 21
199.275362319
 14
153.008593064
 24
174.525362319
 13
153.008593064
 23
224.025362319
 50
90.000000000
  0
TEXT
  8
1
 62
4
  6
CONTINUOUS
 72
5
 10
228.024568047
 20
232.545362319
 40
3.200000000
  1
ＢＴ３０
 41
0.838944635
 11
240.224568047
 21
232.545362319
  0
POLYLINE
  8
1
 62
4
  6
CONTINUOUS
 66
1
  0
VERTEX
  8
1
 10
194.065216064
 20
222.275360107
  0
VERTEX
  8
1
 10
194.442672729
 20
222.814422607
  0
VERTEX
  8
1
 10
194.820129395
 20
223.353485107
  0
VERTEX
  8
1
 10
195.197586060
 20
223.892547607
  0
VERTEX
  8
1
 10
195.575042725
 20
224.431610107
  0
VERTEX
  8
1
 10
195.952499390
 20
224.970672607
  0
VERTEX
  8
1
 10
196.329956055
 20
225.509735107
  0
VERTEX
  8
1
 10
196.707412720
 20
226.048797607
  0
VERTEX
  8
1
 10
197.084869385
 20
226.587860107
  0
VERTEX
  8
1
 10
197.462310791
 20
227.126922607
  0
VERTEX
  8
1
 10
197.839767456
 20
227.665985107
  0
VERTEX
  8
1
 10
198.217224121
 20
228.205047607
  0
VERTEX
  8
1
 10
198.594680786
 20
228.744110107
  0
VERTEX
  8
1
 10
198.972137451
 20
229.283172607
  0
VERTEX
  8
1
 10
199.349594116
 20
229.822235107
  0
VERTEX
  8
1
 10
199.727050781
 20
230.361297607
  0
VERTEX
  8
1
 10
200.104507446
 20
230.900360107
  0
VERTEX
  8
1
 10
200.481964111
 20
231.439422607
  0
VERTEX
  8
1
 10
200.859420776
 20
231.978485107
  0
VERTEX
  8
1
 10
201.236877441
 20
232.517547607
  0
VERTEX
  8
1
 10
201.614334106
 20
233.056610107
  0
VERTEX
  8
1
 10
201.991790771
 20
233.595672607
  0
VERTEX
  8
1
 10
202.369247437
 20
234.134735107
  0
VERTEX
  8
1
 10
202.746704102
 20
234.673797607
  0
VERTEX
  8
1
 10
203.124145508
 20
235.212860107
  0
VERTEX
  8
1
 10
203.501602173
 20
235.751922607
  0
VERTEX
  8
1
 10
203.879058838
 20
236.290985107
  0
VERTEX
  8
1
 10
204.256515503
 20
236.830047607
  0
VERTEX
  8
1
 10
204.633972168
 20
237.369110107
  0
VERTEX
  8
1
 10
205.011428833
 20
237.908172607
  0
VERTEX
  8
1
 10
205.388885498
 20
238.447235107
  0
VERTEX
  8
1
 10
205.766342163
 20
238.986297607
  0
VERTEX
  8
1
 10
206.143798828
 20
239.525360107
  0
VERTEX
  8
1
 10
206.517776489
 20
239.525360107
  0
VERTEX
  8
1
 10
206.891754150
 20
239.525360107
  0
VERTEX
  8
1
 10
207.265731812
 20
239.525360107
  0
VERTEX
  8
1
 10
207.639724731
 20
239.525360107
  0
VERTEX
  8
1
 10
208.013702393
 20
239.525360107
  0
VERTEX
  8
1
 10
208.387680054
 20
239.525360107
  0
VERTEX
  8
1
 10
208.761657715
 20
239.525360107
  0
VERTEX
  8
1
 10
209.135635376
 20
239.525360107
  0
VERTEX
  8
1
 10
209.509628296
 20
239.525360107
  0
VERTEX
  8
1
 10
209.883605957
 20
239.525360107
  0
VERTEX
  8
1
 10
210.257583618
 20
239.525360107
  0
VERTEX
  8
1
 10
210.631561279
 20
239.525360107
  0
VERTEX
  8
1
 10
211.005538940
 20
239.525360107
  0
VERTEX
  8
1
 10
211.379531860
 20
239.525360107
  0
VERTEX
  8
1
 10
211.753509521
 20
239.525360107
  0
VERTEX
  8
1
 10
212.127487183
 20
239.525360107
  0
VERTEX
  8
1
 10
212.501464844
 20
239.525360107
  0
VERTEX
  8
1
 10
212.875442505
 20
239.525360107
  0
VERTEX
  8
1
 10
213.249420166
 20
239.525360107
  0
VERTEX
  8
1
 10
213.623413086
 20
239.525360107
  0
VERTEX
  8
1
 10
213.997390747
 20
239.525360107
  0
VERTEX
  8
1
 10
214.371368408
 20
239.525360107
  0
VERTEX
  8
1
 10
214.745346069
 20
239.525360107
  0
VERTEX
  8
1
 10
215.119323730
 20
239.525360107
  0
VERTEX
  8
1
 10
215.493316650
 20
239.525360107
  0
VERTEX
  8
1
 10
215.867294312
 20
239.525360107
  0
VERTEX
  8
1
 10
216.241271973
 20
239.525360107
  0
VERTEX
  8
1
 10
216.615249634
 20
239.525360107
  0
VERTEX
  8
1
 10
216.989227295
 20
239.525360107
  0
VERTEX
  8
1
 10
217.363204956
 20
239.525360107
  0
VERTEX
  8
1
 10
217.737197876
 20
239.525360107
  0
VERTEX
  8
1
 10
218.111175537
 20
239.525360107
  0
SEQEND
  8
1
  0
POLYLINE
  8
1
 62
4
  6
CONTINUOUS
 66
1
  0
VERTEX
  8
1
 10
194.966623516
 20
224.085737031
  0
VERTEX
  8
1
 10
194.065216064
 20
222.275360107
  0
VERTEX
  8
1
 10
195.458114706
 20
223.741591117
  0
SEQEND
  8
1
  0
TEXT
  8
1
 62
4
  6
CONTINUOUS
 72
5
 10
206.143797425
 20
240.545362319
 40
3.200000000
  1
Ｍ６Ｘ１
 41
0.838944635
 11
218.343797425
 21
240.545362319
  0
TEXT
  8
1
 62
4
  6
CONTINUOUS
 72
5
 10
206.143797425
 20
235.445362319
 40
3.200000000
  1
深さ６
 41
0.840958019
 11
215.143797425
 21
235.445362319
  0
POLYLINE
  8
1
 62
4
  6
CONTINUOUS
 66
1
  0
VERTEX
  8
1
 10
217.133056641
 20
212.660720825
  0
VERTEX
  8
1
 10
217.473419189
 20
213.250228882
  0
VERTEX
  8
1
 10
217.813781738
 20
213.839752197
  0
VERTEX
  8
1
 10
218.154144287
 20
214.429275513
  0
VERTEX
  8
1
 10
218.494491577
 20
215.018798828
  0
VERTEX
  8
1
 10
218.834854126
 20
215.608322144
  0
VERTEX
  8
1
 10
219.175216675
 20
216.197830200
  0
VERTEX
  8
1
 10
219.515579224
 20
216.787353516
  0
VERTEX
  8
1
 10
219.855941772
 20
217.376876831
  0
VERTEX
  8
1
 10
220.196289063
 20
217.966400146
  0
VERTEX
  8
1
 10
220.536651611
 20
218.555923462
  0
VERTEX
  8
1
 10
220.877014160
 20
219.145431519
  0
VERTEX
  8
1
 10
221.217376709
 20
219.734954834
  0
VERTEX
  8
1
 10
221.557739258
 20
220.324478149
  0
VERTEX
  8
1
 10
221.898086548
 20
220.914001465
  0
VERTEX
  8
1
 10
222.238449097
 20
221.503524780
  0
VERTEX
  8
1
 10
222.578811646
 20
222.093032837
  0
VERTEX
  8
1
 10
222.919174194
 20
222.682556152
  0
VERTEX
  8
1
 10
223.259536743
 20
223.272079468
  0
VERTEX
  8
1
 10
223.599899292
 20
223.861602783
  0
VERTEX
  8
1
 10
223.940246582
 20
224.451126099
  0
VERTEX
  8
1
 10
224.280609131
 20
225.040634155
  0
VERTEX
  8
1
 10
224.620971680
 20
225.630157471
  0
VERTEX
  8
1
 10
224.961334229
 20
226.219680786
  0
VERTEX
  8
1
 10
225.301696777
 20
226.809204102
  0
VERTEX
  8
1
 10
225.642044067
 20
227.398727417
  0
VERTEX
  8
1
 10
225.982406616
 20
227.988235474
  0
VERTEX
  8
1
 10
226.322769165
 20
228.577758789
  0
VERTEX
  8
1
 10
226.663131714
 20
229.167282104
  0
VERTEX
  8
1
 10
227.003494263
 20
229.756805420
  0
VERTEX
  8
1
 10
227.343841553
 20
230.346328735
  0
VERTEX
  8
1
 10
227.684204102
 20
230.935836792
  0
VERTEX
  8
1
 10
228.024566650
 20
231.525360107
  0
VERTEX
  8
1
 10
228.415069580
 20
231.525360107
  0
VERTEX
  8
1
 10
228.805572510
 20
231.525360107
  0
VERTEX
  8
1
 10
229.196075439
 20
231.525360107
  0
VERTEX
  8
1
 10
229.586563110
 20
231.525360107
  0
VERTEX
  8
1
 10
229.977066040
 20
231.525360107
  0
VERTEX
  8
1
 10
230.367568970
 20
231.525360107
  0
VERTEX
  8
1
 10
230.758071899
 20
231.525360107
  0
VERTEX
  8
1
 10
231.148574829
 20
231.525360107
  0
VERTEX
  8
1
 10
231.539062500
 20
231.525360107
  0
VERTEX
  8
1
 10
231.929565430
 20
231.525360107
  0
VERTEX
  8
1
 10
232.320068359
 20
231.525360107
  0
VERTEX
  8
1
 10
232.710571289
 20
231.525360107
  0
VERTEX
  8
1
 10
233.101074219
 20
231.525360107
  0
VERTEX
  8
1
 10
233.491561890
 20
231.525360107
  0
VERTEX
  8
1
 10
233.882064819
 20
231.525360107
  0
VERTEX
  8
1
 10
234.272567749
 20
231.525360107
  0
VERTEX
  8
1
 10
234.663070679
 20
231.525360107
  0
VERTEX
  8
1
 10
235.053573608
 20
231.525360107
  0
VERTEX
  8
1
 10
235.444061279
 20
231.525360107
  0
VERTEX
  8
1
 10
235.834564209
 20
231.525360107
  0
VERTEX
  8
1
 10
236.225067139
 20
231.525360107
  0
VERTEX
  8
1
 10
236.615570068
 20
231.525360107
  0
VERTEX
  8
1
 10
237.006072998
 20
231.525360107
  0
VERTEX
  8
1
 10
237.396560669
 20
231.525360107
  0
VERTEX
  8
1
 10
237.787063599
 20
231.525360107
  0
VERTEX
  8
1
 10
238.177566528
 20
231.525360107
  0
VERTEX
  8
1
 10
238.568069458
 20
231.525360107
  0
VERTEX
  8
1
 10
238.958572388
 20
231.525360107
  0
VERTEX
  8
1
 10
239.349075317
 20
231.525360107
  0
VERTEX
  8
1
 10
239.739562988
 20
231.525360107
  0
VERTEX
  8
1
 10
240.130065918
 20
231.525360107
  0
VERTEX
  8
1
 10
240.520568848
 20
231.525360107
  0
SEQEND
  8
1
  0
POLYLINE
  8
1
 62
4
  6
CONTINUOUS
 66
1
  0
VERTEX
  8
1
 10
217.873249427
 20
214.542771473
  0
VERTEX
  8
1
 10
217.133056641
 20
212.660720825
  0
VERTEX
  8
1
 10
218.392864604
 20
214.242771360
  0
SEQEND
  8
1
  0
DIMENSION
  8
1
 62
4
  6
CONTINUOUS
  2
*D199
 70
0
 10
200.065217391
 20
239.525362319
 11
197.065217391
 21
239.525362319
 14
200.065217391
 24
215.150362319
 13
194.065217391
 23
224.275362319
 50
0.000000000
  0
DIMENSION
  8
1
 62
4
  6
CONTINUOUS
  2
*D200
 70
0
 10
117.565217391
 20
255.525362319
 11
110.229466084
 21
255.525362319
 14
117.565217391
 24
211.775362319
 13
102.893714776
 23
202.698012050
 50
0.000000000
  0
DIMENSION
  8
1
 62
4
  6
CONTINUOUS
  2
*D201
 70
0
 10
248.465217391
 20
255.525362319
 11
183.015217391
 21
255.525362319
 14
248.465217391
 24
207.658004850
 13
117.565217391
 23
211.775362319
 50
0.000000000
  0
DIMENSION
  8
1
 62
4
  6
CONTINUOUS
  2
*D202
 70
0
 10
200.065217391
 20
247.525362319
 11
158.815217391
 21
247.525362319
 14
200.065217391
 24
215.150362319
 13
117.565217391
 23
211.775362319
 50
0.000000000
  0
DIMENSION
  8
1
 62
4
  6
CONTINUOUS
  2
*D203
 70
0
 10
248.465217391
 20
247.525362319
 11
224.265217391
 21
247.525362319
 14
248.465217391
 24
207.658004850
 13
200.065217391
 23
215.150362319
 50
0.000000000
  0
DIMENSION
  8
1
 62
4
  6
CONTINUOUS
  2
*D204
 70
0
 10
151.565217391
 20
239.525362319
 11
134.565217391
 21
239.525362319
 14
151.565217391
 24
221.525362319
 13
117.565217391
 23
211.775362319
 50
0.000000000
  0
DIMENSION
  8
1
 62
4
  6
CONTINUOUS
  2
*D205
 70
0
 10
169.065217391
 20
239.525362319
 11
160.315217391
 21
239.525362319
 14
169.065217391
 24
223.525362319
 13
151.565217391
 23
221.525362319
 50
0.000000000
  0
DIMENSION
  8
1
 62
4
  6
CONTINUOUS
  2
*D206
 70
0
 10
127.415217391
 20
231.525362319
 11
123.579487527
 21
231.525362319
 14
127.415217391
 24
221.525362308
 13
117.565217391
 23
211.775362319
 50
0.000000000
  0
ENDSEC
  0
EOF
