  0
SECTION
  2
HEADER
  9
$ACADVER
  1
AC1009
  9
$INSBASE
 10
0.000000000
 20
0.000000000
  9
$EXTMIN
 10
-29.046521739
 20
-25.877536232
  9
$EXTMAX
 10
319.511739130
 20
284.652898551
  9
$LIMMIN
 10
-29.046521739
 20
-25.877536232
  9
$LIMMAX
 10
319.511739130
 20
284.652898551
  9
$SNAPBASE
 10
0.000000000
 20
0.000000000
  9
$SNAPANG
 50
0.000000000
  9
$SNAPSTYLE
 70
0
  9
$GRIDMODE
 70
0
  9
$GRIDUNIT
 10
0.000000000
 20
0.000000000
  9
$DIMEXO
 40
0.000000000
  9
$DIMDLI
 40
8.000000000
  9
$DIMDLE
 40
0.000000000
  9
$DIMEXE
 40
1.000000000
  9
$DIMTIH
 70
1
  9
$DIMTOH
 70
1
  9
$DIMTAD
 70
2
  9
$DIMZIN
 70
0
  9
$FILLETRAD
 40
1.000000000
  9
$CHAMFERA
 40
1.000000000
  9
$CHAMFERB
 40
1.000000000
  9
$TDCREATE
 40
2454182.600150463
  9
$TDUPDATE
 40
2454182.600150463
  9
$ANGBASE
 50
0.000000000
  9
$ANGDIR
 70
0
  0
ENDSEC
  0
SECTION
  2
TABLES
  0
TABLE
  2
LTYPE
 70
4
  0
LTYPE
  2
CENTER
 70
64
  3
___ _ ___ _ __
 72
65
 73
4
 40
13.000000000
 49
8.500000000
 49
-1.500000000
 49
1.500000000
 49
-1.500000000
  0
LTYPE
  2
CONTINUOUS
 70
64
  3
______________
 72
65
 73
0
 40
0.000000000
  0
LTYPE
  2
DASHED
 70
64
  3
___ ___ ___ __
 72
65
 73
2
 40
5.000000119
 49
3.400000095
 49
-1.600000024
  0
LTYPE
  2
DIVIDE
 70
64
  3
___ . . ___ . 
 72
65
 73
6
 40
12.999999523
 49
5.199999809
 49
-2.599999905
 49
0.000000000
 49
-2.599999905
 49
0.000000000
 49
-2.599999905
  0
ENDTAB
  0
TABLE
  2
LAYER
 70
2
  0
LAYER
  2
1
 70
0
 62
7
  6
CONTINUOUS
  0
LAYER
  2
15
 70
0
 62
5
  6
CONTINUOUS
999
ﾁｬｯｸ
  0
LAYER
  2
_CONSTR
 70
0
 62
5
  6
CONTINUOUS
  0
ENDTAB
  0
TABLE
  2
STYLE
 70
1
  0
STYLE
  2
STANDARD
 70
64
 40
0.000000000
 41
1.000000000
 50
0.000000000
 71
0
 42
3.200000000
  3
TXT
  4
EXTFONT
  0
ENDTAB
  0
TABLE
  2
VIEW
 70
0
  0
ENDTAB
  0
ENDSEC
  0
SECTION
  2
BLOCKS
  0
BLOCK
  8
0
  2
blk104
 70
64
 10
0.000000000
 20
0.000000000
  3
blk104
  0
ARC
  8
1
 62
7
  6
CONTINUOUS
 10
0.000000000
 20
0.000000000
 40
1.000000000
 50
180.000000000
 51
270.000000000
  0
ENDBLK
  8
0
  0
BLOCK
  8
0
  2
*D105
 70
65
 10
0.000000000
 20
0.000000000
  3
*D
  0
TEXT
  8
1
 62
4
  6
CONTINUOUS
 72
5
 10
74.688714776
 20
192.143762319
 40
2.800000000
  1
φ
 41
1.270648030
 50
90.000000000
 11
74.688714776
 21
195.503762319
  0
TEXT
  8
1
 62
4
  6
CONTINUOUS
 72
5
 10
74.688714776
 20
197.183762319
 40
2.800000000
  1
44.5
 41
1.099999267
 50
90.000000000
 11
74.688714776
 21
206.423762319
  0
LINE
  8
1
 62
4
  6
CONTINUOUS
 10
127.415217391
 20
221.525362308
 11
74.893714776
 21
221.525362308
  0
POLYLINE
  8
1
 62
4
  6
CONTINUOUS
 66
1
  0
VERTEX
  8
1
 10
77.193714776
 20
219.525362308
  0
VERTEX
  8
1
 10
76.893714776
 20
221.525362308
  0
VERTEX
  8
1
 10
76.593714776
 20
219.525362308
  0
SEQEND
  8
1
  0
LINE
  8
1
 62
4
  6
CONTINUOUS
 10
76.893714776
 20
221.525362308
 11
76.893714776
 21
177.025362329
  0
POLYLINE
  8
1
 62
4
  6
CONTINUOUS
 66
1
  0
VERTEX
  8
1
 10
76.593714776
 20
179.025362329
  0
VERTEX
  8
1
 10
76.893714776
 20
177.025362329
  0
VERTEX
  8
1
 10
77.193714776
 20
179.025362329
  0
SEQEND
  8
1
  0
LINE
  8
1
 62
4
  6
CONTINUOUS
 10
127.415217391
 20
177.025362329
 11
74.893714776
 21
177.025362329
  0
ENDBLK
  8
0
  0
BLOCK
  8
0
  2
*D106
 70
65
 10
0.000000000
 20
0.000000000
  3
*D
  0
TEXT
  8
1
 62
4
  6
CONTINUOUS
 72
5
 10
82.688714776
 20
192.143762319
 40
2.800000000
  1
φ
 41
1.270648030
 50
90.000000000
 11
82.688714776
 21
195.503762319
  0
TEXT
  8
1
 62
4
  6
CONTINUOUS
 72
5
 10
82.688714776
 20
197.183762319
 40
2.800000000
  1
11.8
 41
1.414284098
 50
90.000000000
 11
82.688714776
 21
206.423762319
  0
LINE
  8
1
 62
4
  6
CONTINUOUS
 10
106.452560503
 20
205.175362319
 11
82.893714776
 21
205.175362319
  0
POLYLINE
  8
1
 62
4
  6
CONTINUOUS
 66
1
  0
VERTEX
  8
1
 10
85.193714776
 20
203.175362319
  0
VERTEX
  8
1
 10
84.893714776
 20
205.175362319
  0
VERTEX
  8
1
 10
84.593714776
 20
203.175362319
  0
SEQEND
  8
1
  0
LINE
  8
1
 62
4
  6
CONTINUOUS
 10
84.893714776
 20
205.175362319
 11
84.893714776
 21
193.375362319
  0
POLYLINE
  8
1
 62
4
  6
CONTINUOUS
 66
1
  0
VERTEX
  8
1
 10
84.593714776
 20
195.375362319
  0
VERTEX
  8
1
 10
84.893714776
 20
193.375362319
  0
VERTEX
  8
1
 10
85.193714776
 20
195.375362319
  0
SEQEND
  8
1
  0
LINE
  8
1
 62
4
  6
CONTINUOUS
 10
106.452560503
 20
193.375362319
 11
82.893714776
 21
193.375362319
  0
ENDBLK
  8
0
  0
BLOCK
  8
0
  2
blk170
 70
64
 10
0.000000000
 20
0.000000000
  3
blk170
  0
ARC
  8
1
 62
7
  6
CONTINUOUS
 10
0.000000000
 20
0.000000000
 40
1.000000000
 50
90.000000000
 51
180.000000000
  0
ENDBLK
  8
0
  0
BLOCK
  8
0
  2
blk173
 70
64
 10
0.000000000
 20
0.000000000
  3
blk173
  0
ARC
  8
1
 62
7
  6
CONTINUOUS
 10
0.000000000
 20
0.000000000
 40
1.000000000
 50
196.572799622
 51
270.000000000
  0
ENDBLK
  8
0
  0
BLOCK
  8
0
  2
*D189
 70
65
 10
0.000000000
 20
0.000000000
  3
*D
  0
TEXT
  8
1
 62
4
  6
CONTINUOUS
 72
5
 10
103.097866084
 20
260.980362319
 40
2.800000000
  1
(
 41
1.800001800
 11
104.777866084
 21
260.980362319
  0
TEXT
  8
1
 62
4
  6
CONTINUOUS
 72
5
 10
105.617866084
 20
260.980362319
 40
2.800000000
  1
14.7
 41
1.237498917
 11
114.857866084
 21
260.980362319
  0
TEXT
  8
1
 62
4
  6
CONTINUOUS
 72
5
 10
115.697866084
 20
260.980362319
 40
2.800000000
  1
)
 41
1.800001800
 11
117.377866084
 21
260.980362319
  0
LINE
  8
1
 62
4
  6
CONTINUOUS
 10
102.893714776
 20
202.698012050
 11
102.893714776
 21
260.775362319
  0
POLYLINE
  8
1
 62
4
  6
CONTINUOUS
 66
1
  0
VERTEX
  8
1
 10
104.893714776
 20
259.075362319
  0
VERTEX
  8
1
 10
102.893714776
 20
258.775362319
  0
VERTEX
  8
1
 10
104.893714776
 20
258.475362319
  0
SEQEND
  8
1
  0
LINE
  8
1
 62
4
  6
CONTINUOUS
 10
102.893714776
 20
258.775362319
 11
117.565217391
 21
258.775362319
  0
POLYLINE
  8
1
 62
4
  6
CONTINUOUS
 66
1
  0
VERTEX
  8
1
 10
115.565217391
 20
258.475362319
  0
VERTEX
  8
1
 10
117.565217391
 20
258.775362319
  0
VERTEX
  8
1
 10
115.565217391
 20
259.075362319
  0
SEQEND
  8
1
  0
LINE
  8
1
 62
4
  6
CONTINUOUS
 10
117.565217391
 20
211.775362319
 11
117.565217391
 21
260.775362319
  0
ENDBLK
  8
0
  0
BLOCK
  8
0
  2
*D190
 70
65
 10
0.000000000
 20
0.000000000
  3
*D
  0
TEXT
  8
1
 62
4
  6
CONTINUOUS
 72
5
 10
186.623617391
 20
260.980362319
 40
2.800000000
  1
(
 41
1.800001800
 11
188.303617391
 21
260.980362319
  0
TEXT
  8
1
 62
4
  6
CONTINUOUS
 72
5
 10
189.143617391
 20
260.980362319
 40
2.800000000
  1
154.9
 41
1.145453817
 11
200.903617391
 21
260.980362319
  0
TEXT
  8
1
 62
4
  6
CONTINUOUS
 72
5
 10
201.743617391
 20
260.980362319
 40
2.800000000
  1
)
 41
1.800001800
 11
203.423617391
 21
260.980362319
  0
POLYLINE
  8
1
 62
4
  6
CONTINUOUS
 66
1
  0
VERTEX
  8
1
 10
119.565217391
 20
259.075362319
  0
VERTEX
  8
1
 10
117.565217391
 20
258.775362319
  0
VERTEX
  8
1
 10
119.565217391
 20
258.475362319
  0
SEQEND
  8
1
  0
LINE
  8
1
 62
4
  6
CONTINUOUS
 10
117.565217391
 20
258.775362319
 11
272.465217391
 21
258.775362319
  0
POLYLINE
  8
1
 62
4
  6
CONTINUOUS
 66
1
  0
VERTEX
  8
1
 10
270.465217391
 20
258.475362319
  0
VERTEX
  8
1
 10
272.465217391
 20
258.775362319
  0
VERTEX
  8
1
 10
270.465217391
 20
259.075362319
  0
SEQEND
  8
1
  0
LINE
  8
1
 62
4
  6
CONTINUOUS
 10
272.465217391
 20
211.061108406
 11
272.465217391
 21
260.775362319
  0
ENDBLK
  8
0
  0
BLOCK
  8
0
  2
*D191
 70
65
 10
0.000000000
 20
0.000000000
  3
*D
  0
TEXT
  8
1
 62
4
  6
CONTINUOUS
 72
5
 10
155.183617391
 20
252.980362319
 40
2.800000000
  1
(
 41
1.800001800
 11
156.863617391
 21
252.980362319
  0
TEXT
  8
1
 62
4
  6
CONTINUOUS
 72
5
 10
157.703617391
 20
252.980362319
 40
2.800000000
  1
89.5
 41
1.099999267
 11
166.943617391
 21
252.980362319
  0
TEXT
  8
1
 62
4
  6
CONTINUOUS
 72
5
 10
167.783617391
 20
252.980362319
 40
2.800000000
  1
)
 41
1.800001800
 11
169.463617391
 21
252.980362319
  0
LINE
  8
1
 62
4
  6
CONTINUOUS
 10
117.565217391
 20
211.775362319
 11
117.565217391
 21
252.775362319
  0
POLYLINE
  8
1
 62
4
  6
CONTINUOUS
 66
1
  0
VERTEX
  8
1
 10
119.565217391
 20
251.075362319
  0
VERTEX
  8
1
 10
117.565217391
 20
250.775362319
  0
VERTEX
  8
1
 10
119.565217391
 20
250.475362319
  0
SEQEND
  8
1
  0
LINE
  8
1
 62
4
  6
CONTINUOUS
 10
117.565217391
 20
250.775362319
 11
207.065217391
 21
250.775362319
  0
POLYLINE
  8
1
 62
4
  6
CONTINUOUS
 66
1
  0
VERTEX
  8
1
 10
205.065217391
 20
250.475362319
  0
VERTEX
  8
1
 10
207.065217391
 20
250.775362319
  0
VERTEX
  8
1
 10
205.065217391
 20
251.075362319
  0
SEQEND
  8
1
  0
LINE
  8
1
 62
4
  6
CONTINUOUS
 10
207.065217391
 20
221.500362319
 11
207.065217391
 21
252.775362319
  0
ENDBLK
  8
0
  0
BLOCK
  8
0
  2
*D192
 70
65
 10
0.000000000
 20
0.000000000
  3
*D
  0
TEXT
  8
1
 62
4
  6
CONTINUOUS
 72
5
 10
235.153617391
 20
252.980362319
 40
2.800000000
  1
65.4
 41
1.099999267
 11
244.393617391
 21
252.980362319
  0
POLYLINE
  8
1
 62
4
  6
CONTINUOUS
 66
1
  0
VERTEX
  8
1
 10
209.065217391
 20
251.075362319
  0
VERTEX
  8
1
 10
207.065217391
 20
250.775362319
  0
VERTEX
  8
1
 10
209.065217391
 20
250.475362319
  0
SEQEND
  8
1
  0
LINE
  8
1
 62
4
  6
CONTINUOUS
 10
207.065217391
 20
250.775362319
 11
272.465217391
 21
250.775362319
  0
POLYLINE
  8
1
 62
4
  6
CONTINUOUS
 66
1
  0
VERTEX
  8
1
 10
270.465217391
 20
250.475362319
  0
VERTEX
  8
1
 10
272.465217391
 20
250.775362319
  0
VERTEX
  8
1
 10
270.465217391
 20
251.075362319
  0
SEQEND
  8
1
  0
LINE
  8
1
 62
4
  6
CONTINUOUS
 10
272.465217391
 20
211.061108406
 11
272.465217391
 21
252.775362319
  0
ENDBLK
  8
0
  0
BLOCK
  8
0
  2
*D193
 70
65
 10
0.000000000
 20
0.000000000
  3
*D
  0
TEXT
  8
1
 62
4
  6
CONTINUOUS
 72
5
 10
129.953617391
 20
244.980362319
 40
2.800000000
  1
(
 41
1.800001800
 11
131.633617391
 21
244.980362319
  0
TEXT
  8
1
 62
4
  6
CONTINUOUS
 72
5
 10
132.473617391
 20
244.980362319
 40
2.800000000
  1
34
 41
0.899998740
 11
136.673617391
 21
244.980362319
  0
TEXT
  8
1
 62
4
  6
CONTINUOUS
 72
5
 10
137.513617391
 20
244.980362319
 40
2.800000000
  1
)
 41
1.800001800
 11
139.193617391
 21
244.980362319
  0
LINE
  8
1
 62
4
  6
CONTINUOUS
 10
117.565217391
 20
211.775362319
 11
117.565217391
 21
244.775362319
  0
POLYLINE
  8
1
 62
4
  6
CONTINUOUS
 66
1
  0
VERTEX
  8
1
 10
119.565217391
 20
243.075362319
  0
VERTEX
  8
1
 10
117.565217391
 20
242.775362319
  0
VERTEX
  8
1
 10
119.565217391
 20
242.475362319
  0
SEQEND
  8
1
  0
LINE
  8
1
 62
4
  6
CONTINUOUS
 10
117.565217391
 20
242.775362319
 11
151.565217391
 21
242.775362319
  0
POLYLINE
  8
1
 62
4
  6
CONTINUOUS
 66
1
  0
VERTEX
  8
1
 10
149.565217391
 20
242.475362319
  0
VERTEX
  8
1
 10
151.565217391
 20
242.775362319
  0
VERTEX
  8
1
 10
149.565217391
 20
243.075362319
  0
SEQEND
  8
1
  0
LINE
  8
1
 62
4
  6
CONTINUOUS
 10
151.565217391
 20
221.525362319
 11
151.565217391
 21
244.775362319
  0
ENDBLK
  8
0
  0
BLOCK
  8
0
  2
*D194
 70
65
 10
0.000000000
 20
0.000000000
  3
*D
  0
TEXT
  8
1
 62
4
  6
CONTINUOUS
 72
5
 10
155.703617391
 20
244.980362319
 40
2.800000000
  1
17.5
 41
1.237498917
 11
164.943617391
 21
244.980362319
  0
POLYLINE
  8
1
 62
4
  6
CONTINUOUS
 66
1
  0
VERTEX
  8
1
 10
153.565217391
 20
243.075362319
  0
VERTEX
  8
1
 10
151.565217391
 20
242.775362319
  0
VERTEX
  8
1
 10
153.565217391
 20
242.475362319
  0
SEQEND
  8
1
  0
LINE
  8
1
 62
4
  6
CONTINUOUS
 10
151.565217391
 20
242.775362319
 11
169.065217391
 21
242.775362319
  0
POLYLINE
  8
1
 62
4
  6
CONTINUOUS
 66
1
  0
VERTEX
  8
1
 10
167.065217391
 20
242.475362319
  0
VERTEX
  8
1
 10
169.065217391
 20
242.775362319
  0
VERTEX
  8
1
 10
167.065217391
 20
243.075362319
  0
SEQEND
  8
1
  0
LINE
  8
1
 62
4
  6
CONTINUOUS
 10
169.065217391
 20
223.525362319
 11
169.065217391
 21
244.775362319
  0
ENDBLK
  8
0
  0
BLOCK
  8
0
  2
*D195
 70
65
 10
0.000000000
 20
0.000000000
  3
*D
  0
TEXT
  8
1
 62
4
  6
CONTINUOUS
 72
5
 10
118.221761400
 20
236.980362319
 40
2.800000000
  1
(
 41
1.650001650
 11
119.761761400
 21
236.980362319
  0
TEXT
  8
1
 62
4
  6
CONTINUOUS
 72
5
 10
120.531761400
 20
236.980362319
 40
2.800000000
  1
9.9
 41
1.099998900
 11
126.691761400
 21
236.980362319
  0
TEXT
  8
1
 62
4
  6
CONTINUOUS
 72
5
 10
127.461761400
 20
236.980362319
 40
2.800000000
  1
)
 41
1.650001650
 11
129.001761400
 21
236.980362319
  0
LINE
  8
1
 62
4
  6
CONTINUOUS
 10
117.565217391
 20
211.775362319
 11
117.565217391
 21
236.775362319
  0
POLYLINE
  8
1
 62
4
  6
CONTINUOUS
 66
1
  0
VERTEX
  8
1
 10
115.565217391
 20
235.075362319
  0
VERTEX
  8
1
 10
117.565217391
 20
234.775362319
  0
SEQEND
  8
1
  0
POLYLINE
  8
1
 62
4
  6
CONTINUOUS
 66
1
  0
VERTEX
  8
1
 10
114.565217391
 20
234.775362319
  0
VERTEX
  8
1
 10
117.565217391
 20
234.775362319
  0
VERTEX
  8
1
 10
115.565217391
 20
234.475362319
  0
SEQEND
  8
1
  0
LINE
  8
1
 62
4
  6
CONTINUOUS
 10
117.565217391
 20
234.775362319
 11
127.415217391
 21
234.775362319
  0
POLYLINE
  8
1
 62
4
  6
CONTINUOUS
 66
1
  0
VERTEX
  8
1
 10
129.415217391
 20
234.475362319
  0
VERTEX
  8
1
 10
127.415217391
 20
234.775362319
  0
SEQEND
  8
1
  0
POLYLINE
  8
1
 62
4
  6
CONTINUOUS
 66
1
  0
VERTEX
  8
1
 10
130.415217391
 20
234.775362319
  0
VERTEX
  8
1
 10
127.415217391
 20
234.775362319
  0
VERTEX
  8
1
 10
129.415217391
 20
235.075362319
  0
SEQEND
  8
1
  0
LINE
  8
1
 62
4
  6
CONTINUOUS
 10
127.415217391
 20
221.525362308
 11
127.415217391
 21
236.775362319
  0
ENDBLK
  8
0
  0
BLOCK
  8
0
  2
*D196
 70
65
 10
0.000000000
 20
0.000000000
  3
*D
  0
TEXT
  8
1
 62
4
  6
CONTINUOUS
 72
5
 10
202.733617391
 20
244.980362319
 40
2.800000000
  1
7
 41
0.899996850
 11
204.413617391
 21
244.980362319
  0
LINE
  8
1
 62
4
  6
CONTINUOUS
 10
207.065217391
 20
221.500362319
 11
207.065217391
 21
244.775362319
  0
POLYLINE
  8
1
 62
4
  6
CONTINUOUS
 66
1
  0
VERTEX
  8
1
 10
209.065217391
 20
242.475362319
  0
VERTEX
  8
1
 10
207.065217391
 20
242.775362319
  0
SEQEND
  8
1
  0
POLYLINE
  8
1
 62
4
  6
CONTINUOUS
 66
1
  0
VERTEX
  8
1
 10
210.065217391
 20
242.775362319
  0
VERTEX
  8
1
 10
207.065217391
 20
242.775362319
  0
VERTEX
  8
1
 10
209.065217391
 20
243.075362319
  0
SEQEND
  8
1
  0
LINE
  8
1
 62
4
  6
CONTINUOUS
 10
207.065217391
 20
242.775362319
 11
200.065217391
 21
242.775362319
  0
POLYLINE
  8
1
 62
4
  6
CONTINUOUS
 66
1
  0
VERTEX
  8
1
 10
198.065217391
 20
243.075362319
  0
VERTEX
  8
1
 10
200.065217391
 20
242.775362319
  0
SEQEND
  8
1
  0
POLYLINE
  8
1
 62
4
  6
CONTINUOUS
 66
1
  0
VERTEX
  8
1
 10
197.065217391
 20
242.775362319
  0
VERTEX
  8
1
 10
200.065217391
 20
242.775362319
  0
VERTEX
  8
1
 10
198.065217391
 20
242.475362319
  0
SEQEND
  8
1
  0
LINE
  8
1
 62
4
  6
CONTINUOUS
 10
200.065217391
 20
232.775362319
 11
200.065217391
 21
244.775362319
  0
ENDBLK
  8
0
  0
BLOCK
  8
0
  2
*D200
 70
65
 10
0.000000000
 20
0.000000000
  3
*D
  0
TEXT
  8
1
 62
4
  6
CONTINUOUS
 72
5
 10
66.688714776
 20
192.143762319
 40
2.800000000
  1
φ
 41
1.270648030
 50
90.000000000
 11
66.688714776
 21
195.503762319
  0
TEXT
  8
1
 62
4
  6
CONTINUOUS
 72
5
 10
66.688714776
 20
197.183762319
 40
2.800000000
  1
49.5
 41
1.099999267
 50
90.000000000
 11
66.688714776
 21
206.423762319
  0
LINE
  8
1
 62
4
  6
CONTINUOUS
 10
153.008593064
 20
224.025362319
 11
66.893714776
 21
224.025362319
  0
POLYLINE
  8
1
 62
4
  6
CONTINUOUS
 66
1
  0
VERTEX
  8
1
 10
69.193714776
 20
222.025362319
  0
VERTEX
  8
1
 10
68.893714776
 20
224.025362319
  0
VERTEX
  8
1
 10
68.593714776
 20
222.025362319
  0
SEQEND
  8
1
  0
LINE
  8
1
 62
4
  6
CONTINUOUS
 10
68.893714776
 20
224.025362319
 11
68.893714776
 21
174.525362319
  0
POLYLINE
  8
1
 62
4
  6
CONTINUOUS
 66
1
  0
VERTEX
  8
1
 10
68.593714776
 20
176.525362319
  0
VERTEX
  8
1
 10
68.893714776
 20
174.525362319
  0
VERTEX
  8
1
 10
69.193714776
 20
176.525362319
  0
SEQEND
  8
1
  0
LINE
  8
1
 62
4
  6
CONTINUOUS
 10
153.008593064
 20
174.525362319
 11
66.893714776
 21
174.525362319
  0
ENDBLK
  8
0
  0
BLOCK
  8
0
  2
*D201
 70
65
 10
0.000000000
 20
0.000000000
  3
*D
  0
TEXT
  8
1
 62
4
  6
CONTINUOUS
 72
5
 10
288.260217391
 20
194.663762319
 40
2.800000000
  1
φ
 41
1.270648030
 50
90.000000000
 11
288.260217391
 21
198.023762319
  0
TEXT
  8
1
 62
4
  6
CONTINUOUS
 72
5
 10
288.260217391
 20
199.703762319
 40
2.800000000
  1
63
 41
0.899998740
 50
90.000000000
 11
288.260217391
 21
203.903762319
  0
LINE
  8
1
 62
4
  6
CONTINUOUS
 10
204.565217391
 20
230.775362319
 11
292.465217391
 21
230.775362319
  0
POLYLINE
  8
1
 62
4
  6
CONTINUOUS
 66
1
  0
VERTEX
  8
1
 10
290.765217391
 20
228.775362319
  0
VERTEX
  8
1
 10
290.465217391
 20
230.775362319
  0
VERTEX
  8
1
 10
290.165217391
 20
228.775362319
  0
SEQEND
  8
1
  0
LINE
  8
1
 62
4
  6
CONTINUOUS
 10
290.465217391
 20
230.775362319
 11
290.465217391
 21
167.775362319
  0
POLYLINE
  8
1
 62
4
  6
CONTINUOUS
 66
1
  0
VERTEX
  8
1
 10
290.165217391
 20
169.775362319
  0
VERTEX
  8
1
 10
290.465217391
 20
167.775362319
  0
VERTEX
  8
1
 10
290.765217391
 20
169.775362319
  0
SEQEND
  8
1
  0
LINE
  8
1
 62
4
  6
CONTINUOUS
 10
204.565217391
 20
167.775362319
 11
292.465217391
 21
167.775362319
  0
ENDBLK
  8
0
  0
ENDSEC
  0
SECTION
  2
ENTITIES
  0
LINE
  8
1
 62
1
  6
CENTER
 10
90.893714776
 20
199.275362319
 11
275.465217391
 21
199.275362319
  0
LINE
  8
1
 62
7
  6
CONTINUOUS
 10
125.865217391
 20
178.475362319
 11
126.065217391
 21
178.475362319
  0
LINE
  8
1
 62
7
  6
CONTINUOUS
 10
127.415217391
 20
221.525362308
 11
147.065217391
 21
221.525362308
  0
LINE
  8
1
 62
7
  6
CONTINUOUS
 10
126.165217391
 20
220.275362308
 11
127.415217391
 21
221.525362308
  0
ARC
  8
1
 62
7
  6
CONTINUOUS
 10
106.452560503
 20
194.375362319
 40
1.000000000
 50
240.000000000
 51
270.000000000
  0
LINE
  8
1
 62
4
  6
CONTINUOUS
 10
115.065217391
 20
201.336915132
 11
117.565217391
 21
197.213809506
  0
LINE
  8
1
 62
7
  6
CONTINUOUS
 10
117.565217391
 20
186.775362319
 11
125.865217391
 21
178.475362319
  0
LINE
  8
1
 62
4
  6
CONTINUOUS
 10
117.565217391
 20
201.336915132
 11
115.065217391
 21
197.213809506
  0
LINE
  8
1
 62
7
  6
CONTINUOUS
 10
115.065217391
 20
194.775362319
 11
115.065217391
 21
203.775362319
  0
LINE
  8
1
 62
7
  6
CONTINUOUS
 10
115.065217391
 20
201.336915132
 11
117.565217391
 21
201.336915132
  0
LINE
  8
1
 62
7
  6
CONTINUOUS
 10
114.393714776
 20
194.575362319
 11
114.865217391
 21
194.575362319
  0
LINE
  8
1
 62
7
  6
CONTINUOUS
 10
126.065217391
 20
220.075362319
 11
126.065217391
 21
178.475362319
  0
LINE
  8
1
 62
7
  6
CONTINUOUS
 10
106.743714776
 20
193.375362319
 11
106.452560503
 21
193.375362319
  0
LINE
  8
1
 62
7
  6
CONTINUOUS
 10
117.565217391
 20
186.775362319
 11
117.565217391
 21
211.775362319
  0
LINE
  8
1
 62
7
  6
CONTINUOUS
 10
117.565217391
 20
211.775362319
 11
125.865217391
 21
220.075362319
  0
LINE
  8
1
 62
7
  6
CONTINUOUS
 10
125.865217391
 20
220.075362319
 11
125.865217391
 21
178.475362319
  0
LINE
  8
1
 62
7
  6
CONTINUOUS
 10
125.865217391
 20
220.075362319
 11
126.065217391
 21
220.075362319
  0
LINE
  8
1
 62
7
  6
CONTINUOUS
 10
117.565217391
 20
194.775362319
 11
115.065217391
 21
194.775362319
  0
LINE
  8
1
 62
7
  6
CONTINUOUS
 10
106.743714776
 20
205.175362319
 11
106.893714776
 21
205.025362319
  0
LINE
  8
1
 62
7
  6
CONTINUOUS
 10
106.893714776
 20
204.775362319
 11
109.893714776
 21
204.775362319
  0
LINE
  8
1
 62
7
  6
CONTINUOUS
 10
114.865217391
 20
194.575362319
 11
114.865217391
 21
203.975362319
  0
LINE
  8
1
 62
7
  6
CONTINUOUS
 10
114.393714776
 20
204.375362319
 11
114.393714776
 21
194.175362319
  0
LINE
  8
1
 62
7
  6
CONTINUOUS
 10
115.065217391
 20
203.775362319
 11
114.865217391
 21
203.975362319
  0
LINE
  8
1
 62
7
  6
CONTINUOUS
 10
117.565217391
 20
203.775362319
 11
115.065217391
 21
203.775362319
  0
LINE
  8
1
 62
7
  6
CONTINUOUS
 10
115.065217391
 20
194.775362319
 11
114.865217391
 21
194.575362319
  0
LINE
  8
1
 62
7
  6
CONTINUOUS
 10
114.393714776
 20
203.975362319
 11
114.865217391
 21
203.975362319
  0
LINE
  8
1
 62
7
  6
CONTINUOUS
 10
113.593714776
 20
205.175362319
 11
110.043714776
 21
205.175362319
  0
LINE
  8
1
 62
7
  6
CONTINUOUS
 10
115.065217391
 20
197.213809506
 11
117.565217391
 21
197.213809506
  0
LINE
  8
1
 62
7
  6
CONTINUOUS
 10
103.393714776
 20
194.986687184
 11
105.952560503
 21
193.509336915
  0
LINE
  8
1
 62
7
  6
CONTINUOUS
 10
106.893714776
 20
193.525362319
 11
106.893714776
 21
205.025362319
  0
ARC
  8
1
 62
7
  6
CONTINUOUS
 10
113.593714776
 20
194.175362319
 40
0.800000000
 50
270.000000000
 51
0.000000000
  0
ARC
  8
1
 62
7
  6
CONTINUOUS
 10
103.893714776
 20
195.852712588
 40
1.000000000
 50
180.000000000
 51
240.000000000
  0
ARC
  8
1
 62
7
  6
CONTINUOUS
 10
103.893714776
 20
202.698012050
 40
1.000000000
 50
120.000000000
 51
180.000000000
  0
ARC
  8
1
 62
7
  6
CONTINUOUS
 10
113.593714776
 20
204.375362319
 40
0.800000000
 50
0.000000000
 51
90.000000000
  0
LINE
  8
1
 62
7
  6
CONTINUOUS
 10
106.743714776
 20
193.375362319
 11
106.893714776
 21
193.525362319
  0
LINE
  8
1
 62
7
  6
CONTINUOUS
 10
107.043714776
 20
201.410777969
 11
106.893714776
 21
201.260777969
  0
LINE
  8
1
 62
7
  6
CONTINUOUS
 10
103.393714776
 20
203.564037453
 11
105.952560503
 21
205.041387723
  0
LINE
  8
1
 62
7
  6
CONTINUOUS
 10
106.893714776
 20
193.775362319
 11
109.893714776
 21
193.775362319
  0
LINE
  8
1
 62
7
  6
CONTINUOUS
 10
113.593714776
 20
193.375362319
 11
110.043714776
 21
193.375362319
  0
ARC
  8
15
 62
7
  6
CONTINUOUS
 10
93.093714776
 20
201.075362319
 40
0.200000000
 50
90.000000000
 51
180.000000000
  0
LINE
  8
1
 62
7
  6
CONTINUOUS
 10
109.893714776
 20
205.025362319
 11
110.043714776
 21
205.175362319
  0
ARC
  8
15
 62
7
  6
CONTINUOUS
 10
93.093714776
 20
197.475362319
 40
0.200000000
 50
180.000000000
 51
270.000000000
  0
ARC
  8
1
 62
7
  6
CONTINUOUS
 10
106.452560503
 20
204.175362319
 40
1.000000000
 50
90.000000000
 51
120.000000000
  0
LINE
  8
1
 62
7
  6
CONTINUOUS
 10
106.743714776
 20
205.175362319
 11
106.452560503
 21
205.175362319
  0
LINE
  8
1
 62
7
  6
CONTINUOUS
 10
106.893714776
 20
197.289946668
 11
107.043714776
 21
197.139946668
  0
LINE
  8
15
 62
7
  6
CONTINUOUS
 10
102.893714776
 20
197.275362319
 11
93.093714776
 21
197.275362319
  0
LINE
  8
15
 62
7
  6
CONTINUOUS
 10
93.093714776
 20
201.275362319
 11
102.893714776
 21
201.275362319
  0
LINE
  8
1
 62
4
  6
CONTINUOUS
 10
109.893714776
 20
201.260777969
 11
106.893714776
 21
197.289946668
  0
LINE
  8
15
 62
7
  6
CONTINUOUS
 10
92.893714776
 20
201.075362319
 11
92.893714776
 21
197.475362319
  0
LINE
  8
1
 62
7
  6
CONTINUOUS
 10
109.893714776
 20
205.025362319
 11
109.893714776
 21
193.525362319
  0
LINE
  8
1
 62
7
  6
CONTINUOUS
 10
103.393714776
 20
203.064037453
 11
103.393714776
 21
195.486687184
  0
LINE
  8
1
 62
7
  6
CONTINUOUS
 10
109.893714776
 20
193.525362319
 11
110.043714776
 21
193.375362319
  0
LINE
  8
1
 62
7
  6
CONTINUOUS
 10
106.452560503
 20
205.175362319
 11
106.452560503
 21
193.375362319
  0
LINE
  8
1
 62
7
  6
CONTINUOUS
 10
102.893714776
 20
195.852712588
 11
102.893714776
 21
202.698012050
  0
LINE
  8
1
 62
7
  6
CONTINUOUS
 10
113.593714776
 20
205.175362319
 11
113.593714776
 21
193.375362319
  0
LINE
  8
1
 62
7
  6
CONTINUOUS
 10
109.743714776
 20
201.410777969
 11
109.743714776
 21
204.775362319
  0
LINE
  8
1
 62
7
  6
CONTINUOUS
 10
107.043714776
 20
201.410777969
 11
107.043714776
 21
204.775362319
  0
LINE
  8
1
 62
4
  6
CONTINUOUS
 10
106.893714776
 20
201.260777969
 11
109.893714776
 21
197.289946668
  0
LINE
  8
1
 62
7
  6
CONTINUOUS
 10
107.043714776
 20
197.139946668
 11
109.743714776
 21
197.139946668
  0
LINE
  8
1
 62
7
  6
CONTINUOUS
 10
107.043714776
 20
201.410777969
 11
109.743714776
 21
201.410777969
  0
LINE
  8
1
 62
7
  6
CONTINUOUS
 10
109.743714776
 20
193.775362319
 11
109.743714776
 21
197.139946668
  0
LINE
  8
1
 62
7
  6
CONTINUOUS
 10
107.043714776
 20
193.775362319
 11
107.043714776
 21
197.139946668
  0
LINE
  8
1
 62
7
  6
CONTINUOUS
 10
109.893714776
 20
201.260777969
 11
109.743714776
 21
201.410777969
  0
LINE
  8
1
 62
7
  6
CONTINUOUS
 10
109.743714776
 20
197.139946668
 11
109.893714776
 21
197.289946668
  0
LINE
  8
1
 62
7
  6
CONTINUOUS
 10
106.743714776
 20
193.375362319
 11
106.743714776
 21
205.175362319
  0
LINE
  8
1
 62
7
  6
CONTINUOUS
 10
110.043714776
 20
193.375362319
 11
110.043714776
 21
205.175362319
  0
LINE
  8
1
 62
7
  6
CONTINUOUS
 10
105.952560503
 20
204.541387723
 11
105.952560503
 21
194.009336915
  0
LINE
  8
1
 62
7
  6
CONTINUOUS
 10
126.065217391
 20
216.525362319
 11
126.165217391
 21
216.525362319
  0
LINE
  8
1
 62
7
  6
CONTINUOUS
 10
147.065217391
 20
221.525362308
 11
151.065217391
 21
221.525362308
  0
LINE
  8
1
 62
7
  6
CONTINUOUS
 10
126.165217391
 20
220.275362308
 11
126.165217391
 21
178.275362329
  0
LINE
  8
1
 62
7
  6
CONTINUOUS
 10
147.065217391
 20
177.025362329
 11
147.065217391
 21
221.525362308
  0
LINE
  8
1
 62
7
  6
CONTINUOUS
 10
126.065217391
 20
182.025362319
 11
126.165217391
 21
182.025362319
  0
LINE
  8
1
 62
7
  6
CONTINUOUS
 10
126.065217391
 20
216.525362319
 11
126.065217391
 21
182.025362319
  0
LINE
  8
1
 62
7
  6
CONTINUOUS
 10
147.065217391
 20
177.025362329
 11
151.065217391
 21
177.025362329
  0
LINE
  8
1
 62
7
  6
CONTINUOUS
 10
151.065217391
 20
177.025362329
 11
151.065217391
 21
221.525362308
  0
LINE
  8
1
 62
7
  6
CONTINUOUS
 10
147.065217391
 20
221.525362308
 11
147.065217391
 21
177.025362329
  0
LINE
  8
1
 62
7
  6
CONTINUOUS
 10
127.415217391
 20
177.025362329
 11
147.065217391
 21
177.025362329
  0
LINE
  8
1
 62
7
  6
CONTINUOUS
 10
126.165217391
 20
178.275362329
 11
127.415217391
 21
177.025362329
  0
LINE
  8
1
 62
7
  6
CONTINUOUS
 10
127.415217391
 20
221.525362308
 11
127.415217391
 21
177.025362329
  0
LINE
  8
1
 62
7
  6
CONTINUOUS
 10
169.115217391
 20
177.275362319
 11
169.515217391
 21
177.275362319
  0
LINE
  8
1
 62
7
  6
CONTINUOUS
 10
169.115217391
 20
221.275362319
 11
169.115217391
 21
177.275362319
  0
LINE
  8
1
 62
7
  6
CONTINUOUS
 10
151.515217391
 20
221.275362319
 11
151.115217391
 21
221.275362319
  0
LINE
  8
1
 62
7
  6
CONTINUOUS
 10
151.515217391
 20
177.275362319
 11
151.515217391
 21
221.275362319
  0
LINE
  8
1
 62
7
  6
CONTINUOUS
 10
151.115217391
 20
177.275362319
 11
151.515217391
 21
177.275362319
  0
LINE
  8
1
 62
7
  6
CONTINUOUS
 10
151.115217391
 20
221.275362319
 11
151.115217391
 21
177.275362319
  0
LINE
  8
1
 62
7
  6
CONTINUOUS
 10
175.065217391
 20
230.775362319
 11
175.065217391
 21
167.775362319
  0
LINE
  8
1
 62
7
  6
CONTINUOUS
 10
175.065217391
 20
230.775362319
 11
177.765217391
 21
230.775362319
  0
LINE
  8
1
 62
7
  6
CONTINUOUS
 10
178.065217391
 20
168.075362319
 11
177.765217391
 21
167.775362319
  0
LINE
  8
1
 62
7
  6
CONTINUOUS
 10
169.565217391
 20
173.275362319
 11
175.065217391
 21
167.775362319
  0
LINE
  8
1
 62
7
  6
CONTINUOUS
 10
175.065217391
 20
167.775362319
 11
177.765217391
 21
167.775362319
  0
LINE
  8
1
 62
7
  6
CONTINUOUS
 10
178.065217391
 20
230.475362319
 11
178.065217391
 21
168.075362319
  0
LINE
  8
1
 62
7
  6
CONTINUOUS
 10
169.565217391
 20
225.275362319
 11
175.065217391
 21
230.775362319
  0
LINE
  8
1
 62
7
  6
CONTINUOUS
 10
177.765217391
 20
230.775362319
 11
178.065217391
 21
230.475362319
  0
LINE
  8
1
 62
7
  6
CONTINUOUS
 10
153.008593064
 20
174.525362319
 11
153.008593064
 21
224.025362319
  0
LINE
  8
1
 62
7
  6
CONTINUOUS
 10
151.565217391
 20
221.525362319
 11
153.008593064
 21
224.025362319
  0
LINE
  8
1
 62
7
  6
CONTINUOUS
 10
153.008593064
 20
174.525362319
 11
168.565217391
 21
174.525362319
  0
LINE
  8
1
 62
7
  6
CONTINUOUS
 10
153.008593064
 20
224.025362319
 11
168.565217391
 21
224.025362319
  0
LINE
  8
1
 62
7
  6
CONTINUOUS
 10
151.565217391
 20
177.025362319
 11
153.008593064
 21
174.525362319
  0
LINE
  8
1
 62
7
  6
CONTINUOUS
 10
168.565217391
 20
174.525362319
 11
169.065217391
 21
175.025362319
  0
LINE
  8
1
 62
7
  6
CONTINUOUS
 10
168.565217391
 20
224.025362319
 11
169.065217391
 21
223.525362319
  0
LINE
  8
1
 62
7
  6
CONTINUOUS
 10
163.555217391
 20
170.525362319
 11
163.430217391
 21
174.525362319
  0
LINE
  8
1
 62
7
  6
CONTINUOUS
 10
169.065217391
 20
223.525362319
 11
169.065217391
 21
175.025362319
  0
LINE
  8
1
 62
7
  6
CONTINUOUS
 10
151.565217391
 20
177.025362319
 11
151.565217391
 21
221.525362319
  0
INSERT
  8
1
 62
7
  6
CONTINUOUS
  2
blk104
 10
192.115217391
 20
183.525362319
 41
8.050000000
 42
6.448515862
 50
0.000000000
  0
DIMENSION
  8
1
 62
4
  6
CONTINUOUS
  2
*D105
 70
1
 10
76.893714776
 20
177.025362329
 11
76.893714776
 21
199.275362319
 14
127.415217391
 24
177.025362329
 13
127.415217391
 23
221.525362308
 50
90.000000000
  0
DIMENSION
  8
1
 62
4
  6
CONTINUOUS
  2
*D106
 70
1
 10
84.893714776
 20
193.375362319
 11
84.893714776
 21
199.275362319
 14
106.452560503
 24
193.375362319
 13
106.452560503
 23
205.175362319
 50
90.000000000
  0
TEXT
  8
1
 62
3
  6
CONTINUOUS
 72
5
 10
152.765217391
 20
134.041362319
 40
4.000000000
  1
ＨＴＳ１５０１Ｓ－ＢＴ４０
 41
0.834180548
 11
203.965217391
 21
134.041362319
  0
LINE
  8
1
 62
7
  6
CONTINUOUS
 10
163.498217391
 20
172.357362319
 11
153.632217391
 21
172.357362319
  0
LINE
  8
1
 62
7
  6
CONTINUOUS
 10
153.575217391
 20
170.525362319
 11
153.700217391
 21
174.525362319
  0
LINE
  8
1
 62
7
  6
CONTINUOUS
 10
152.565217391
 20
159.325362319
 11
164.565217391
 21
159.325362319
  0
LINE
  8
1
 62
7
  6
CONTINUOUS
 10
152.565217391
 20
159.325362319
 11
152.565217391
 21
161.225362319
  0
LINE
  8
1
 62
7
  6
CONTINUOUS
 10
169.515217391
 20
177.275362319
 11
169.515217391
 21
221.275362319
  0
LINE
  8
1
 62
7
  6
CONTINUOUS
 10
169.515217391
 20
221.275362319
 11
169.115217391
 21
221.275362319
  0
LINE
  8
1
 62
7
  6
CONTINUOUS
 10
164.565217391
 20
159.325362319
 11
164.565217391
 21
161.225362319
  0
LINE
  8
1
 62
7
  6
CONTINUOUS
 10
155.065217391
 20
157.525362319
 11
155.065217391
 21
159.325362319
  0
LINE
  8
1
 62
7
  6
CONTINUOUS
 10
162.065217391
 20
157.525362319
 11
162.065217391
 21
159.325362319
  0
LINE
  8
1
 62
7
  6
CONTINUOUS
 10
152.815217391
 20
157.525362319
 11
164.315217391
 21
157.525362319
  0
LINE
  8
1
 62
7
  6
CONTINUOUS
 10
152.815217391
 20
156.025362319
 11
152.815217391
 21
157.525362319
  0
LINE
  8
1
 62
7
  6
CONTINUOUS
 10
164.315217391
 20
156.025362319
 11
164.315217391
 21
157.525362319
  0
LINE
  8
1
 62
7
  6
CONTINUOUS
 10
152.665217391
 20
163.725362319
 11
152.665217391
 21
161.225362319
  0
LINE
  8
1
 62
7
  6
CONTINUOUS
 10
164.465217391
 20
163.725362319
 11
164.465217391
 21
161.225362319
  0
LINE
  8
1
 62
7
  6
CONTINUOUS
 10
165.493217391
 20
170.525362319
 11
165.493217391
 21
163.725362319
  0
LINE
  8
1
 62
7
  6
CONTINUOUS
 10
151.637217391
 20
170.525362319
 11
151.637217391
 21
163.725362319
  0
LINE
  8
1
 62
1
  6
CONTINUOUS
 10
162.917217391
 20
172.357362319
 11
162.849379518
 21
174.525362319
  0
LINE
  8
1
 62
7
  6
CONTINUOUS
 10
151.637217391
 20
163.725362319
 11
165.493217391
 21
163.725362319
  0
LINE
  8
1
 62
7
  6
CONTINUOUS
 10
152.565217391
 20
161.225362319
 11
164.565217391
 21
161.225362319
  0
LINE
  8
1
 62
7
  6
CONTINUOUS
 10
151.637217391
 20
170.525362319
 11
165.493217391
 21
170.525362319
  0
LINE
  8
1
 62
7
  6
CONTINUOUS
 10
152.815217391
 20
156.025362319
 11
164.315217391
 21
156.025362319
  0
LINE
  8
1
 62
1
  6
CONTINUOUS
 10
154.213217391
 20
172.357362319
 11
154.281055264
 21
174.525362319
  0
LINE
  8
1
 62
7
  6
CONTINUOUS
 10
155.101217391
 20
170.525362319
 11
155.101217391
 21
163.725362319
  0
LINE
  8
1
 62
1
  6
CENTER
 10
158.565217391
 20
176.525362319
 11
158.565217391
 21
154.025362319
  0
LINE
  8
1
 62
7
  6
CONTINUOUS
 10
162.029217391
 20
170.525362319
 11
162.029217391
 21
163.725362319
  0
LINE
  8
1
 62
7
  6
CONTINUOUS
 10
169.565217391
 20
225.275362319
 11
169.565217391
 21
173.275362319
  0
ARC
  8
1
 62
7
  6
CONTINUOUS
 10
271.465217391
 20
187.489616231
 40
1.000000000
 50
278.329311269
 51
0.000000000
  0
LINE
  8
1
 62
7
  6
CONTINUOUS
 10
207.065217391
 20
221.500362319
 11
207.065217391
 21
177.050362319
  0
LINE
  8
1
 62
7
  6
CONTINUOUS
 10
271.610079793
 20
186.500164421
 11
207.065217391
 21
177.050362319
  0
LINE
  8
1
 62
7
  6
CONTINUOUS
 10
205.065217391
 20
230.275362319
 11
205.065217391
 21
168.275362319
  0
LINE
  8
1
 62
7
  6
CONTINUOUS
 10
205.065217391
 20
168.275362319
 11
204.565217391
 21
167.775362319
  0
LINE
  8
1
 62
7
  6
CONTINUOUS
 10
195.465217391
 20
230.775362319
 11
195.465217391
 21
191.019855458
  0
LINE
  8
1
 62
7
  6
CONTINUOUS
 10
185.465217391
 20
230.775362319
 11
185.465217391
 21
187.748828988
  0
LINE
  8
1
 62
7
  6
CONTINUOUS
 10
195.465217391
 20
167.775362319
 11
204.565217391
 21
167.775362319
  0
LINE
  8
1
 62
7
  6
CONTINUOUS
 10
185.465217391
 20
167.775362319
 11
178.365217391
 21
167.775362319
  0
LINE
  8
1
 62
7
  6
CONTINUOUS
 10
178.365217391
 20
167.775362319
 11
178.065217391
 21
168.075362319
  0
LINE
  8
1
 62
7
  6
CONTINUOUS
 10
195.465217391
 20
167.775362319
 11
192.578466045
 21
172.775362319
  0
LINE
  8
1
 62
7
  6
CONTINUOUS
 10
185.465217391
 20
167.775362319
 11
188.351968737
 21
172.775362319
  0
LINE
  8
1
 62
7
  6
CONTINUOUS
 10
192.578466045
 20
172.775362319
 11
188.351968737
 21
172.775362319
  0
LINE
  8
1
 62
7
  6
CONTINUOUS
 10
192.578466045
 20
172.775362319
 11
192.578466045
 21
177.076846457
  0
LINE
  8
1
 62
7
  6
CONTINUOUS
 10
188.351968737
 20
172.775362319
 11
188.351968737
 21
177.824865453
  0
LINE
  8
1
 62
7
  6
CONTINUOUS
 10
206.765217391
 20
177.350362319
 11
207.065217391
 21
177.050362319
  0
LINE
  8
1
 62
7
  6
CONTINUOUS
 10
206.765217391
 20
177.350362319
 11
205.065217391
 21
177.350362319
  0
LINE
  8
1
 62
7
  6
CONTINUOUS
 10
272.465217391
 20
187.489616231
 11
272.465217391
 21
211.061108406
  0
ARC
  8
1
 62
7
  6
CONTINUOUS
 10
271.465217391
 20
211.061108406
 40
1.000000000
 50
0.000000000
 51
81.670688731
  0
LINE
  8
1
 62
7
  6
CONTINUOUS
 10
271.610079793
 20
212.050560216
 11
207.065217391
 21
221.500362319
  0
LINE
  8
1
 62
7
  6
CONTINUOUS
 10
206.765217391
 20
221.200362319
 11
206.765217391
 21
177.350362319
  0
LINE
  8
1
 62
7
  6
CONTINUOUS
 10
205.065217391
 20
230.275362319
 11
204.565217391
 21
230.775362319
  0
LINE
  8
1
 62
7
  6
CONTINUOUS
 10
178.065217391
 20
168.075362319
 11
178.065217391
 21
230.475362319
  0
LINE
  8
1
 62
7
  6
CONTINUOUS
 10
178.065217391
 20
230.475362319
 11
178.365217391
 21
230.775362319
  0
LINE
  8
1
 62
7
  6
CONTINUOUS
 10
195.465217391
 20
230.775362319
 11
204.565217391
 21
230.775362319
  0
LINE
  8
1
 62
7
  6
CONTINUOUS
 10
178.365217391
 20
230.775362319
 11
185.465217391
 21
230.775362319
  0
LINE
  8
1
 62
7
  6
CONTINUOUS
 10
195.465217391
 20
230.775362319
 11
192.578466045
 21
225.775362319
  0
LINE
  8
1
 62
7
  6
CONTINUOUS
 10
185.465217391
 20
230.775362319
 11
188.351968737
 21
225.775362319
  0
LINE
  8
1
 62
7
  6
CONTINUOUS
 10
192.578466045
 20
225.775362319
 11
188.351968737
 21
225.775362319
  0
LINE
  8
1
 62
7
  6
CONTINUOUS
 10
206.765217391
 20
221.200362319
 11
207.065217391
 21
221.500362319
  0
LINE
  8
1
 62
7
  6
CONTINUOUS
 10
206.765217391
 20
221.200362319
 11
205.065217391
 21
221.200362319
  0
LINE
  8
1
 62
7
  6
CONTINUOUS
 10
195.465217391
 20
177.076846457
 11
195.465217391
 21
167.775362319
  0
LINE
  8
1
 62
7
  6
CONTINUOUS
 10
192.578466045
 20
191.019855458
 11
192.578466045
 21
225.775362319
  0
LINE
  8
1
 62
7
  6
CONTINUOUS
 10
188.351968737
 20
190.150504532
 11
188.351968737
 21
225.775362319
  0
LINE
  8
1
 62
7
  6
CONTINUOUS
 10
192.115217391
 20
191.019855458
 11
205.065217391
 21
191.019855458
  0
LINE
  8
1
 62
7
  6
CONTINUOUS
 10
192.115217391
 20
177.076846457
 11
205.065217391
 21
177.076846457
  0
INSERT
  8
1
 62
7
  6
CONTINUOUS
  2
blk170
 10
192.115217391
 20
183.525362319
 41
8.050000000
 42
7.494493139
 50
0.000000000
  0
LINE
  8
1
 62
7
  6
CONTINUOUS
 10
185.465217391
 20
179.891348476
 11
185.465217391
 21
167.775362319
  0
LINE
  8
1
 62
7
  6
CONTINUOUS
 10
192.115217391
 20
181.053857818
 11
205.065217391
 21
181.053857818
  0
INSERT
  8
1
 62
7
  6
CONTINUOUS
  2
blk173
 10
192.115217391
 20
187.502373680
 41
8.050000000
 42
6.448515862
 50
0.000000000
  0
LINE
  8
1
 62
1
  6
CENTER
 10
200.065217391
 20
218.303119132
 11
200.065217391
 21
232.775362319
  0
LINE
  8
1
 62
1
  6
DASHED
 10
202.615217391
 20
229.975362319
 11
202.615217391
 21
221.775362319
  0
LINE
  8
1
 62
1
  6
DASHED
 10
197.515217391
 20
229.975362319
 11
197.515217391
 21
221.775362319
  0
LINE
  8
1
 62
1
  6
DASHED
 10
202.615217391
 20
221.775362319
 11
200.065217391
 21
220.303119132
  0
LINE
  8
1
 62
1
  6
DASHED
 10
197.515217391
 20
221.775362319
 11
200.065217391
 21
220.303119132
  0
LINE
  8
1
 62
1
  6
DASHED
 10
202.615217391
 20
221.775362319
 11
197.515217391
 21
221.775362319
  0
LINE
  8
1
 62
1
  6
DASHED
 10
203.065217391
 20
230.425362319
 11
203.065217391
 21
224.775362319
  0
LINE
  8
1
 62
1
  6
DASHED
 10
203.065217391
 20
224.775362319
 11
202.615217391
 21
223.995939455
  0
LINE
  8
1
 62
1
  6
DASHED
 10
197.065217391
 20
230.425362319
 11
197.065217391
 21
224.775362319
  0
LINE
  8
1
 62
1
  6
DASHED
 10
197.065217391
 20
224.775362319
 11
197.515217391
 21
223.995939455
  0
LINE
  8
1
 62
1
  6
DASHED
 10
197.065217391
 20
224.775362319
 11
203.065217391
 21
224.775362319
  0
LINE
  8
1
 62
1
  6
DASHED
 10
202.615217391
 20
229.975362319
 11
203.415217391
 21
230.775362319
  0
LINE
  8
1
 62
1
  6
DASHED
 10
202.615217391
 20
229.975362319
 11
197.515217391
 21
229.975362319
  0
LINE
  8
1
 62
1
  6
DASHED
 10
197.515217391
 20
229.975362319
 11
196.715217391
 21
230.775362319
  0
POLYLINE
  8
1
 62
4
  6
CONTINUOUS
 66
1
  0
VERTEX
  8
1
 10
200.065216064
 20
230.775360107
  0
VERTEX
  8
1
 10
199.848709106
 20
231.150360107
  0
VERTEX
  8
1
 10
199.632202148
 20
231.525360107
  0
VERTEX
  8
1
 10
199.415695190
 20
231.900360107
  0
VERTEX
  8
1
 10
199.199188232
 20
232.275360107
  0
VERTEX
  8
1
 10
198.982681274
 20
232.650360107
  0
VERTEX
  8
1
 10
198.766174316
 20
233.025360107
  0
VERTEX
  8
1
 10
198.549667358
 20
233.400360107
  0
VERTEX
  8
1
 10
198.333160400
 20
233.775360107
  0
VERTEX
  8
1
 10
198.116653442
 20
234.150360107
  0
VERTEX
  8
1
 10
197.900146484
 20
234.525360107
  0
VERTEX
  8
1
 10
197.683654785
 20
234.900360107
  0
VERTEX
  8
1
 10
197.467147827
 20
235.275360107
  0
VERTEX
  8
1
 10
197.250640869
 20
235.650360107
  0
VERTEX
  8
1
 10
197.034133911
 20
236.025360107
  0
VERTEX
  8
1
 10
196.817626953
 20
236.400360107
  0
VERTEX
  8
1
 10
196.601119995
 20
236.775360107
  0
VERTEX
  8
1
 10
196.384613037
 20
237.150360107
  0
VERTEX
  8
1
 10
196.168106079
 20
237.525360107
  0
VERTEX
  8
1
 10
195.951599121
 20
237.900360107
  0
VERTEX
  8
1
 10
195.735092163
 20
238.275360107
  0
VERTEX
  8
1
 10
195.518585205
 20
238.650360107
  0
VERTEX
  8
1
 10
195.302078247
 20
239.025360107
  0
VERTEX
  8
1
 10
195.085571289
 20
239.400360107
  0
VERTEX
  8
1
 10
194.869064331
 20
239.775360107
  0
VERTEX
  8
1
 10
194.652557373
 20
240.150360107
  0
VERTEX
  8
1
 10
194.436050415
 20
240.525360107
  0
VERTEX
  8
1
 10
194.219543457
 20
240.900360107
  0
VERTEX
  8
1
 10
194.003036499
 20
241.275360107
  0
VERTEX
  8
1
 10
193.786529541
 20
241.650360107
  0
VERTEX
  8
1
 10
193.570022583
 20
242.025360107
  0
VERTEX
  8
1
 10
193.353515625
 20
242.400360107
  0
VERTEX
  8
1
 10
193.137008667
 20
242.775360107
  0
VERTEX
  8
1
 10
192.746520996
 20
242.775360107
  0
VERTEX
  8
1
 10
192.356018066
 20
242.775360107
  0
VERTEX
  8
1
 10
191.965515137
 20
242.775360107
  0
VERTEX
  8
1
 10
191.575012207
 20
242.775360107
  0
VERTEX
  8
1
 10
191.184509277
 20
242.775360107
  0
VERTEX
  8
1
 10
190.794021606
 20
242.775360107
  0
VERTEX
  8
1
 10
190.403518677
 20
242.775360107
  0
VERTEX
  8
1
 10
190.013015747
 20
242.775360107
  0
VERTEX
  8
1
 10
189.622512817
 20
242.775360107
  0
VERTEX
  8
1
 10
189.232009888
 20
242.775360107
  0
VERTEX
  8
1
 10
188.841506958
 20
242.775360107
  0
VERTEX
  8
1
 10
188.451019287
 20
242.775360107
  0
VERTEX
  8
1
 10
188.060516357
 20
242.775360107
  0
VERTEX
  8
1
 10
187.670013428
 20
242.775360107
  0
VERTEX
  8
1
 10
187.279510498
 20
242.775360107
  0
VERTEX
  8
1
 10
186.889007568
 20
242.775360107
  0
VERTEX
  8
1
 10
186.498519897
 20
242.775360107
  0
VERTEX
  8
1
 10
186.108016968
 20
242.775360107
  0
VERTEX
  8
1
 10
185.717514038
 20
242.775360107
  0
VERTEX
  8
1
 10
185.327011108
 20
242.775360107
  0
VERTEX
  8
1
 10
184.936508179
 20
242.775360107
  0
VERTEX
  8
1
 10
184.546020508
 20
242.775360107
  0
VERTEX
  8
1
 10
184.155517578
 20
242.775360107
  0
VERTEX
  8
1
 10
183.765014648
 20
242.775360107
  0
VERTEX
  8
1
 10
183.374511719
 20
242.775360107
  0
VERTEX
  8
1
 10
182.984008789
 20
242.775360107
  0
VERTEX
  8
1
 10
182.593521118
 20
242.775360107
  0
VERTEX
  8
1
 10
182.203018188
 20
242.775360107
  0
VERTEX
  8
1
 10
181.812515259
 20
242.775360107
  0
VERTEX
  8
1
 10
181.422012329
 20
242.775360107
  0
VERTEX
  8
1
 10
181.031509399
 20
242.775360107
  0
VERTEX
  8
1
 10
180.641021729
 20
242.775360107
  0
SEQEND
  8
1
  0
POLYLINE
  8
1
 62
4
  6
CONTINUOUS
 66
1
  0
VERTEX
  8
1
 10
198.805408031
 20
232.357410587
  0
VERTEX
  8
1
 10
200.065216064
 20
230.775360107
  0
VERTEX
  8
1
 10
199.325023195
 20
232.657410722
  0
SEQEND
  8
1
  0
DIMENSION
  8
1
 62
4
  6
CONTINUOUS
  2
*D189
 70
0
 10
117.565217391
 20
258.775362319
 11
110.229466084
 21
258.775362319
 14
117.565217391
 24
211.775362319
 13
102.893714776
 23
202.698012050
 50
0.000000000
  0
DIMENSION
  8
1
 62
4
  6
CONTINUOUS
  2
*D190
 70
0
 10
272.465217391
 20
258.775362319
 11
195.015217391
 21
258.775362319
 14
272.465217391
 24
211.061108406
 13
117.565217391
 23
211.775362319
 50
0.000000000
  0
DIMENSION
  8
1
 62
4
  6
CONTINUOUS
  2
*D191
 70
0
 10
207.065217391
 20
250.775362319
 11
162.315217391
 21
250.775362319
 14
207.065217391
 24
221.500362319
 13
117.565217391
 23
211.775362319
 50
0.000000000
  0
DIMENSION
  8
1
 62
4
  6
CONTINUOUS
  2
*D192
 70
0
 10
272.465217391
 20
250.775362319
 11
239.765217391
 21
250.775362319
 14
272.465217391
 24
211.061108406
 13
207.065217391
 23
221.500362319
 50
0.000000000
  0
DIMENSION
  8
1
 62
4
  6
CONTINUOUS
  2
*D193
 70
0
 10
151.565217391
 20
242.775362319
 11
134.565217391
 21
242.775362319
 14
151.565217391
 24
221.525362319
 13
117.565217391
 23
211.775362319
 50
0.000000000
  0
DIMENSION
  8
1
 62
4
  6
CONTINUOUS
  2
*D194
 70
0
 10
169.065217391
 20
242.775362319
 11
160.315217391
 21
242.775362319
 14
169.065217391
 24
223.525362319
 13
151.565217391
 23
221.525362319
 50
0.000000000
  0
DIMENSION
  8
1
 62
4
  6
CONTINUOUS
  2
*D195
 70
0
 10
127.415217391
 20
234.775362319
 11
123.604061400
 21
234.775362319
 14
127.415217391
 24
221.525362308
 13
117.565217391
 23
211.775362319
 50
0.000000000
  0
DIMENSION
  8
1
 62
4
  6
CONTINUOUS
  2
*D196
 70
0
 10
200.065217391
 20
242.775362319
 11
203.565217391
 21
242.775362319
 14
200.065217391
 24
232.775362319
 13
207.065217391
 23
221.500362319
 50
0.000000000
  0
TEXT
  8
1
 62
4
  6
CONTINUOUS
 72
5
 10
180.641014161
 20
243.795362319
 40
3.200000000
  1
Ｍ６Ｘ１
 41
0.838944635
 11
192.841014161
 21
243.795362319
  0
TEXT
  8
1
 62
4
  6
CONTINUOUS
 72
5
 10
180.641014161
 20
238.695362319
 40
3.200000000
  1
深さ６
 41
0.840958019
 11
189.641014161
 21
238.695362319
  0
TEXT
  8
1
 62
4
  6
CONTINUOUS
 72
5
 10
236.638177745
 20
243.795362319
 40
3.200000000
  1
ＢＴ４０
 41
0.838944635
 11
248.838177745
 21
243.795362319
  0
POLYLINE
  8
1
 62
4
  6
CONTINUOUS
 66
1
  0
VERTEX
  8
1
 10
223.007476807
 20
219.166305542
  0
VERTEX
  8
1
 10
223.433441162
 20
219.904083252
  0
VERTEX
  8
1
 10
223.859405518
 20
220.641876221
  0
VERTEX
  8
1
 10
224.285354614
 20
221.379653931
  0
VERTEX
  8
1
 10
224.711318970
 20
222.117431641
  0
VERTEX
  8
1
 10
225.137283325
 20
222.855224609
  0
VERTEX
  8
1
 10
225.563232422
 20
223.593002319
  0
VERTEX
  8
1
 10
225.989196777
 20
224.330795288
  0
VERTEX
  8
1
 10
226.415161133
 20
225.068572998
  0
VERTEX
  8
1
 10
226.841110229
 20
225.806350708
  0
VERTEX
  8
1
 10
227.267074585
 20
226.544143677
  0
VERTEX
  8
1
 10
227.693038940
 20
227.281921387
  0
VERTEX
  8
1
 10
228.118988037
 20
228.019699097
  0
VERTEX
  8
1
 10
228.544952393
 20
228.757492065
  0
VERTEX
  8
1
 10
228.970916748
 20
229.495269775
  0
VERTEX
  8
1
 10
229.396865845
 20
230.233047485
  0
VERTEX
  8
1
 10
229.822830200
 20
230.970840454
  0
VERTEX
  8
1
 10
230.248794556
 20
231.708618164
  0
VERTEX
  8
1
 10
230.674743652
 20
232.446395874
  0
VERTEX
  8
1
 10
231.100708008
 20
233.184188843
  0
VERTEX
  8
1
 10
231.526672363
 20
233.921966553
  0
VERTEX
  8
1
 10
231.952621460
 20
234.659744263
  0
VERTEX
  8
1
 10
232.378585815
 20
235.397537231
  0
VERTEX
  8
1
 10
232.804550171
 20
236.135314941
  0
VERTEX
  8
1
 10
233.230499268
 20
236.873092651
  0
VERTEX
  8
1
 10
233.656463623
 20
237.610885620
  0
VERTEX
  8
1
 10
234.082427979
 20
238.348663330
  0
VERTEX
  8
1
 10
234.508377075
 20
239.086441040
  0
VERTEX
  8
1
 10
234.934341431
 20
239.824234009
  0
VERTEX
  8
1
 10
235.360305786
 20
240.562011719
  0
VERTEX
  8
1
 10
235.786254883
 20
241.299789429
  0
VERTEX
  8
1
 10
236.212219238
 20
242.037582397
  0
VERTEX
  8
1
 10
236.638183594
 20
242.775360107
  0
VERTEX
  8
1
 10
237.028671265
 20
242.775360107
  0
VERTEX
  8
1
 10
237.419174194
 20
242.775360107
  0
VERTEX
  8
1
 10
237.809677124
 20
242.775360107
  0
VERTEX
  8
1
 10
238.200180054
 20
242.775360107
  0
VERTEX
  8
1
 10
238.590682983
 20
242.775360107
  0
VERTEX
  8
1
 10
238.981170654
 20
242.775360107
  0
VERTEX
  8
1
 10
239.371673584
 20
242.775360107
  0
VERTEX
  8
1
 10
239.762176514
 20
242.775360107
  0
VERTEX
  8
1
 10
240.152679443
 20
242.775360107
  0
VERTEX
  8
1
 10
240.543182373
 20
242.775360107
  0
VERTEX
  8
1
 10
240.933685303
 20
242.775360107
  0
VERTEX
  8
1
 10
241.324172974
 20
242.775360107
  0
VERTEX
  8
1
 10
241.714675903
 20
242.775360107
  0
VERTEX
  8
1
 10
242.105178833
 20
242.775360107
  0
VERTEX
  8
1
 10
242.495681763
 20
242.775360107
  0
VERTEX
  8
1
 10
242.886184692
 20
242.775360107
  0
VERTEX
  8
1
 10
243.276672363
 20
242.775360107
  0
VERTEX
  8
1
 10
243.667175293
 20
242.775360107
  0
VERTEX
  8
1
 10
244.057678223
 20
242.775360107
  0
VERTEX
  8
1
 10
244.448181152
 20
242.775360107
  0
VERTEX
  8
1
 10
244.838684082
 20
242.775360107
  0
VERTEX
  8
1
 10
245.229171753
 20
242.775360107
  0
VERTEX
  8
1
 10
245.619674683
 20
242.775360107
  0
VERTEX
  8
1
 10
246.010177612
 20
242.775360107
  0
VERTEX
  8
1
 10
246.400680542
 20
242.775360107
  0
VERTEX
  8
1
 10
246.791183472
 20
242.775360107
  0
VERTEX
  8
1
 10
247.181671143
 20
242.775360107
  0
VERTEX
  8
1
 10
247.572174072
 20
242.775360107
  0
VERTEX
  8
1
 10
247.962677002
 20
242.775360107
  0
VERTEX
  8
1
 10
248.353179932
 20
242.775360107
  0
VERTEX
  8
1
 10
248.743682861
 20
242.775360107
  0
VERTEX
  8
1
 10
249.134170532
 20
242.775360107
  0
SEQEND
  8
1
  0
POLYLINE
  8
1
 62
4
  6
CONTINUOUS
 66
1
  0
VERTEX
  8
1
 10
223.747669950
 20
221.048356049
  0
VERTEX
  8
1
 10
223.007476807
 20
219.166305542
  0
VERTEX
  8
1
 10
224.267285070
 20
220.748355838
  0
SEQEND
  8
1
  0
DIMENSION
  8
1
 62
4
  6
CONTINUOUS
  2
*D200
 70
1
 10
68.893714776
 20
174.525362319
 11
68.893714776
 21
199.275362319
 14
153.008593064
 24
174.525362319
 13
153.008593064
 23
224.025362319
 50
90.000000000
  0
DIMENSION
  8
1
 62
4
  6
CONTINUOUS
  2
*D201
 70
1
 10
290.465217391
 20
167.775362319
 11
290.465217391
 21
199.275362319
 14
204.565217391
 24
167.775362319
 13
204.565217391
 23
230.775362319
 50
90.000000000
  0
ENDSEC
  0
EOF
