  0
SECTION
  2
HEADER
  9
$ACADVER
  1
AC1009
  9
$INSBASE
 10
0.000000000
 20
0.000000000
  9
$EXTMIN
 10
-22.483536703
 20
-24.524275362
  9
$EXTMAX
 10
247.318903736
 20
269.767028986
  9
$LIMMIN
 10
-22.483536703
 20
-24.524275362
  9
$LIMMAX
 10
247.318903736
 20
269.767028986
  9
$SNAPBASE
 10
0.000000000
 20
0.000000000
  9
$SNAPANG
 50
0.000000000
  9
$SNAPSTYLE
 70
0
  9
$GRIDMODE
 70
0
  9
$GRIDUNIT
 10
0.000000000
 20
0.000000000
  9
$DIMEXO
 40
0.000000000
  9
$DIMDLI
 40
8.000000000
  9
$DIMDLE
 40
0.000000000
  9
$DIMEXE
 40
1.000000000
  9
$DIMTIH
 70
1
  9
$DIMTOH
 70
1
  9
$DIMTAD
 70
2
  9
$DIMZIN
 70
0
  9
$FILLETRAD
 40
1.000000000
  9
$CHAMFERA
 40
1.000000000
  9
$CHAMFERB
 40
1.000000000
  9
$TDCREATE
 40
2454182.600162037
  9
$TDUPDATE
 40
2454182.600162037
  9
$ANGBASE
 50
0.000000000
  9
$ANGDIR
 70
0
  0
ENDSEC
  0
SECTION
  2
TABLES
  0
TABLE
  2
LTYPE
 70
3
  0
LTYPE
  2
CENTER
 70
64
  3
___ _ ___ _ __
 72
65
 73
4
 40
13.000000000
 49
8.500000000
 49
-1.500000000
 49
1.500000000
 49
-1.500000000
  0
LTYPE
  2
CONTINUOUS
 70
64
  3
______________
 72
65
 73
0
 40
0.000000000
  0
LTYPE
  2
DIVIDE
 70
64
  3
___ . . ___ . 
 72
65
 73
6
 40
12.999999523
 49
5.199999809
 49
-2.599999905
 49
0.000000000
 49
-2.599999905
 49
0.000000000
 49
-2.599999905
  0
ENDTAB
  0
TABLE
  2
LAYER
 70
3
  0
LAYER
  2
1
 70
0
 62
7
  6
CONTINUOUS
  0
LAYER
  2
4
 70
0
 62
7
  6
CONTINUOUS
999
LAYER0016
  0
LAYER
  2
15
 70
0
 62
5
  6
CONTINUOUS
999
ﾁｬｯｸ
  0
LAYER
  2
_CONSTR
 70
0
 62
5
  6
CONTINUOUS
  0
ENDTAB
  0
TABLE
  2
STYLE
 70
1
  0
STYLE
  2
STANDARD
 70
64
 40
0.000000000
 41
1.000000000
 50
0.000000000
 71
0
 42
3.200000000
  3
TXT
  4
EXTFONT
  0
ENDTAB
  0
TABLE
  2
VIEW
 70
0
  0
ENDTAB
  0
ENDSEC
  0
SECTION
  2
BLOCKS
  0
BLOCK
  8
0
  2
*D6
 70
65
 10
0.000000000
 20
0.000000000
  3
*D
  0
TEXT
  8
1
 62
4
  6
CONTINUOUS
 72
5
 10
67.942838040
 20
182.361153623
 40
2.800000000
  1
φ
 41
1.270648030
 50
90.000000000
 11
67.942838040
 21
185.721153623
  0
TEXT
  8
1
 62
4
  6
CONTINUOUS
 72
5
 10
67.942838040
 20
187.401153623
 40
2.800000000
  1
44.5
 41
1.099999267
 50
90.000000000
 11
67.942838040
 21
196.641153623
  0
LINE
  8
1
 62
4
  6
CONTINUOUS
 10
120.669340655
 20
211.742753623
 11
68.147838040
 21
211.742753623
  0
POLYLINE
  8
1
 62
4
  6
CONTINUOUS
 66
1
  0
VERTEX
  8
1
 10
70.447838040
 20
209.742753623
  0
VERTEX
  8
1
 10
70.147838040
 20
211.742753623
  0
VERTEX
  8
1
 10
69.847838040
 20
209.742753623
  0
SEQEND
  8
1
  0
LINE
  8
1
 62
4
  6
CONTINUOUS
 10
70.147838040
 20
211.742753623
 11
70.147838040
 21
167.242753623
  0
POLYLINE
  8
1
 62
4
  6
CONTINUOUS
 66
1
  0
VERTEX
  8
1
 10
69.847838040
 20
169.242753623
  0
VERTEX
  8
1
 10
70.147838040
 20
167.242753623
  0
VERTEX
  8
1
 10
70.447838040
 20
169.242753623
  0
SEQEND
  8
1
  0
LINE
  8
1
 62
4
  6
CONTINUOUS
 10
120.669340655
 20
167.242753623
 11
68.147838040
 21
167.242753623
  0
ENDBLK
  8
0
  0
BLOCK
  8
0
  2
*D7
 70
65
 10
0.000000000
 20
0.000000000
  3
*D
  0
TEXT
  8
1
 62
4
  6
CONTINUOUS
 72
5
 10
75.942838040
 20
182.361153623
 40
2.800000000
  1
φ
 41
1.270648030
 50
90.000000000
 11
75.942838040
 21
185.721153623
  0
TEXT
  8
1
 62
4
  6
CONTINUOUS
 72
5
 10
75.942838040
 20
187.401153623
 40
2.800000000
  1
11.8
 41
1.414284098
 50
90.000000000
 11
75.942838040
 21
196.641153623
  0
LINE
  8
1
 62
4
  6
CONTINUOUS
 10
99.706683767
 20
195.392753623
 11
76.147838040
 21
195.392753623
  0
POLYLINE
  8
1
 62
4
  6
CONTINUOUS
 66
1
  0
VERTEX
  8
1
 10
78.447838040
 20
193.392753623
  0
VERTEX
  8
1
 10
78.147838040
 20
195.392753623
  0
VERTEX
  8
1
 10
77.847838040
 20
193.392753623
  0
SEQEND
  8
1
  0
LINE
  8
1
 62
4
  6
CONTINUOUS
 10
78.147838040
 20
195.392753623
 11
78.147838040
 21
183.592753623
  0
POLYLINE
  8
1
 62
4
  6
CONTINUOUS
 66
1
  0
VERTEX
  8
1
 10
77.847838040
 20
185.592753623
  0
VERTEX
  8
1
 10
78.147838040
 20
183.592753623
  0
VERTEX
  8
1
 10
78.447838040
 20
185.592753623
  0
SEQEND
  8
1
  0
LINE
  8
1
 62
4
  6
CONTINUOUS
 10
99.706683767
 20
183.592753623
 11
76.147838040
 21
183.592753623
  0
ENDBLK
  8
0
  0
BLOCK
  8
0
  2
*D164
 70
65
 10
0.000000000
 20
0.000000000
  3
*D
  0
TEXT
  8
1
 62
4
  6
CONTINUOUS
 72
5
 10
59.942838040
 20
182.361153623
 40
2.800000000
  1
φ
 41
1.270648030
 50
90.000000000
 11
59.942838040
 21
185.721153623
  0
TEXT
  8
1
 62
4
  6
CONTINUOUS
 72
5
 10
59.942838040
 20
187.401153623
 40
2.800000000
  1
49.5
 41
1.099999267
 50
90.000000000
 11
59.942838040
 21
196.641153623
  0
LINE
  8
1
 62
4
  6
CONTINUOUS
 10
146.262716328
 20
214.242753623
 11
60.147838040
 21
214.242753623
  0
POLYLINE
  8
1
 62
4
  6
CONTINUOUS
 66
1
  0
VERTEX
  8
1
 10
62.447838040
 20
212.242753623
  0
VERTEX
  8
1
 10
62.147838040
 20
214.242753623
  0
VERTEX
  8
1
 10
61.847838040
 20
212.242753623
  0
SEQEND
  8
1
  0
LINE
  8
1
 62
4
  6
CONTINUOUS
 10
62.147838040
 20
214.242753623
 11
62.147838040
 21
164.742753623
  0
POLYLINE
  8
1
 62
4
  6
CONTINUOUS
 66
1
  0
VERTEX
  8
1
 10
61.847838040
 20
166.742753623
  0
VERTEX
  8
1
 10
62.147838040
 20
164.742753623
  0
VERTEX
  8
1
 10
62.447838040
 20
166.742753623
  0
SEQEND
  8
1
  0
LINE
  8
1
 62
4
  6
CONTINUOUS
 10
146.262716328
 20
164.742753623
 11
60.147838040
 21
164.742753623
  0
ENDBLK
  8
0
  0
BLOCK
  8
0
  2
*D165
 70
65
 10
0.000000000
 20
0.000000000
  3
*D
  0
TEXT
  8
1
 62
4
  6
CONTINUOUS
 72
5
 10
204.614340655
 20
184.881153623
 40
2.800000000
  1
φ
 41
1.270648030
 50
90.000000000
 11
204.614340655
 21
188.241153623
  0
TEXT
  8
1
 62
4
  6
CONTINUOUS
 72
5
 10
204.614340655
 20
189.921153623
 40
2.800000000
  1
52
 41
0.899998740
 50
90.000000000
 11
204.614340655
 21
194.121153623
  0
LINE
  8
1
 62
4
  6
CONTINUOUS
 10
167.519340655
 20
215.492753623
 11
208.819340655
 21
215.492753623
  0
POLYLINE
  8
1
 62
4
  6
CONTINUOUS
 66
1
  0
VERTEX
  8
1
 10
207.119340655
 20
213.492753623
  0
VERTEX
  8
1
 10
206.819340655
 20
215.492753623
  0
VERTEX
  8
1
 10
206.519340655
 20
213.492753623
  0
SEQEND
  8
1
  0
LINE
  8
1
 62
4
  6
CONTINUOUS
 10
206.819340655
 20
215.492753623
 11
206.819340655
 21
163.492753623
  0
POLYLINE
  8
1
 62
4
  6
CONTINUOUS
 66
1
  0
VERTEX
  8
1
 10
206.519340655
 20
165.492753623
  0
VERTEX
  8
1
 10
206.819340655
 20
163.492753623
  0
VERTEX
  8
1
 10
207.119340655
 20
165.492753623
  0
SEQEND
  8
1
  0
LINE
  8
1
 62
4
  6
CONTINUOUS
 10
167.519340655
 20
163.492753623
 11
208.819340655
 21
163.492753623
  0
ENDBLK
  8
0
  0
BLOCK
  8
0
  2
*D166
 70
65
 10
0.000000000
 20
0.000000000
  3
*D
  0
TEXT
  8
1
 62
4
  6
CONTINUOUS
 72
5
 10
148.957740655
 20
231.447753623
 40
2.800000000
  1
17.5
 41
1.237498917
 11
158.197740655
 21
231.447753623
  0
POLYLINE
  8
1
 62
4
  6
CONTINUOUS
 66
1
  0
VERTEX
  8
1
 10
146.819340655
 20
229.542753623
  0
VERTEX
  8
1
 10
144.819340655
 20
229.242753623
  0
VERTEX
  8
1
 10
146.819340655
 20
228.942753623
  0
SEQEND
  8
1
  0
LINE
  8
1
 62
4
  6
CONTINUOUS
 10
144.819340655
 20
229.242753623
 11
162.319340655
 21
229.242753623
  0
POLYLINE
  8
1
 62
4
  6
CONTINUOUS
 66
1
  0
VERTEX
  8
1
 10
160.319340655
 20
228.942753623
  0
VERTEX
  8
1
 10
162.319340655
 20
229.242753623
  0
VERTEX
  8
1
 10
160.319340655
 20
229.542753623
  0
SEQEND
  8
1
  0
LINE
  8
1
 62
4
  6
CONTINUOUS
 10
162.319340655
 20
213.742753623
 11
162.319340655
 21
231.242753623
  0
ENDBLK
  8
0
  0
BLOCK
  8
0
  2
*D167
 70
65
 10
0.000000000
 20
0.000000000
  3
*D
  0
TEXT
  8
1
 62
4
  6
CONTINUOUS
 72
5
 10
123.207740655
 20
231.447753623
 40
2.800000000
  1
(
 41
1.800001800
 11
124.887740655
 21
231.447753623
  0
TEXT
  8
1
 62
4
  6
CONTINUOUS
 72
5
 10
125.727740655
 20
231.447753623
 40
2.800000000
  1
34
 41
0.899998740
 11
129.927740655
 21
231.447753623
  0
TEXT
  8
1
 62
4
  6
CONTINUOUS
 72
5
 10
130.767740655
 20
231.447753623
 40
2.800000000
  1
)
 41
1.800001800
 11
132.447740655
 21
231.447753623
  0
LINE
  8
1
 62
4
  6
CONTINUOUS
 10
110.819340655
 20
201.992753623
 11
110.819340655
 21
231.242753623
  0
POLYLINE
  8
1
 62
4
  6
CONTINUOUS
 66
1
  0
VERTEX
  8
1
 10
112.819340655
 20
229.542753623
  0
VERTEX
  8
1
 10
110.819340655
 20
229.242753623
  0
VERTEX
  8
1
 10
112.819340655
 20
228.942753623
  0
SEQEND
  8
1
  0
LINE
  8
1
 62
4
  6
CONTINUOUS
 10
110.819340655
 20
229.242753623
 11
144.819340655
 21
229.242753623
  0
POLYLINE
  8
1
 62
4
  6
CONTINUOUS
 66
1
  0
VERTEX
  8
1
 10
142.819340655
 20
228.942753623
  0
VERTEX
  8
1
 10
144.819340655
 20
229.242753623
  0
VERTEX
  8
1
 10
142.819340655
 20
229.542753623
  0
SEQEND
  8
1
  0
LINE
  8
1
 62
4
  6
CONTINUOUS
 10
144.819340655
 20
211.742753623
 11
144.819340655
 21
231.242753623
  0
ENDBLK
  8
0
  0
BLOCK
  8
0
  2
*D168
 70
65
 10
0.000000000
 20
0.000000000
  3
*D
  0
TEXT
  8
1
 62
4
  6
CONTINUOUS
 72
5
 10
111.250127485
 20
223.447753623
 40
2.800000000
  1
(
 41
1.650001650
 11
112.790127485
 21
223.447753623
  0
TEXT
  8
1
 62
4
  6
CONTINUOUS
 72
5
 10
113.560127485
 20
223.447753623
 40
2.800000000
  1
9.9
 41
1.099998900
 11
119.720127485
 21
223.447753623
  0
TEXT
  8
1
 62
4
  6
CONTINUOUS
 72
5
 10
120.490127485
 20
223.447753623
 40
2.800000000
  1
)
 41
1.650001650
 11
122.030127485
 21
223.447753623
  0
LINE
  8
1
 62
4
  6
CONTINUOUS
 10
110.819340655
 20
201.992753623
 11
110.819340655
 21
223.242753623
  0
POLYLINE
  8
1
 62
4
  6
CONTINUOUS
 66
1
  0
VERTEX
  8
1
 10
108.819340655
 20
221.542753623
  0
VERTEX
  8
1
 10
110.819340655
 20
221.242753623
  0
SEQEND
  8
1
  0
POLYLINE
  8
1
 62
4
  6
CONTINUOUS
 66
1
  0
VERTEX
  8
1
 10
107.819340655
 20
221.242753623
  0
VERTEX
  8
1
 10
110.819340655
 20
221.242753623
  0
VERTEX
  8
1
 10
108.819340655
 20
220.942753623
  0
SEQEND
  8
1
  0
LINE
  8
1
 62
4
  6
CONTINUOUS
 10
110.819340655
 20
221.242753623
 11
120.669340655
 21
221.242753623
  0
POLYLINE
  8
1
 62
4
  6
CONTINUOUS
 66
1
  0
VERTEX
  8
1
 10
122.669340655
 20
220.942753623
  0
VERTEX
  8
1
 10
120.669340655
 20
221.242753623
  0
SEQEND
  8
1
  0
POLYLINE
  8
1
 62
4
  6
CONTINUOUS
 66
1
  0
VERTEX
  8
1
 10
123.669340655
 20
221.242753623
  0
VERTEX
  8
1
 10
120.669340655
 20
221.242753623
  0
VERTEX
  8
1
 10
122.669340655
 20
221.542753623
  0
SEQEND
  8
1
  0
LINE
  8
1
 62
4
  6
CONTINUOUS
 10
120.669340655
 20
211.742753623
 11
120.669340655
 21
223.242753623
  0
ENDBLK
  8
0
  0
BLOCK
  8
0
  2
*D169
 70
65
 10
0.000000000
 20
0.000000000
  3
*D
  0
TEXT
  8
1
 62
4
  6
CONTINUOUS
 72
5
 10
183.227740655
 20
239.447753623
 40
2.800000000
  1
13
 41
1.124997750
 11
187.427740655
 21
239.447753623
  0
POLYLINE
  8
1
 62
4
  6
CONTINUOUS
 66
1
  0
VERTEX
  8
1
 10
180.819340655
 20
237.542753623
  0
VERTEX
  8
1
 10
178.819340655
 20
237.242753623
  0
VERTEX
  8
1
 10
180.819340655
 20
236.942753623
  0
SEQEND
  8
1
  0
LINE
  8
1
 62
4
  6
CONTINUOUS
 10
178.819340655
 20
237.242753623
 11
191.819340655
 21
237.242753623
  0
POLYLINE
  8
1
 62
4
  6
CONTINUOUS
 66
1
  0
VERTEX
  8
1
 10
189.819340655
 20
236.942753623
  0
VERTEX
  8
1
 10
191.819340655
 20
237.242753623
  0
VERTEX
  8
1
 10
189.819340655
 20
237.542753623
  0
SEQEND
  8
1
  0
LINE
  8
1
 62
4
  6
CONTINUOUS
 10
191.819340655
 20
197.992129013
 11
191.819340655
 21
239.242753623
  0
ENDBLK
  8
0
  0
BLOCK
  8
0
  2
*D170
 70
65
 10
0.000000000
 20
0.000000000
  3
*D
  0
TEXT
  8
1
 62
4
  6
CONTINUOUS
 72
5
 10
140.207740655
 20
239.447753623
 40
2.800000000
  1
(
 41
1.800001800
 11
141.887740655
 21
239.447753623
  0
TEXT
  8
1
 62
4
  6
CONTINUOUS
 72
5
 10
142.727740655
 20
239.447753623
 40
2.800000000
  1
68
 41
0.899998740
 11
146.927740655
 21
239.447753623
  0
TEXT
  8
1
 62
4
  6
CONTINUOUS
 72
5
 10
147.767740655
 20
239.447753623
 40
2.800000000
  1
)
 41
1.800001800
 11
149.447740655
 21
239.447753623
  0
LINE
  8
1
 62
4
  6
CONTINUOUS
 10
110.819340655
 20
201.992753623
 11
110.819340655
 21
239.242753623
  0
POLYLINE
  8
1
 62
4
  6
CONTINUOUS
 66
1
  0
VERTEX
  8
1
 10
112.819340655
 20
237.542753623
  0
VERTEX
  8
1
 10
110.819340655
 20
237.242753623
  0
VERTEX
  8
1
 10
112.819340655
 20
236.942753623
  0
SEQEND
  8
1
  0
LINE
  8
1
 62
4
  6
CONTINUOUS
 10
110.819340655
 20
237.242753623
 11
178.819340655
 21
237.242753623
  0
POLYLINE
  8
1
 62
4
  6
CONTINUOUS
 66
1
  0
VERTEX
  8
1
 10
176.819340655
 20
236.942753623
  0
VERTEX
  8
1
 10
178.819340655
 20
237.242753623
  0
VERTEX
  8
1
 10
176.819340655
 20
237.542753623
  0
SEQEND
  8
1
  0
LINE
  8
1
 62
4
  6
CONTINUOUS
 10
178.819340655
 20
201.492753623
 11
178.819340655
 21
239.242753623
  0
ENDBLK
  8
0
  0
BLOCK
  8
0
  2
*D171
 70
65
 10
0.000000000
 20
0.000000000
  3
*D
  0
TEXT
  8
1
 62
4
  6
CONTINUOUS
 72
5
 10
96.351989348
 20
247.447753623
 40
2.800000000
  1
(
 41
1.800001800
 11
98.031989348
 21
247.447753623
  0
TEXT
  8
1
 62
4
  6
CONTINUOUS
 72
5
 10
98.871989348
 20
247.447753623
 40
2.800000000
  1
14.7
 41
1.237498917
 11
108.111989348
 21
247.447753623
  0
TEXT
  8
1
 62
4
  6
CONTINUOUS
 72
5
 10
108.951989348
 20
247.447753623
 40
2.800000000
  1
)
 41
1.800001800
 11
110.631989348
 21
247.447753623
  0
LINE
  8
1
 62
4
  6
CONTINUOUS
 10
96.147838040
 20
192.915403354
 11
96.147838040
 21
247.242753623
  0
POLYLINE
  8
1
 62
4
  6
CONTINUOUS
 66
1
  0
VERTEX
  8
1
 10
98.147838040
 20
245.542753623
  0
VERTEX
  8
1
 10
96.147838040
 20
245.242753623
  0
VERTEX
  8
1
 10
98.147838040
 20
244.942753623
  0
SEQEND
  8
1
  0
LINE
  8
1
 62
4
  6
CONTINUOUS
 10
96.147838040
 20
245.242753623
 11
110.819340655
 21
245.242753623
  0
POLYLINE
  8
1
 62
4
  6
CONTINUOUS
 66
1
  0
VERTEX
  8
1
 10
108.819340655
 20
244.942753623
  0
VERTEX
  8
1
 10
110.819340655
 20
245.242753623
  0
VERTEX
  8
1
 10
108.819340655
 20
245.542753623
  0
SEQEND
  8
1
  0
LINE
  8
1
 62
4
  6
CONTINUOUS
 10
110.819340655
 20
201.992753623
 11
110.819340655
 21
247.242753623
  0
ENDBLK
  8
0
  0
BLOCK
  8
0
  2
*D172
 70
65
 10
0.000000000
 20
0.000000000
  3
*D
  0
TEXT
  8
1
 62
4
  6
CONTINUOUS
 72
5
 10
146.707740655
 20
247.447753623
 40
2.800000000
  1
(
 41
1.800001800
 11
148.387740655
 21
247.447753623
  0
TEXT
  8
1
 62
4
  6
CONTINUOUS
 72
5
 10
149.227740655
 20
247.447753623
 40
2.800000000
  1
81
 41
1.125000281
 11
153.427740655
 21
247.447753623
  0
TEXT
  8
1
 62
4
  6
CONTINUOUS
 72
5
 10
154.267740655
 20
247.447753623
 40
2.800000000
  1
)
 41
1.800001800
 11
155.947740655
 21
247.447753623
  0
LINE
  8
1
 62
4
  6
CONTINUOUS
 10
110.819340655
 20
201.992753623
 11
110.819340655
 21
247.242753623
  0
POLYLINE
  8
1
 62
4
  6
CONTINUOUS
 66
1
  0
VERTEX
  8
1
 10
112.819340655
 20
245.542753623
  0
VERTEX
  8
1
 10
110.819340655
 20
245.242753623
  0
VERTEX
  8
1
 10
112.819340655
 20
244.942753623
  0
SEQEND
  8
1
  0
LINE
  8
1
 62
4
  6
CONTINUOUS
 10
110.819340655
 20
245.242753623
 11
191.819340655
 21
245.242753623
  0
POLYLINE
  8
1
 62
4
  6
CONTINUOUS
 66
1
  0
VERTEX
  8
1
 10
189.819340655
 20
244.942753623
  0
VERTEX
  8
1
 10
191.819340655
 20
245.242753623
  0
VERTEX
  8
1
 10
189.819340655
 20
245.542753623
  0
SEQEND
  8
1
  0
LINE
  8
1
 62
4
  6
CONTINUOUS
 10
191.819340655
 20
197.992129013
 11
191.819340655
 21
247.242753623
  0
ENDBLK
  8
0
  0
ENDSEC
  0
SECTION
  2
ENTITIES
  0
LINE
  8
1
 62
7
  6
CONTINUOUS
 10
144.891340655
 20
160.742753623
 11
144.891340655
 21
153.942753623
  0
LINE
  8
1
 62
1
  6
CONTINUOUS
 10
156.171340655
 20
162.574753623
 11
156.103502782
 21
164.742753623
  0
LINE
  8
1
 62
7
  6
CONTINUOUS
 10
144.891340655
 20
153.942753623
 11
158.747340655
 21
153.942753623
  0
LINE
  8
1
 62
7
  6
CONTINUOUS
 10
145.819340655
 20
151.442753623
 11
157.819340655
 21
151.442753623
  0
LINE
  8
1
 62
7
  6
CONTINUOUS
 10
144.891340655
 20
160.742753623
 11
158.747340655
 21
160.742753623
  0
DIMENSION
  8
1
 62
4
  6
CONTINUOUS
  2
*D6
 70
1
 10
70.147838040
 20
167.242753623
 11
70.147838040
 21
189.492753623
 14
120.669340655
 24
167.242753623
 13
120.669340655
 23
211.742753623
 50
90.000000000
  0
DIMENSION
  8
1
 62
4
  6
CONTINUOUS
  2
*D7
 70
1
 10
78.147838040
 20
183.592753623
 11
78.147838040
 21
189.492753623
 14
99.706683767
 24
183.592753623
 13
99.706683767
 23
195.392753623
 50
90.000000000
  0
LINE
  8
1
 62
7
  6
CONTINUOUS
 10
99.206683767
 20
194.758779027
 11
99.206683767
 21
184.226728219
  0
LINE
  8
1
 62
7
  6
CONTINUOUS
 10
103.297838040
 20
183.592753623
 11
103.297838040
 21
195.392753623
  0
LINE
  8
1
 62
7
  6
CONTINUOUS
 10
99.997838040
 20
183.592753623
 11
99.997838040
 21
195.392753623
  0
LINE
  8
1
 62
7
  6
CONTINUOUS
 10
102.997838040
 20
187.357337973
 11
103.147838040
 21
187.507337973
  0
LINE
  8
1
 62
7
  6
CONTINUOUS
 10
103.147838040
 20
191.478169274
 11
102.997838040
 21
191.628169274
  0
LINE
  8
1
 62
7
  6
CONTINUOUS
 10
100.297838040
 20
183.992753623
 11
100.297838040
 21
187.357337973
  0
LINE
  8
1
 62
7
  6
CONTINUOUS
 10
161.819340655
 20
214.242753623
 11
162.319340655
 21
213.742753623
  0
LINE
  8
1
 62
7
  6
CONTINUOUS
 10
161.819340655
 20
164.742753623
 11
162.319340655
 21
165.242753623
  0
LINE
  8
1
 62
7
  6
CONTINUOUS
 10
119.419340655
 20
168.492753623
 11
120.669340655
 21
167.242753623
  0
LINE
  8
1
 62
7
  6
CONTINUOUS
 10
144.819340655
 20
167.242753623
 11
146.262716328
 21
164.742753623
  0
LINE
  8
1
 62
7
  6
CONTINUOUS
 10
120.669340655
 20
167.242753623
 11
140.319340655
 21
167.242753623
  0
LINE
  8
1
 62
7
  6
CONTINUOUS
 10
119.419340655
 20
210.492753623
 11
120.669340655
 21
211.742753623
  0
LINE
  8
1
 62
7
  6
CONTINUOUS
 10
119.319340655
 20
206.742753623
 11
119.419340655
 21
206.742753623
  0
LINE
  8
1
 62
7
  6
CONTINUOUS
 10
146.262716328
 20
214.242753623
 11
161.819340655
 21
214.242753623
  0
LINE
  8
1
 62
7
  6
CONTINUOUS
 10
162.369340655
 20
211.492753623
 11
162.369340655
 21
167.492753623
  0
LINE
  8
1
 62
7
  6
CONTINUOUS
 10
102.997838040
 20
183.992753623
 11
102.997838040
 21
187.357337973
  0
LINE
  8
1
 62
7
  6
CONTINUOUS
 10
146.262716328
 20
164.742753623
 11
161.819340655
 21
164.742753623
  0
LINE
  8
1
 62
7
  6
CONTINUOUS
 10
162.769340655
 20
211.492753623
 11
162.369340655
 21
211.492753623
  0
LINE
  8
1
 62
7
  6
CONTINUOUS
 10
100.297838040
 20
191.628169274
 11
102.997838040
 21
191.628169274
  0
LINE
  8
1
 62
1
  6
CONTINUOUS
 10
147.467340655
 20
162.574753623
 11
147.535178528
 21
164.742753623
  0
LINE
  8
1
 62
7
  6
CONTINUOUS
 10
148.355340655
 20
160.742753623
 11
148.355340655
 21
153.942753623
  0
LINE
  8
1
 62
7
  6
CONTINUOUS
 10
144.819340655
 20
167.242753623
 11
144.819340655
 21
211.742753623
  0
LINE
  8
1
 62
7
  6
CONTINUOUS
 10
100.297838040
 20
187.357337973
 11
102.997838040
 21
187.357337973
  0
LINE
  8
1
 62
4
  6
CONTINUOUS
 10
100.147838040
 20
191.478169274
 11
103.147838040
 21
187.507337973
  0
LINE
  8
1
 62
7
  6
CONTINUOUS
 10
162.319340655
 20
213.742753623
 11
162.319340655
 21
165.242753623
  0
LINE
  8
1
 62
1
  6
CENTER
 10
151.819340655
 20
166.742753623
 11
151.819340655
 21
144.242753623
  0
LINE
  8
1
 62
7
  6
CONTINUOUS
 10
100.297838040
 20
191.628169274
 11
100.297838040
 21
194.992753623
  0
LINE
  8
1
 62
7
  6
CONTINUOUS
 10
162.369340655
 20
167.492753623
 11
162.769340655
 21
167.492753623
  0
LINE
  8
1
 62
7
  6
CONTINUOUS
 10
102.997838040
 20
191.628169274
 11
102.997838040
 21
194.992753623
  0
LINE
  8
1
 62
7
  6
CONTINUOUS
 10
106.847838040
 20
195.392753623
 11
106.847838040
 21
183.592753623
  0
LINE
  8
1
 62
7
  6
CONTINUOUS
 10
96.147838040
 20
186.070103892
 11
96.147838040
 21
192.915403354
  0
LINE
  8
1
 62
7
  6
CONTINUOUS
 10
99.706683767
 20
195.392753623
 11
99.706683767
 21
183.592753623
  0
LINE
  8
1
 62
7
  6
CONTINUOUS
 10
162.769340655
 20
167.492753623
 11
162.769340655
 21
211.492753623
  0
LINE
  8
1
 62
7
  6
CONTINUOUS
 10
144.819340655
 20
211.742753623
 11
146.262716328
 21
214.242753623
  0
LINE
  8
1
 62
7
  6
CONTINUOUS
 10
146.262716328
 20
164.742753623
 11
146.262716328
 21
214.242753623
  0
LINE
  8
1
 62
7
  6
CONTINUOUS
 10
144.319340655
 20
167.242753623
 11
144.319340655
 21
211.742753623
  0
LINE
  8
1
 62
7
  6
CONTINUOUS
 10
140.319340655
 20
167.242753623
 11
144.319340655
 21
167.242753623
  0
LINE
  8
1
 62
7
  6
CONTINUOUS
 10
144.319340655
 20
211.742753623
 11
140.319340655
 21
211.742753623
  0
LINE
  8
1
 62
7
  6
CONTINUOUS
 10
103.147838040
 20
183.742753623
 11
103.297838040
 21
183.592753623
  0
LINE
  8
1
 62
7
  6
CONTINUOUS
 10
155.283340655
 20
160.742753623
 11
155.283340655
 21
153.942753623
  0
LINE
  8
1
 62
7
  6
CONTINUOUS
 10
96.647838040
 20
193.281428758
 11
96.647838040
 21
185.704078489
  0
LINE
  8
1
 62
7
  6
CONTINUOUS
 10
103.147838040
 20
195.242753623
 11
103.147838040
 21
183.742753623
  0
LINE
  8
15
 62
7
  6
CONTINUOUS
 10
86.147838040
 20
191.292753623
 11
86.147838040
 21
187.692753623
  0
LINE
  8
1
 62
4
  6
CONTINUOUS
 10
103.147838040
 20
191.478169274
 11
100.147838040
 21
187.507337973
  0
LINE
  8
1
 62
7
  6
CONTINUOUS
 10
146.069340655
 20
146.242753623
 11
157.569340655
 21
146.242753623
  0
LINE
  8
15
 62
7
  6
CONTINUOUS
 10
86.347838040
 20
191.492753623
 11
96.147838040
 21
191.492753623
  0
LINE
  8
15
 62
7
  6
CONTINUOUS
 10
96.147838040
 20
187.492753623
 11
86.347838040
 21
187.492753623
  0
LINE
  8
1
 62
7
  6
CONTINUOUS
 10
100.147838040
 20
187.507337973
 11
100.297838040
 21
187.357337973
  0
LINE
  8
1
 62
7
  6
CONTINUOUS
 10
99.997838040
 20
195.392753623
 11
99.706683767
 21
195.392753623
  0
LINE
  8
1
 62
7
  6
CONTINUOUS
 10
119.319340655
 20
206.742753623
 11
119.319340655
 21
172.242753623
  0
ARC
  8
1
 62
7
  6
CONTINUOUS
 10
99.706683767
 20
194.392753623
 40
1.000000000
 50
90.000000000
 51
120.000000000
  0
LINE
  8
1
 62
7
  6
CONTINUOUS
 10
162.819340655
 20
215.192753623
 11
162.819340655
 21
189.492753623
  0
ARC
  8
15
 62
7
  6
CONTINUOUS
 10
86.347838040
 20
187.692753623
 40
0.200000000
 50
180.000000000
 51
270.000000000
  0
LINE
  8
1
 62
7
  6
CONTINUOUS
 10
167.819340655
 20
163.792753623
 11
167.819340655
 21
189.492753623
  0
LINE
  8
1
 62
7
  6
CONTINUOUS
 10
167.519340655
 20
215.492753623
 11
167.819340655
 21
215.192753623
  0
LINE
  8
1
 62
7
  6
CONTINUOUS
 10
163.119340655
 20
163.492753623
 11
167.519340655
 21
163.492753623
  0
LINE
  8
1
 62
7
  6
CONTINUOUS
 10
167.819340655
 20
189.492753623
 11
167.819340655
 21
215.192753623
  0
LINE
  8
1
 62
7
  6
CONTINUOUS
 10
103.147838040
 20
195.242753623
 11
103.297838040
 21
195.392753623
  0
LINE
  8
1
 62
7
  6
CONTINUOUS
 10
119.319340655
 20
172.242753623
 11
119.419340655
 21
172.242753623
  0
LINE
  8
1
 62
7
  6
CONTINUOUS
 10
140.319340655
 20
167.242753623
 11
140.319340655
 21
211.742753623
  0
LINE
  8
1
 62
7
  6
CONTINUOUS
 10
140.319340655
 20
211.742753623
 11
120.669340655
 21
211.742753623
  0
LINE
  8
1
 62
7
  6
CONTINUOUS
 10
119.419340655
 20
210.492753623
 11
119.419340655
 21
168.492753623
  0
LINE
  8
1
 62
7
  6
CONTINUOUS
 10
144.369340655
 20
211.492753623
 11
144.369340655
 21
167.492753623
  0
LINE
  8
1
 62
7
  6
CONTINUOUS
 10
144.369340655
 20
167.492753623
 11
144.769340655
 21
167.492753623
  0
LINE
  8
1
 62
7
  6
CONTINUOUS
 10
162.819340655
 20
189.492753623
 11
162.819340655
 21
163.792753623
  0
LINE
  8
1
 62
7
  6
CONTINUOUS
 10
167.819340655
 20
163.792753623
 11
167.519340655
 21
163.492753623
  0
LINE
  8
1
 62
7
  6
CONTINUOUS
 10
144.769340655
 20
167.492753623
 11
144.769340655
 21
211.492753623
  0
LINE
  8
1
 62
7
  6
CONTINUOUS
 10
144.769340655
 20
211.492753623
 11
144.369340655
 21
211.492753623
  0
LINE
  8
1
 62
7
  6
CONTINUOUS
 10
163.119340655
 20
215.492753623
 11
167.519340655
 21
215.492753623
  0
LINE
  8
1
 62
7
  6
CONTINUOUS
 10
163.119340655
 20
163.492753623
 11
162.819340655
 21
163.792753623
  0
LINE
  8
1
 62
1
  6
CENTER
 10
194.819340655
 20
189.492753623
 11
83.147838040
 21
189.492753623
  0
ARC
  8
15
 62
7
  6
CONTINUOUS
 10
86.347838040
 20
191.292753623
 40
0.200000000
 50
90.000000000
 51
180.000000000
  0
LINE
  8
1
 62
7
  6
CONTINUOUS
 10
106.847838040
 20
183.592753623
 11
103.297838040
 21
183.592753623
  0
LINE
  8
1
 62
7
  6
CONTINUOUS
 10
100.147838040
 20
183.992753623
 11
103.147838040
 21
183.992753623
  0
LINE
  8
1
 62
7
  6
CONTINUOUS
 10
96.647838040
 20
193.781428758
 11
99.206683767
 21
195.258779027
  0
LINE
  8
1
 62
7
  6
CONTINUOUS
 10
100.297838040
 20
191.628169274
 11
100.147838040
 21
191.478169274
  0
LINE
  8
1
 62
7
  6
CONTINUOUS
 10
99.997838040
 20
183.592753623
 11
100.147838040
 21
183.742753623
  0
ARC
  8
1
 62
7
  6
CONTINUOUS
 10
106.847838040
 20
194.592753623
 40
0.800000000
 50
0.000000000
 51
90.000000000
  0
ARC
  8
1
 62
7
  6
CONTINUOUS
 10
97.147838040
 20
192.915403354
 40
1.000000000
 50
120.000000000
 51
180.000000000
  0
ARC
  8
1
 62
7
  6
CONTINUOUS
 10
97.147838040
 20
186.070103892
 40
1.000000000
 50
180.000000000
 51
240.000000000
  0
ARC
  8
1
 62
7
  6
CONTINUOUS
 10
106.847838040
 20
184.392753623
 40
0.800000000
 50
270.000000000
 51
0.000000000
  0
LINE
  8
1
 62
7
  6
CONTINUOUS
 10
100.147838040
 20
183.742753623
 11
100.147838040
 21
195.242753623
  0
LINE
  8
1
 62
7
  6
CONTINUOUS
 10
96.647838040
 20
185.204078489
 11
99.206683767
 21
183.726728219
  0
LINE
  8
1
 62
7
  6
CONTINUOUS
 10
108.319340655
 20
187.431200810
 11
110.819340655
 21
187.431200810
  0
LINE
  8
1
 62
7
  6
CONTINUOUS
 10
106.847838040
 20
195.392753623
 11
103.297838040
 21
195.392753623
  0
LINE
  8
1
 62
7
  6
CONTINUOUS
 10
107.647838040
 20
194.192753623
 11
108.119340655
 21
194.192753623
  0
LINE
  8
1
 62
7
  6
CONTINUOUS
 10
108.319340655
 20
184.992753623
 11
108.119340655
 21
184.792753623
  0
LINE
  8
1
 62
7
  6
CONTINUOUS
 10
110.819340655
 20
193.992753623
 11
108.319340655
 21
193.992753623
  0
LINE
  8
1
 62
7
  6
CONTINUOUS
 10
108.319340655
 20
193.992753623
 11
108.119340655
 21
194.192753623
  0
LINE
  8
1
 62
7
  6
CONTINUOUS
 10
107.647838040
 20
194.592753623
 11
107.647838040
 21
184.392753623
  0
LINE
  8
1
 62
7
  6
CONTINUOUS
 10
162.819340655
 20
215.192753623
 11
163.119340655
 21
215.492753623
  0
LINE
  8
1
 62
7
  6
CONTINUOUS
 10
108.119340655
 20
184.792753623
 11
108.119340655
 21
194.192753623
  0
LINE
  8
1
 62
7
  6
CONTINUOUS
 10
100.147838040
 20
194.992753623
 11
103.147838040
 21
194.992753623
  0
LINE
  8
1
 62
7
  6
CONTINUOUS
 10
99.997838040
 20
195.392753623
 11
100.147838040
 21
195.242753623
  0
LINE
  8
1
 62
7
  6
CONTINUOUS
 10
110.819340655
 20
184.992753623
 11
108.319340655
 21
184.992753623
  0
LINE
  8
1
 62
7
  6
CONTINUOUS
 10
119.119340655
 20
210.292753623
 11
119.319340655
 21
210.292753623
  0
LINE
  8
1
 62
7
  6
CONTINUOUS
 10
119.119340655
 20
210.292753623
 11
119.119340655
 21
168.692753623
  0
LINE
  8
1
 62
7
  6
CONTINUOUS
 10
110.819340655
 20
201.992753623
 11
119.119340655
 21
210.292753623
  0
LINE
  8
1
 62
7
  6
CONTINUOUS
 10
110.819340655
 20
176.992753623
 11
110.819340655
 21
201.992753623
  0
LINE
  8
1
 62
7
  6
CONTINUOUS
 10
99.997838040
 20
183.592753623
 11
99.706683767
 21
183.592753623
  0
LINE
  8
1
 62
7
  6
CONTINUOUS
 10
119.319340655
 20
210.292753623
 11
119.319340655
 21
168.692753623
  0
LINE
  8
1
 62
7
  6
CONTINUOUS
 10
107.647838040
 20
184.792753623
 11
108.119340655
 21
184.792753623
  0
LINE
  8
1
 62
7
  6
CONTINUOUS
 10
108.319340655
 20
191.554306436
 11
110.819340655
 21
191.554306436
  0
LINE
  8
1
 62
7
  6
CONTINUOUS
 10
108.319340655
 20
184.992753623
 11
108.319340655
 21
193.992753623
  0
LINE
  8
1
 62
4
  6
CONTINUOUS
 10
110.819340655
 20
191.554306436
 11
108.319340655
 21
187.431200810
  0
LINE
  8
1
 62
7
  6
CONTINUOUS
 10
110.819340655
 20
176.992753623
 11
119.119340655
 21
168.692753623
  0
LINE
  8
1
 62
4
  6
CONTINUOUS
 10
108.319340655
 20
191.554306436
 11
110.819340655
 21
187.431200810
  0
ARC
  8
1
 62
7
  6
CONTINUOUS
 10
99.706683767
 20
184.592753623
 40
1.000000000
 50
240.000000000
 51
270.000000000
  0
LINE
  8
1
 62
7
  6
CONTINUOUS
 10
119.119340655
 20
168.692753623
 11
119.319340655
 21
168.692753623
  0
LINE
  8
1
 62
7
  6
CONTINUOUS
 10
120.669340655
 20
167.242753623
 11
120.669340655
 21
211.742753623
  0
LINE
  8
1
 62
7
  6
CONTINUOUS
 10
158.747340655
 20
160.742753623
 11
158.747340655
 21
153.942753623
  0
LINE
  8
1
 62
7
  6
CONTINUOUS
 10
157.719340655
 20
153.942753623
 11
157.719340655
 21
151.442753623
  0
LINE
  8
1
 62
7
  6
CONTINUOUS
 10
145.919340655
 20
153.942753623
 11
145.919340655
 21
151.442753623
  0
LINE
  8
1
 62
7
  6
CONTINUOUS
 10
157.569340655
 20
146.242753623
 11
157.569340655
 21
147.742753623
  0
LINE
  8
1
 62
7
  6
CONTINUOUS
 10
146.069340655
 20
146.242753623
 11
146.069340655
 21
147.742753623
  0
LINE
  8
1
 62
7
  6
CONTINUOUS
 10
146.069340655
 20
147.742753623
 11
157.569340655
 21
147.742753623
  0
LINE
  8
1
 62
7
  6
CONTINUOUS
 10
155.319340655
 20
147.742753623
 11
155.319340655
 21
149.542753623
  0
LINE
  8
1
 62
7
  6
CONTINUOUS
 10
148.319340655
 20
147.742753623
 11
148.319340655
 21
149.542753623
  0
LINE
  8
1
 62
7
  6
CONTINUOUS
 10
157.819340655
 20
149.542753623
 11
157.819340655
 21
151.442753623
  0
LINE
  8
1
 62
7
  6
CONTINUOUS
 10
145.819340655
 20
149.542753623
 11
145.819340655
 21
151.442753623
  0
LINE
  8
1
 62
7
  6
CONTINUOUS
 10
145.819340655
 20
149.542753623
 11
157.819340655
 21
149.542753623
  0
LINE
  8
1
 62
7
  6
CONTINUOUS
 10
146.829340655
 20
160.742753623
 11
146.954340655
 21
164.742753623
  0
LINE
  8
1
 62
7
  6
CONTINUOUS
 10
156.752340655
 20
162.574753623
 11
146.886340655
 21
162.574753623
  0
LINE
  8
1
 62
7
  6
CONTINUOUS
 10
156.809340655
 20
160.742753623
 11
156.684340655
 21
164.742753623
  0
LINE
  8
4
 62
7
  6
CONTINUOUS
 10
176.319340655
 20
213.742753623
 11
176.319340655
 21
165.242753623
  0
LINE
  8
4
 62
7
  6
CONTINUOUS
 10
167.819340655
 20
213.742753623
 11
167.819340655
 21
165.242753623
  0
LINE
  8
4
 62
7
  6
CONTINUOUS
 10
175.819340655
 20
214.242753623
 11
168.319340655
 21
214.242753623
  0
LINE
  8
4
 62
7
  6
CONTINUOUS
 10
167.819340655
 20
213.742753623
 11
168.319340655
 21
214.242753623
  0
LINE
  8
4
 62
7
  6
CONTINUOUS
 10
176.319340655
 20
213.742753623
 11
175.819340655
 21
214.242753623
  0
LINE
  8
4
 62
7
  6
CONTINUOUS
 10
178.319340655
 20
201.992753623
 11
176.319340655
 21
201.992753623
  0
LINE
  8
4
 62
7
  6
CONTINUOUS
 10
178.319340655
 20
176.992753623
 11
176.319340655
 21
176.992753623
  0
LINE
  8
4
 62
7
  6
CONTINUOUS
 10
175.819340655
 20
164.742753623
 11
168.319340655
 21
164.742753623
  0
LINE
  8
4
 62
7
  6
CONTINUOUS
 10
167.819340655
 20
165.242753623
 11
168.319340655
 21
164.742753623
  0
LINE
  8
4
 62
7
  6
CONTINUOUS
 10
176.319340655
 20
165.242753623
 11
175.819340655
 21
164.742753623
  0
ARC
  8
4
 62
7
  6
CONTINUOUS
 10
191.319340655
 20
197.992129013
 40
0.500000000
 50
0.000000000
 51
87.137594774
  0
LINE
  8
4
 62
7
  6
CONTINUOUS
 10
179.819340655
 20
199.067753623
 11
179.819340655
 21
179.917753623
  0
ARC
  8
4
 62
7
  6
CONTINUOUS
 10
179.419805075
 20
199.167753623
 40
0.200000000
 50
270.000000000
 51
285.000000000
  0
LINE
  8
4
 62
7
  6
CONTINUOUS
 10
179.819340655
 20
199.067753623
 11
179.471568884
 21
198.974568458
  0
LINE
  8
4
 62
7
  6
CONTINUOUS
 10
179.419805075
 20
198.967753623
 11
178.919007624
 21
198.967753623
  0
ARC
  8
4
 62
7
  6
CONTINUOUS
 10
178.919007624
 20
199.167753623
 40
0.200000000
 50
240.110104953
 51
270.000000000
  0
LINE
  8
4
 62
7
  6
CONTINUOUS
 10
178.819340655
 20
201.492753623
 11
178.319340655
 21
201.992753623
  0
ARC
  8
4
 62
7
  6
CONTINUOUS
 10
191.319340655
 20
180.993378233
 40
0.500000000
 50
272.862405226
 51
0.000000000
  0
LINE
  8
4
 62
7
  6
CONTINUOUS
 10
179.819340655
 20
179.917753623
 11
191.344309464
 21
180.494002064
  0
TEXT
  8
1
 62
4
  6
CONTINUOUS
 72
5
 10
204.339367033
 20
230.262753623
 40
3.200000000
  1
ＨＳＫ Ｅ２５
 41
0.859498393
 11
224.539367033
 21
230.262753623
  0
POLYLINE
  8
1
 62
4
  6
CONTINUOUS
 66
1
  0
VERTEX
  8
1
 10
186.718658447
 20
198.722793579
  0
VERTEX
  8
1
 10
187.269302368
 20
199.676544189
  0
VERTEX
  8
1
 10
187.819946289
 20
200.630279541
  0
VERTEX
  8
1
 10
188.370605469
 20
201.584030151
  0
VERTEX
  8
1
 10
188.921249390
 20
202.537780762
  0
VERTEX
  8
1
 10
189.471893311
 20
203.491531372
  0
VERTEX
  8
1
 10
190.022537231
 20
204.445281982
  0
VERTEX
  8
1
 10
190.573181152
 20
205.399032593
  0
VERTEX
  8
1
 10
191.123840332
 20
206.352783203
  0
VERTEX
  8
1
 10
191.674484253
 20
207.306533813
  0
VERTEX
  8
1
 10
192.225128174
 20
208.260284424
  0
VERTEX
  8
1
 10
192.775772095
 20
209.214019775
  0
VERTEX
  8
1
 10
193.326416016
 20
210.167770386
  0
VERTEX
  8
1
 10
193.877075195
 20
211.121520996
  0
VERTEX
  8
1
 10
194.427719116
 20
212.075271606
  0
VERTEX
  8
1
 10
194.978363037
 20
213.029022217
  0
VERTEX
  8
1
 10
195.529006958
 20
213.982772827
  0
VERTEX
  8
1
 10
196.079666138
 20
214.936523438
  0
VERTEX
  8
1
 10
196.630310059
 20
215.890274048
  0
VERTEX
  8
1
 10
197.180953979
 20
216.844024658
  0
VERTEX
  8
1
 10
197.731597900
 20
217.797760010
  0
VERTEX
  8
1
 10
198.282241821
 20
218.751510620
  0
VERTEX
  8
1
 10
198.832901001
 20
219.705261230
  0
VERTEX
  8
1
 10
199.383544922
 20
220.659011841
  0
VERTEX
  8
1
 10
199.934188843
 20
221.612762451
  0
VERTEX
  8
1
 10
200.484832764
 20
222.566513062
  0
VERTEX
  8
1
 10
201.035476685
 20
223.520263672
  0
VERTEX
  8
1
 10
201.586135864
 20
224.474014282
  0
VERTEX
  8
1
 10
202.136779785
 20
225.427764893
  0
VERTEX
  8
1
 10
202.687423706
 20
226.381500244
  0
VERTEX
  8
1
 10
203.238067627
 20
227.335250854
  0
VERTEX
  8
1
 10
203.788726807
 20
228.289001465
  0
VERTEX
  8
1
 10
204.339370728
 20
229.242752075
  0
VERTEX
  8
1
 10
204.979873657
 20
229.242752075
  0
VERTEX
  8
1
 10
205.620361328
 20
229.242752075
  0
VERTEX
  8
1
 10
206.260864258
 20
229.242752075
  0
VERTEX
  8
1
 10
206.901367188
 20
229.242752075
  0
VERTEX
  8
1
 10
207.541870117
 20
229.242752075
  0
VERTEX
  8
1
 10
208.182373047
 20
229.242752075
  0
VERTEX
  8
1
 10
208.822860718
 20
229.242752075
  0
VERTEX
  8
1
 10
209.463363647
 20
229.242752075
  0
VERTEX
  8
1
 10
210.103866577
 20
229.242752075
  0
VERTEX
  8
1
 10
210.744369507
 20
229.242752075
  0
VERTEX
  8
1
 10
211.384872437
 20
229.242752075
  0
VERTEX
  8
1
 10
212.025360107
 20
229.242752075
  0
VERTEX
  8
1
 10
212.665863037
 20
229.242752075
  0
VERTEX
  8
1
 10
213.306365967
 20
229.242752075
  0
VERTEX
  8
1
 10
213.946868896
 20
229.242752075
  0
VERTEX
  8
1
 10
214.587371826
 20
229.242752075
  0
VERTEX
  8
1
 10
215.227859497
 20
229.242752075
  0
VERTEX
  8
1
 10
215.868362427
 20
229.242752075
  0
VERTEX
  8
1
 10
216.508865356
 20
229.242752075
  0
VERTEX
  8
1
 10
217.149368286
 20
229.242752075
  0
VERTEX
  8
1
 10
217.789871216
 20
229.242752075
  0
VERTEX
  8
1
 10
218.430374146
 20
229.242752075
  0
VERTEX
  8
1
 10
219.070861816
 20
229.242752075
  0
VERTEX
  8
1
 10
219.711364746
 20
229.242752075
  0
VERTEX
  8
1
 10
220.351867676
 20
229.242752075
  0
VERTEX
  8
1
 10
220.992370605
 20
229.242752075
  0
VERTEX
  8
1
 10
221.632873535
 20
229.242752075
  0
VERTEX
  8
1
 10
222.273361206
 20
229.242752075
  0
VERTEX
  8
1
 10
222.913864136
 20
229.242752075
  0
VERTEX
  8
1
 10
223.554367065
 20
229.242752075
  0
VERTEX
  8
1
 10
224.194869995
 20
229.242752075
  0
VERTEX
  8
1
 10
224.835372925
 20
229.242752075
  0
SEQEND
  8
1
  0
POLYLINE
  8
1
 62
4
  6
CONTINUOUS
 66
1
  0
VERTEX
  8
1
 10
187.458851105
 20
200.604844277
  0
VERTEX
  8
1
 10
186.718658447
 20
198.722793579
  0
VERTEX
  8
1
 10
187.978466303
 20
200.304844200
  0
SEQEND
  8
1
  0
TEXT
  8
1
 62
3
  6
CONTINUOUS
 72
5
 10
121.019340655
 20
129.258753623
 40
4.000000000
  1
ＨＴＳ１５０１Ｓ－ＨＳＫ Ｅ２５
 41
0.843235378
 11
182.219340655
 21
129.258753623
  0
LINE
  8
4
 62
7
  6
CONTINUOUS
 10
179.819340655
 20
179.917753623
 11
179.471568884
 21
180.010938788
  0
LINE
  8
4
 62
7
  6
CONTINUOUS
 10
179.419805075
 20
180.017753623
 11
178.919007624
 21
180.017753623
  0
ARC
  8
4
 62
7
  6
CONTINUOUS
 10
179.419805075
 20
179.817753623
 40
0.200000000
 50
75.000000000
 51
90.000000000
  0
LINE
  8
4
 62
7
  6
CONTINUOUS
 10
179.471568884
 20
198.974568458
 11
179.471568884
 21
180.010938788
  0
ARC
  8
4
 62
7
  6
CONTINUOUS
 10
178.919007624
 20
179.817753623
 40
0.200000000
 50
90.000000000
 51
119.889895047
  0
LINE
  8
4
 62
7
  6
CONTINUOUS
 10
178.819340655
 20
177.492753623
 11
178.319340655
 21
176.992753623
  0
LINE
  8
4
 62
7
  6
CONTINUOUS
 10
179.419805075
 20
198.967753623
 11
179.419805075
 21
180.017753623
  0
LINE
  8
4
 62
7
  6
CONTINUOUS
 10
178.819340655
 20
177.492753623
 11
178.819340655
 21
201.492753623
  0
LINE
  8
4
 62
7
  6
CONTINUOUS
 10
179.819340655
 20
199.067753623
 11
191.344309464
 21
198.491505183
  0
LINE
  8
4
 62
7
  6
CONTINUOUS
 10
191.819340655
 20
197.992129013
 11
191.819340655
 21
180.993378233
  0
DIMENSION
  8
1
 62
4
  6
CONTINUOUS
  2
*D164
 70
1
 10
62.147838040
 20
164.742753623
 11
62.147838040
 21
189.492753623
 14
146.262716328
 24
164.742753623
 13
146.262716328
 23
214.242753623
 50
90.000000000
  0
DIMENSION
  8
1
 62
4
  6
CONTINUOUS
  2
*D165
 70
1
 10
206.819340655
 20
163.492753623
 11
206.819340655
 21
189.492753623
 14
167.519340655
 24
163.492753623
 13
167.519340655
 23
215.492753623
 50
90.000000000
  0
DIMENSION
  8
1
 62
4
  6
CONTINUOUS
  2
*D166
 70
0
 10
162.319340655
 20
229.242753623
 11
153.569340655
 21
229.242753623
 14
162.319340655
 24
213.742753623
 13
144.819340655
 23
211.742753623
 50
0.000000000
  0
DIMENSION
  8
1
 62
4
  6
CONTINUOUS
  2
*D167
 70
0
 10
144.819340655
 20
229.242753623
 11
127.819340655
 21
229.242753623
 14
144.819340655
 24
211.742753623
 13
110.819340655
 23
201.992753623
 50
0.000000000
  0
DIMENSION
  8
1
 62
4
  6
CONTINUOUS
  2
*D168
 70
0
 10
120.669340655
 20
221.242753623
 11
116.632427485
 21
221.242753623
 14
120.669340655
 24
211.742753623
 13
110.819340655
 23
201.992753623
 50
0.000000000
  0
DIMENSION
  8
1
 62
4
  6
CONTINUOUS
  2
*D169
 70
0
 10
191.819340655
 20
237.242753623
 11
185.319340655
 21
237.242753623
 14
191.819340655
 24
197.992129013
 13
178.819340655
 23
201.492753623
 50
0.000000000
  0
DIMENSION
  8
1
 62
4
  6
CONTINUOUS
  2
*D170
 70
0
 10
178.819340655
 20
237.242753623
 11
144.819340655
 21
237.242753623
 14
178.819340655
 24
201.492753623
 13
110.819340655
 23
201.992753623
 50
0.000000000
  0
DIMENSION
  8
1
 62
4
  6
CONTINUOUS
  2
*D171
 70
0
 10
110.819340655
 20
245.242753623
 11
103.483589348
 21
245.242753623
 14
110.819340655
 24
201.992753623
 13
96.147838040
 23
192.915403354
 50
0.000000000
  0
DIMENSION
  8
1
 62
4
  6
CONTINUOUS
  2
*D172
 70
0
 10
191.819340655
 20
245.242753623
 11
151.319340655
 21
245.242753623
 14
191.819340655
 24
197.992129013
 13
110.819340655
 23
201.992753623
 50
0.000000000
  0
LINE
  8
4
 62
7
  6
CONTINUOUS
 10
178.919007624
 20
198.967753623
 11
178.919007624
 21
180.017753623
  0
ENDSEC
  0
EOF
