  0
SECTION
  2
HEADER
  9
$ACADVER
  1
AC1009
  9
$INSBASE
 10
0.000000000
 20
0.000000000
  9
$EXTMIN
 10
-23.645969817
 20
-25.199275362
  9
$EXTMAX
 10
260.105667984
 20
277.192028986
  9
$LIMMIN
 10
-23.645969817
 20
-25.199275362
  9
$LIMMAX
 10
260.105667984
 20
277.192028986
  9
$SNAPBASE
 10
0.000000000
 20
0.000000000
  9
$SNAPANG
 50
0.000000000
  9
$SNAPSTYLE
 70
0
  9
$GRIDMODE
 70
0
  9
$GRIDUNIT
 10
0.000000000
 20
0.000000000
  9
$DIMEXO
 40
0.000000000
  9
$DIMDLI
 40
8.000000000
  9
$DIMDLE
 40
0.000000000
  9
$DIMEXE
 40
1.000000000
  9
$DIMTIH
 70
1
  9
$DIMTOH
 70
1
  9
$DIMTAD
 70
2
  9
$DIMZIN
 70
0
  9
$FILLETRAD
 40
1.000000000
  9
$CHAMFERA
 40
1.000000000
  9
$CHAMFERB
 40
1.000000000
  9
$TDCREATE
 40
2454182.600173611
  9
$TDUPDATE
 40
2454182.600173611
  9
$ANGBASE
 50
0.000000000
  9
$ANGDIR
 70
0
  0
ENDSEC
  0
SECTION
  2
TABLES
  0
TABLE
  2
LTYPE
 70
3
  0
LTYPE
  2
CENTER
 70
64
  3
___ _ ___ _ __
 72
65
 73
4
 40
13.000000000
 49
8.500000000
 49
-1.500000000
 49
1.500000000
 49
-1.500000000
  0
LTYPE
  2
CONTINUOUS
 70
64
  3
______________
 72
65
 73
0
 40
0.000000000
  0
LTYPE
  2
DIVIDE
 70
64
  3
___ . . ___ . 
 72
65
 73
6
 40
12.999999523
 49
5.199999809
 49
-2.599999905
 49
0.000000000
 49
-2.599999905
 49
0.000000000
 49
-2.599999905
  0
ENDTAB
  0
TABLE
  2
LAYER
 70
2
  0
LAYER
  2
1
 70
0
 62
7
  6
CONTINUOUS
  0
LAYER
  2
15
 70
0
 62
5
  6
CONTINUOUS
999
ﾁｬｯｸ
  0
LAYER
  2
_CONSTR
 70
0
 62
5
  6
CONTINUOUS
  0
ENDTAB
  0
TABLE
  2
STYLE
 70
1
  0
STYLE
  2
STANDARD
 70
64
 40
0.000000000
 41
1.000000000
 50
0.000000000
 71
0
 42
3.200000000
  3
TXT
  4
EXTFONT
  0
ENDTAB
  0
TABLE
  2
VIEW
 70
0
  0
ENDTAB
  0
ENDSEC
  0
SECTION
  2
BLOCKS
  0
BLOCK
  8
0
  2
*D6
 70
65
 10
0.000000000
 20
0.000000000
  3
*D
  0
TEXT
  8
1
 62
4
  6
CONTINUOUS
 72
5
 10
67.942838040
 20
182.361153623
 40
2.800000000
  1
φ
 41
1.270648030
 50
90.000000000
 11
67.942838040
 21
185.721153623
  0
TEXT
  8
1
 62
4
  6
CONTINUOUS
 72
5
 10
67.942838040
 20
187.401153623
 40
2.800000000
  1
44.5
 41
1.099999267
 50
90.000000000
 11
67.942838040
 21
196.641153623
  0
LINE
  8
1
 62
4
  6
CONTINUOUS
 10
120.669340655
 20
211.742753623
 11
68.147838040
 21
211.742753623
  0
POLYLINE
  8
1
 62
4
  6
CONTINUOUS
 66
1
  0
VERTEX
  8
1
 10
70.447838040
 20
209.742753623
  0
VERTEX
  8
1
 10
70.147838040
 20
211.742753623
  0
VERTEX
  8
1
 10
69.847838040
 20
209.742753623
  0
SEQEND
  8
1
  0
LINE
  8
1
 62
4
  6
CONTINUOUS
 10
70.147838040
 20
211.742753623
 11
70.147838040
 21
167.242753623
  0
POLYLINE
  8
1
 62
4
  6
CONTINUOUS
 66
1
  0
VERTEX
  8
1
 10
69.847838040
 20
169.242753623
  0
VERTEX
  8
1
 10
70.147838040
 20
167.242753623
  0
VERTEX
  8
1
 10
70.447838040
 20
169.242753623
  0
SEQEND
  8
1
  0
LINE
  8
1
 62
4
  6
CONTINUOUS
 10
120.669340655
 20
167.242753623
 11
68.147838040
 21
167.242753623
  0
ENDBLK
  8
0
  0
BLOCK
  8
0
  2
*D7
 70
65
 10
0.000000000
 20
0.000000000
  3
*D
  0
TEXT
  8
1
 62
4
  6
CONTINUOUS
 72
5
 10
75.942838040
 20
182.361153623
 40
2.800000000
  1
φ
 41
1.270648030
 50
90.000000000
 11
75.942838040
 21
185.721153623
  0
TEXT
  8
1
 62
4
  6
CONTINUOUS
 72
5
 10
75.942838040
 20
187.401153623
 40
2.800000000
  1
11.8
 41
1.414284098
 50
90.000000000
 11
75.942838040
 21
196.641153623
  0
LINE
  8
1
 62
4
  6
CONTINUOUS
 10
99.706683767
 20
195.392753623
 11
76.147838040
 21
195.392753623
  0
POLYLINE
  8
1
 62
4
  6
CONTINUOUS
 66
1
  0
VERTEX
  8
1
 10
78.447838040
 20
193.392753623
  0
VERTEX
  8
1
 10
78.147838040
 20
195.392753623
  0
VERTEX
  8
1
 10
77.847838040
 20
193.392753623
  0
SEQEND
  8
1
  0
LINE
  8
1
 62
4
  6
CONTINUOUS
 10
78.147838040
 20
195.392753623
 11
78.147838040
 21
183.592753623
  0
POLYLINE
  8
1
 62
4
  6
CONTINUOUS
 66
1
  0
VERTEX
  8
1
 10
77.847838040
 20
185.592753623
  0
VERTEX
  8
1
 10
78.147838040
 20
183.592753623
  0
VERTEX
  8
1
 10
78.447838040
 20
185.592753623
  0
SEQEND
  8
1
  0
LINE
  8
1
 62
4
  6
CONTINUOUS
 10
99.706683767
 20
183.592753623
 11
76.147838040
 21
183.592753623
  0
ENDBLK
  8
0
  0
BLOCK
  8
0
  2
*D163
 70
65
 10
0.000000000
 20
0.000000000
  3
*D
  0
TEXT
  8
1
 62
4
  6
CONTINUOUS
 72
5
 10
220.114340655
 20
184.881153623
 40
2.800000000
  1
φ
 41
1.270648030
 50
90.000000000
 11
220.114340655
 21
188.241153623
  0
TEXT
  8
1
 62
4
  6
CONTINUOUS
 72
5
 10
220.114340655
 20
189.921153623
 40
2.800000000
  1
63
 41
0.899998740
 50
90.000000000
 11
220.114340655
 21
194.121153623
  0
LINE
  8
1
 62
4
  6
CONTINUOUS
 10
179.319340655
 20
220.992753623
 11
224.319340655
 21
220.992753623
  0
POLYLINE
  8
1
 62
4
  6
CONTINUOUS
 66
1
  0
VERTEX
  8
1
 10
222.619340655
 20
218.992753623
  0
VERTEX
  8
1
 10
222.319340655
 20
220.992753623
  0
VERTEX
  8
1
 10
222.019340655
 20
218.992753623
  0
SEQEND
  8
1
  0
LINE
  8
1
 62
4
  6
CONTINUOUS
 10
222.319340655
 20
220.992753623
 11
222.319340655
 21
157.992753623
  0
POLYLINE
  8
1
 62
4
  6
CONTINUOUS
 66
1
  0
VERTEX
  8
1
 10
222.019340655
 20
159.992753623
  0
VERTEX
  8
1
 10
222.319340655
 20
157.992753623
  0
VERTEX
  8
1
 10
222.619340655
 20
159.992753623
  0
SEQEND
  8
1
  0
LINE
  8
1
 62
4
  6
CONTINUOUS
 10
179.319340655
 20
157.992753623
 11
224.319340655
 21
157.992753623
  0
ENDBLK
  8
0
  0
BLOCK
  8
0
  2
*D164
 70
65
 10
0.000000000
 20
0.000000000
  3
*D
  0
TEXT
  8
1
 62
4
  6
CONTINUOUS
 72
5
 10
148.957740655
 20
238.197753623
 40
2.800000000
  1
17.5
 41
1.237498917
 11
158.197740655
 21
238.197753623
  0
POLYLINE
  8
1
 62
4
  6
CONTINUOUS
 66
1
  0
VERTEX
  8
1
 10
146.819340655
 20
236.292753623
  0
VERTEX
  8
1
 10
144.819340655
 20
235.992753623
  0
VERTEX
  8
1
 10
146.819340655
 20
235.692753623
  0
SEQEND
  8
1
  0
LINE
  8
1
 62
4
  6
CONTINUOUS
 10
144.819340655
 20
235.992753623
 11
162.319340655
 21
235.992753623
  0
POLYLINE
  8
1
 62
4
  6
CONTINUOUS
 66
1
  0
VERTEX
  8
1
 10
160.319340655
 20
235.692753623
  0
VERTEX
  8
1
 10
162.319340655
 20
235.992753623
  0
VERTEX
  8
1
 10
160.319340655
 20
236.292753623
  0
SEQEND
  8
1
  0
LINE
  8
1
 62
4
  6
CONTINUOUS
 10
162.319340655
 20
213.742753623
 11
162.319340655
 21
237.992753623
  0
ENDBLK
  8
0
  0
BLOCK
  8
0
  2
*D165
 70
65
 10
0.000000000
 20
0.000000000
  3
*D
  0
TEXT
  8
1
 62
4
  6
CONTINUOUS
 72
5
 10
123.207740655
 20
238.197753623
 40
2.800000000
  1
(
 41
1.800001800
 11
124.887740655
 21
238.197753623
  0
TEXT
  8
1
 62
4
  6
CONTINUOUS
 72
5
 10
125.727740655
 20
238.197753623
 40
2.800000000
  1
34
 41
0.899998740
 11
129.927740655
 21
238.197753623
  0
TEXT
  8
1
 62
4
  6
CONTINUOUS
 72
5
 10
130.767740655
 20
238.197753623
 40
2.800000000
  1
)
 41
1.800001800
 11
132.447740655
 21
238.197753623
  0
LINE
  8
1
 62
4
  6
CONTINUOUS
 10
110.819340655
 20
201.992753623
 11
110.819340655
 21
237.992753623
  0
POLYLINE
  8
1
 62
4
  6
CONTINUOUS
 66
1
  0
VERTEX
  8
1
 10
112.819340655
 20
236.292753623
  0
VERTEX
  8
1
 10
110.819340655
 20
235.992753623
  0
VERTEX
  8
1
 10
112.819340655
 20
235.692753623
  0
SEQEND
  8
1
  0
LINE
  8
1
 62
4
  6
CONTINUOUS
 10
110.819340655
 20
235.992753623
 11
144.819340655
 21
235.992753623
  0
POLYLINE
  8
1
 62
4
  6
CONTINUOUS
 66
1
  0
VERTEX
  8
1
 10
142.819340655
 20
235.692753623
  0
VERTEX
  8
1
 10
144.819340655
 20
235.992753623
  0
VERTEX
  8
1
 10
142.819340655
 20
236.292753623
  0
SEQEND
  8
1
  0
LINE
  8
1
 62
4
  6
CONTINUOUS
 10
144.819340655
 20
211.742753623
 11
144.819340655
 21
237.992753623
  0
ENDBLK
  8
0
  0
BLOCK
  8
0
  2
*D166
 70
65
 10
0.000000000
 20
0.000000000
  3
*D
  0
TEXT
  8
1
 62
4
  6
CONTINUOUS
 72
5
 10
111.250127485
 20
230.197753623
 40
2.800000000
  1
(
 41
1.650001650
 11
112.790127485
 21
230.197753623
  0
TEXT
  8
1
 62
4
  6
CONTINUOUS
 72
5
 10
113.560127485
 20
230.197753623
 40
2.800000000
  1
9.9
 41
1.099998900
 11
119.720127485
 21
230.197753623
  0
TEXT
  8
1
 62
4
  6
CONTINUOUS
 72
5
 10
120.490127485
 20
230.197753623
 40
2.800000000
  1
)
 41
1.650001650
 11
122.030127485
 21
230.197753623
  0
LINE
  8
1
 62
4
  6
CONTINUOUS
 10
110.819340655
 20
201.992753623
 11
110.819340655
 21
229.992753623
  0
POLYLINE
  8
1
 62
4
  6
CONTINUOUS
 66
1
  0
VERTEX
  8
1
 10
108.819340655
 20
228.292753623
  0
VERTEX
  8
1
 10
110.819340655
 20
227.992753623
  0
SEQEND
  8
1
  0
POLYLINE
  8
1
 62
4
  6
CONTINUOUS
 66
1
  0
VERTEX
  8
1
 10
107.819340655
 20
227.992753623
  0
VERTEX
  8
1
 10
110.819340655
 20
227.992753623
  0
VERTEX
  8
1
 10
108.819340655
 20
227.692753623
  0
SEQEND
  8
1
  0
LINE
  8
1
 62
4
  6
CONTINUOUS
 10
110.819340655
 20
227.992753623
 11
120.669340655
 21
227.992753623
  0
POLYLINE
  8
1
 62
4
  6
CONTINUOUS
 66
1
  0
VERTEX
  8
1
 10
122.669340655
 20
227.692753623
  0
VERTEX
  8
1
 10
120.669340655
 20
227.992753623
  0
SEQEND
  8
1
  0
POLYLINE
  8
1
 62
4
  6
CONTINUOUS
 66
1
  0
VERTEX
  8
1
 10
123.669340655
 20
227.992753623
  0
VERTEX
  8
1
 10
120.669340655
 20
227.992753623
  0
VERTEX
  8
1
 10
122.669340655
 20
228.292753623
  0
SEQEND
  8
1
  0
LINE
  8
1
 62
4
  6
CONTINUOUS
 10
120.669340655
 20
211.742753623
 11
120.669340655
 21
229.992753623
  0
ENDBLK
  8
0
  0
BLOCK
  8
0
  2
*D167
 70
65
 10
0.000000000
 20
0.000000000
  3
*D
  0
TEXT
  8
1
 62
4
  6
CONTINUOUS
 72
5
 10
192.227740655
 20
246.197753623
 40
2.800000000
  1
20
 41
1.000000667
 11
196.427740655
 21
246.197753623
  0
POLYLINE
  8
1
 62
4
  6
CONTINUOUS
 66
1
  0
VERTEX
  8
1
 10
186.319340655
 20
244.292753623
  0
VERTEX
  8
1
 10
184.319340655
 20
243.992753623
  0
VERTEX
  8
1
 10
186.319340655
 20
243.692753623
  0
SEQEND
  8
1
  0
LINE
  8
1
 62
4
  6
CONTINUOUS
 10
184.319340655
 20
243.992753623
 11
204.319340655
 21
243.992753623
  0
POLYLINE
  8
1
 62
4
  6
CONTINUOUS
 66
1
  0
VERTEX
  8
1
 10
202.319340655
 20
243.692753623
  0
VERTEX
  8
1
 10
204.319340655
 20
243.992753623
  0
VERTEX
  8
1
 10
202.319340655
 20
244.292753623
  0
SEQEND
  8
1
  0
LINE
  8
1
 62
4
  6
CONTINUOUS
 10
204.319340655
 20
202.933650038
 11
204.319340655
 21
245.992753623
  0
ENDBLK
  8
0
  0
BLOCK
  8
0
  2
*D168
 70
65
 10
0.000000000
 20
0.000000000
  3
*D
  0
TEXT
  8
1
 62
4
  6
CONTINUOUS
 72
5
 10
140.437740655
 20
246.197753623
 40
2.800000000
  1
(
 41
1.800001800
 11
142.117740655
 21
246.197753623
  0
TEXT
  8
1
 62
4
  6
CONTINUOUS
 72
5
 10
142.957740655
 20
246.197753623
 40
2.800000000
  1
73.5
 41
1.099999267
 11
152.197740655
 21
246.197753623
  0
TEXT
  8
1
 62
4
  6
CONTINUOUS
 72
5
 10
153.037740655
 20
246.197753623
 40
2.800000000
  1
)
 41
1.800001800
 11
154.717740655
 21
246.197753623
  0
LINE
  8
1
 62
4
  6
CONTINUOUS
 10
110.819340655
 20
201.992753623
 11
110.819340655
 21
245.992753623
  0
POLYLINE
  8
1
 62
4
  6
CONTINUOUS
 66
1
  0
VERTEX
  8
1
 10
112.819340655
 20
244.292753623
  0
VERTEX
  8
1
 10
110.819340655
 20
243.992753623
  0
VERTEX
  8
1
 10
112.819340655
 20
243.692753623
  0
SEQEND
  8
1
  0
LINE
  8
1
 62
4
  6
CONTINUOUS
 10
110.819340655
 20
243.992753623
 11
184.319340655
 21
243.992753623
  0
POLYLINE
  8
1
 62
4
  6
CONTINUOUS
 66
1
  0
VERTEX
  8
1
 10
182.319340655
 20
243.692753623
  0
VERTEX
  8
1
 10
184.319340655
 20
243.992753623
  0
VERTEX
  8
1
 10
182.319340655
 20
244.292753623
  0
SEQEND
  8
1
  0
LINE
  8
1
 62
4
  6
CONTINUOUS
 10
184.319340655
 20
208.992753623
 11
184.319340655
 21
245.992753623
  0
ENDBLK
  8
0
  0
BLOCK
  8
0
  2
*D169
 70
65
 10
0.000000000
 20
0.000000000
  3
*D
  0
TEXT
  8
1
 62
4
  6
CONTINUOUS
 72
5
 10
96.351989348
 20
254.197753623
 40
2.800000000
  1
(
 41
1.800001800
 11
98.031989348
 21
254.197753623
  0
TEXT
  8
1
 62
4
  6
CONTINUOUS
 72
5
 10
98.871989348
 20
254.197753623
 40
2.800000000
  1
14.7
 41
1.237498917
 11
108.111989348
 21
254.197753623
  0
TEXT
  8
1
 62
4
  6
CONTINUOUS
 72
5
 10
108.951989348
 20
254.197753623
 40
2.800000000
  1
)
 41
1.800001800
 11
110.631989348
 21
254.197753623
  0
LINE
  8
1
 62
4
  6
CONTINUOUS
 10
96.147838040
 20
192.915403354
 11
96.147838040
 21
253.992753623
  0
POLYLINE
  8
1
 62
4
  6
CONTINUOUS
 66
1
  0
VERTEX
  8
1
 10
98.147838040
 20
252.292753623
  0
VERTEX
  8
1
 10
96.147838040
 20
251.992753623
  0
VERTEX
  8
1
 10
98.147838040
 20
251.692753623
  0
SEQEND
  8
1
  0
LINE
  8
1
 62
4
  6
CONTINUOUS
 10
96.147838040
 20
251.992753623
 11
110.819340655
 21
251.992753623
  0
POLYLINE
  8
1
 62
4
  6
CONTINUOUS
 66
1
  0
VERTEX
  8
1
 10
108.819340655
 20
251.692753623
  0
VERTEX
  8
1
 10
110.819340655
 20
251.992753623
  0
VERTEX
  8
1
 10
108.819340655
 20
252.292753623
  0
SEQEND
  8
1
  0
LINE
  8
1
 62
4
  6
CONTINUOUS
 10
110.819340655
 20
201.992753623
 11
110.819340655
 21
253.992753623
  0
ENDBLK
  8
0
  0
BLOCK
  8
0
  2
*D170
 70
65
 10
0.000000000
 20
0.000000000
  3
*D
  0
TEXT
  8
1
 62
4
  6
CONTINUOUS
 72
5
 10
150.437740655
 20
254.197753623
 40
2.800000000
  1
(
 41
1.800001800
 11
152.117740655
 21
254.197753623
  0
TEXT
  8
1
 62
4
  6
CONTINUOUS
 72
5
 10
152.957740655
 20
254.197753623
 40
2.800000000
  1
93.5
 41
1.099999267
 11
162.197740655
 21
254.197753623
  0
TEXT
  8
1
 62
4
  6
CONTINUOUS
 72
5
 10
163.037740655
 20
254.197753623
 40
2.800000000
  1
)
 41
1.800001800
 11
164.717740655
 21
254.197753623
  0
LINE
  8
1
 62
4
  6
CONTINUOUS
 10
110.819340655
 20
201.992753623
 11
110.819340655
 21
253.992753623
  0
POLYLINE
  8
1
 62
4
  6
CONTINUOUS
 66
1
  0
VERTEX
  8
1
 10
112.819340655
 20
252.292753623
  0
VERTEX
  8
1
 10
110.819340655
 20
251.992753623
  0
VERTEX
  8
1
 10
112.819340655
 20
251.692753623
  0
SEQEND
  8
1
  0
LINE
  8
1
 62
4
  6
CONTINUOUS
 10
110.819340655
 20
251.992753623
 11
204.319340655
 21
251.992753623
  0
POLYLINE
  8
1
 62
4
  6
CONTINUOUS
 66
1
  0
VERTEX
  8
1
 10
202.319340655
 20
251.692753623
  0
VERTEX
  8
1
 10
204.319340655
 20
251.992753623
  0
VERTEX
  8
1
 10
202.319340655
 20
252.292753623
  0
SEQEND
  8
1
  0
LINE
  8
1
 62
4
  6
CONTINUOUS
 10
204.319340655
 20
202.933650038
 11
204.319340655
 21
253.992753623
  0
ENDBLK
  8
0
  0
BLOCK
  8
0
  2
*D171
 70
65
 10
0.000000000
 20
0.000000000
  3
*D
  0
TEXT
  8
1
 62
4
  6
CONTINUOUS
 72
5
 10
59.942838040
 20
182.361153623
 40
2.800000000
  1
φ
 41
1.270648030
 50
90.000000000
 11
59.942838040
 21
185.721153623
  0
TEXT
  8
1
 62
4
  6
CONTINUOUS
 72
5
 10
59.942838040
 20
187.401153623
 40
2.800000000
  1
49.5
 41
1.099999267
 50
90.000000000
 11
59.942838040
 21
196.641153623
  0
LINE
  8
1
 62
4
  6
CONTINUOUS
 10
146.262716328
 20
214.242753623
 11
60.147838040
 21
214.242753623
  0
POLYLINE
  8
1
 62
4
  6
CONTINUOUS
 66
1
  0
VERTEX
  8
1
 10
62.447838040
 20
212.242753623
  0
VERTEX
  8
1
 10
62.147838040
 20
214.242753623
  0
VERTEX
  8
1
 10
61.847838040
 20
212.242753623
  0
SEQEND
  8
1
  0
LINE
  8
1
 62
4
  6
CONTINUOUS
 10
62.147838040
 20
214.242753623
 11
62.147838040
 21
164.742753623
  0
POLYLINE
  8
1
 62
4
  6
CONTINUOUS
 66
1
  0
VERTEX
  8
1
 10
61.847838040
 20
166.742753623
  0
VERTEX
  8
1
 10
62.147838040
 20
164.742753623
  0
VERTEX
  8
1
 10
62.447838040
 20
166.742753623
  0
SEQEND
  8
1
  0
LINE
  8
1
 62
4
  6
CONTINUOUS
 10
146.262716328
 20
164.742753623
 11
60.147838040
 21
164.742753623
  0
ENDBLK
  8
0
  0
ENDSEC
  0
SECTION
  2
ENTITIES
  0
LINE
  8
1
 62
7
  6
CONTINUOUS
 10
144.891340655
 20
160.742753623
 11
144.891340655
 21
153.942753623
  0
LINE
  8
1
 62
1
  6
CONTINUOUS
 10
156.171340655
 20
162.574753623
 11
156.103502782
 21
164.742753623
  0
LINE
  8
1
 62
7
  6
CONTINUOUS
 10
144.891340655
 20
153.942753623
 11
158.747340655
 21
153.942753623
  0
LINE
  8
1
 62
7
  6
CONTINUOUS
 10
145.819340655
 20
151.442753623
 11
157.819340655
 21
151.442753623
  0
LINE
  8
1
 62
7
  6
CONTINUOUS
 10
144.891340655
 20
160.742753623
 11
158.747340655
 21
160.742753623
  0
DIMENSION
  8
1
 62
4
  6
CONTINUOUS
  2
*D6
 70
1
 10
70.147838040
 20
167.242753623
 11
70.147838040
 21
189.492753623
 14
120.669340655
 24
167.242753623
 13
120.669340655
 23
211.742753623
 50
90.000000000
  0
DIMENSION
  8
1
 62
4
  6
CONTINUOUS
  2
*D7
 70
1
 10
78.147838040
 20
183.592753623
 11
78.147838040
 21
189.492753623
 14
99.706683767
 24
183.592753623
 13
99.706683767
 23
195.392753623
 50
90.000000000
  0
LINE
  8
1
 62
7
  6
CONTINUOUS
 10
99.206683767
 20
194.758779027
 11
99.206683767
 21
184.226728219
  0
LINE
  8
1
 62
7
  6
CONTINUOUS
 10
103.297838040
 20
183.592753623
 11
103.297838040
 21
195.392753623
  0
LINE
  8
1
 62
7
  6
CONTINUOUS
 10
99.997838040
 20
183.592753623
 11
99.997838040
 21
195.392753623
  0
LINE
  8
1
 62
7
  6
CONTINUOUS
 10
102.997838040
 20
187.357337973
 11
103.147838040
 21
187.507337973
  0
LINE
  8
1
 62
7
  6
CONTINUOUS
 10
103.147838040
 20
191.478169274
 11
102.997838040
 21
191.628169274
  0
LINE
  8
1
 62
7
  6
CONTINUOUS
 10
100.297838040
 20
183.992753623
 11
100.297838040
 21
187.357337973
  0
LINE
  8
1
 62
7
  6
CONTINUOUS
 10
161.819340655
 20
214.242753623
 11
162.319340655
 21
213.742753623
  0
LINE
  8
1
 62
7
  6
CONTINUOUS
 10
161.819340655
 20
164.742753623
 11
162.319340655
 21
165.242753623
  0
LINE
  8
1
 62
7
  6
CONTINUOUS
 10
119.419340655
 20
168.492753623
 11
120.669340655
 21
167.242753623
  0
LINE
  8
1
 62
7
  6
CONTINUOUS
 10
144.819340655
 20
167.242753623
 11
146.262716328
 21
164.742753623
  0
LINE
  8
1
 62
7
  6
CONTINUOUS
 10
120.669340655
 20
167.242753623
 11
140.319340655
 21
167.242753623
  0
LINE
  8
1
 62
7
  6
CONTINUOUS
 10
119.419340655
 20
210.492753623
 11
120.669340655
 21
211.742753623
  0
LINE
  8
1
 62
7
  6
CONTINUOUS
 10
119.319340655
 20
206.742753623
 11
119.419340655
 21
206.742753623
  0
LINE
  8
1
 62
7
  6
CONTINUOUS
 10
146.262716328
 20
214.242753623
 11
161.819340655
 21
214.242753623
  0
LINE
  8
1
 62
7
  6
CONTINUOUS
 10
162.369340655
 20
211.492753623
 11
162.369340655
 21
167.492753623
  0
LINE
  8
1
 62
7
  6
CONTINUOUS
 10
102.997838040
 20
183.992753623
 11
102.997838040
 21
187.357337973
  0
LINE
  8
1
 62
7
  6
CONTINUOUS
 10
146.262716328
 20
164.742753623
 11
161.819340655
 21
164.742753623
  0
LINE
  8
1
 62
7
  6
CONTINUOUS
 10
162.769340655
 20
211.492753623
 11
162.369340655
 21
211.492753623
  0
LINE
  8
1
 62
7
  6
CONTINUOUS
 10
100.297838040
 20
191.628169274
 11
102.997838040
 21
191.628169274
  0
LINE
  8
1
 62
1
  6
CONTINUOUS
 10
147.467340655
 20
162.574753623
 11
147.535178528
 21
164.742753623
  0
LINE
  8
1
 62
7
  6
CONTINUOUS
 10
148.355340655
 20
160.742753623
 11
148.355340655
 21
153.942753623
  0
LINE
  8
1
 62
7
  6
CONTINUOUS
 10
144.819340655
 20
167.242753623
 11
144.819340655
 21
211.742753623
  0
LINE
  8
1
 62
7
  6
CONTINUOUS
 10
100.297838040
 20
187.357337973
 11
102.997838040
 21
187.357337973
  0
LINE
  8
1
 62
4
  6
CONTINUOUS
 10
100.147838040
 20
191.478169274
 11
103.147838040
 21
187.507337973
  0
LINE
  8
1
 62
7
  6
CONTINUOUS
 10
162.319340655
 20
213.742753623
 11
162.319340655
 21
165.242753623
  0
LINE
  8
1
 62
1
  6
CENTER
 10
151.819340655
 20
166.742753623
 11
151.819340655
 21
144.242753623
  0
LINE
  8
1
 62
7
  6
CONTINUOUS
 10
100.297838040
 20
191.628169274
 11
100.297838040
 21
194.992753623
  0
LINE
  8
1
 62
7
  6
CONTINUOUS
 10
162.369340655
 20
167.492753623
 11
162.769340655
 21
167.492753623
  0
LINE
  8
1
 62
7
  6
CONTINUOUS
 10
102.997838040
 20
191.628169274
 11
102.997838040
 21
194.992753623
  0
LINE
  8
1
 62
7
  6
CONTINUOUS
 10
106.847838040
 20
195.392753623
 11
106.847838040
 21
183.592753623
  0
LINE
  8
1
 62
7
  6
CONTINUOUS
 10
96.147838040
 20
186.070103892
 11
96.147838040
 21
192.915403354
  0
LINE
  8
1
 62
7
  6
CONTINUOUS
 10
99.706683767
 20
195.392753623
 11
99.706683767
 21
183.592753623
  0
LINE
  8
1
 62
7
  6
CONTINUOUS
 10
162.769340655
 20
167.492753623
 11
162.769340655
 21
211.492753623
  0
LINE
  8
1
 62
7
  6
CONTINUOUS
 10
144.819340655
 20
211.742753623
 11
146.262716328
 21
214.242753623
  0
LINE
  8
1
 62
7
  6
CONTINUOUS
 10
146.262716328
 20
164.742753623
 11
146.262716328
 21
214.242753623
  0
LINE
  8
1
 62
7
  6
CONTINUOUS
 10
144.319340655
 20
167.242753623
 11
144.319340655
 21
211.742753623
  0
LINE
  8
1
 62
7
  6
CONTINUOUS
 10
140.319340655
 20
167.242753623
 11
144.319340655
 21
167.242753623
  0
LINE
  8
1
 62
7
  6
CONTINUOUS
 10
144.319340655
 20
211.742753623
 11
140.319340655
 21
211.742753623
  0
LINE
  8
1
 62
7
  6
CONTINUOUS
 10
103.147838040
 20
183.742753623
 11
103.297838040
 21
183.592753623
  0
LINE
  8
1
 62
7
  6
CONTINUOUS
 10
155.283340655
 20
160.742753623
 11
155.283340655
 21
153.942753623
  0
LINE
  8
1
 62
7
  6
CONTINUOUS
 10
96.647838040
 20
193.281428758
 11
96.647838040
 21
185.704078489
  0
LINE
  8
1
 62
7
  6
CONTINUOUS
 10
103.147838040
 20
195.242753623
 11
103.147838040
 21
183.742753623
  0
LINE
  8
15
 62
7
  6
CONTINUOUS
 10
86.147838040
 20
191.292753623
 11
86.147838040
 21
187.692753623
  0
LINE
  8
1
 62
4
  6
CONTINUOUS
 10
103.147838040
 20
191.478169274
 11
100.147838040
 21
187.507337973
  0
LINE
  8
1
 62
7
  6
CONTINUOUS
 10
146.069340655
 20
146.242753623
 11
157.569340655
 21
146.242753623
  0
LINE
  8
15
 62
7
  6
CONTINUOUS
 10
86.347838040
 20
191.492753623
 11
96.147838040
 21
191.492753623
  0
LINE
  8
15
 62
7
  6
CONTINUOUS
 10
96.147838040
 20
187.492753623
 11
86.347838040
 21
187.492753623
  0
LINE
  8
1
 62
7
  6
CONTINUOUS
 10
100.147838040
 20
187.507337973
 11
100.297838040
 21
187.357337973
  0
LINE
  8
1
 62
7
  6
CONTINUOUS
 10
99.997838040
 20
195.392753623
 11
99.706683767
 21
195.392753623
  0
LINE
  8
1
 62
7
  6
CONTINUOUS
 10
119.319340655
 20
206.742753623
 11
119.319340655
 21
172.242753623
  0
ARC
  8
1
 62
7
  6
CONTINUOUS
 10
99.706683767
 20
194.392753623
 40
1.000000000
 50
90.000000000
 51
120.000000000
  0
LINE
  8
1
 62
7
  6
CONTINUOUS
 10
185.520269495
 20
174.589043097
 11
184.619174243
 21
174.589043097
  0
ARC
  8
15
 62
7
  6
CONTINUOUS
 10
86.347838040
 20
187.692753623
 40
0.200000000
 50
180.000000000
 51
270.000000000
  0
LINE
  8
1
 62
7
  6
CONTINUOUS
 10
185.520269495
 20
204.396464150
 11
185.520269495
 21
174.589043097
  0
LINE
  8
1
 62
7
  6
CONTINUOUS
 10
186.319340655
 20
174.389043097
 11
185.623797113
 21
174.575413427
  0
LINE
  8
1
 62
7
  6
CONTINUOUS
 10
203.559374644
 20
175.252859537
 11
186.319340655
 21
174.389043097
  0
LINE
  8
1
 62
7
  6
CONTINUOUS
 10
186.319340655
 20
204.596464150
 11
203.511464439
 21
203.735048263
  0
LINE
  8
1
 62
7
  6
CONTINUOUS
 10
103.147838040
 20
195.242753623
 11
103.297838040
 21
195.392753623
  0
LINE
  8
1
 62
7
  6
CONTINUOUS
 10
119.319340655
 20
172.242753623
 11
119.419340655
 21
172.242753623
  0
LINE
  8
1
 62
7
  6
CONTINUOUS
 10
140.319340655
 20
167.242753623
 11
140.319340655
 21
211.742753623
  0
LINE
  8
1
 62
7
  6
CONTINUOUS
 10
140.319340655
 20
211.742753623
 11
120.669340655
 21
211.742753623
  0
LINE
  8
1
 62
7
  6
CONTINUOUS
 10
119.419340655
 20
210.492753623
 11
119.419340655
 21
168.492753623
  0
LINE
  8
1
 62
7
  6
CONTINUOUS
 10
144.369340655
 20
211.492753623
 11
144.369340655
 21
167.492753623
  0
LINE
  8
1
 62
7
  6
CONTINUOUS
 10
144.369340655
 20
167.492753623
 11
144.769340655
 21
167.492753623
  0
LINE
  8
1
 62
7
  6
CONTINUOUS
 10
144.769340655
 20
167.492753623
 11
144.769340655
 21
211.492753623
  0
LINE
  8
1
 62
7
  6
CONTINUOUS
 10
144.769340655
 20
211.492753623
 11
144.369340655
 21
211.492753623
  0
LINE
  8
1
 62
7
  6
CONTINUOUS
 10
204.319340655
 20
202.933650038
 11
204.319340655
 21
176.051857209
  0
LINE
  8
1
 62
1
  6
CENTER
 10
207.319340655
 20
189.492753623
 11
83.147838040
 21
189.492753623
  0
ARC
  8
15
 62
7
  6
CONTINUOUS
 10
86.347838040
 20
191.292753623
 40
0.200000000
 50
90.000000000
 51
180.000000000
  0
LINE
  8
1
 62
7
  6
CONTINUOUS
 10
106.847838040
 20
183.592753623
 11
103.297838040
 21
183.592753623
  0
LINE
  8
1
 62
7
  6
CONTINUOUS
 10
100.147838040
 20
183.992753623
 11
103.147838040
 21
183.992753623
  0
LINE
  8
1
 62
7
  6
CONTINUOUS
 10
96.647838040
 20
193.781428758
 11
99.206683767
 21
195.258779027
  0
LINE
  8
1
 62
7
  6
CONTINUOUS
 10
100.297838040
 20
191.628169274
 11
100.147838040
 21
191.478169274
  0
LINE
  8
1
 62
7
  6
CONTINUOUS
 10
99.997838040
 20
183.592753623
 11
100.147838040
 21
183.742753623
  0
ARC
  8
1
 62
7
  6
CONTINUOUS
 10
106.847838040
 20
194.592753623
 40
0.800000000
 50
0.000000000
 51
90.000000000
  0
ARC
  8
1
 62
7
  6
CONTINUOUS
 10
97.147838040
 20
192.915403354
 40
1.000000000
 50
120.000000000
 51
180.000000000
  0
ARC
  8
1
 62
7
  6
CONTINUOUS
 10
97.147838040
 20
186.070103892
 40
1.000000000
 50
180.000000000
 51
240.000000000
  0
ARC
  8
1
 62
7
  6
CONTINUOUS
 10
106.847838040
 20
184.392753623
 40
0.800000000
 50
270.000000000
 51
0.000000000
  0
LINE
  8
1
 62
7
  6
CONTINUOUS
 10
100.147838040
 20
183.742753623
 11
100.147838040
 21
195.242753623
  0
LINE
  8
1
 62
7
  6
CONTINUOUS
 10
96.647838040
 20
185.204078489
 11
99.206683767
 21
183.726728219
  0
LINE
  8
1
 62
7
  6
CONTINUOUS
 10
108.319340655
 20
187.431200810
 11
110.819340655
 21
187.431200810
  0
LINE
  8
1
 62
7
  6
CONTINUOUS
 10
106.847838040
 20
195.392753623
 11
103.297838040
 21
195.392753623
  0
LINE
  8
1
 62
7
  6
CONTINUOUS
 10
107.647838040
 20
194.192753623
 11
108.119340655
 21
194.192753623
  0
LINE
  8
1
 62
7
  6
CONTINUOUS
 10
108.319340655
 20
184.992753623
 11
108.119340655
 21
184.792753623
  0
LINE
  8
1
 62
7
  6
CONTINUOUS
 10
110.819340655
 20
193.992753623
 11
108.319340655
 21
193.992753623
  0
LINE
  8
1
 62
7
  6
CONTINUOUS
 10
108.319340655
 20
193.992753623
 11
108.119340655
 21
194.192753623
  0
LINE
  8
1
 62
7
  6
CONTINUOUS
 10
107.647838040
 20
194.592753623
 11
107.647838040
 21
184.392753623
  0
LINE
  8
1
 62
7
  6
CONTINUOUS
 10
184.319340655
 20
169.992753623
 11
183.819340655
 21
169.492753623
  0
LINE
  8
1
 62
7
  6
CONTINUOUS
 10
108.119340655
 20
184.792753623
 11
108.119340655
 21
194.192753623
  0
LINE
  8
1
 62
7
  6
CONTINUOUS
 10
100.147838040
 20
194.992753623
 11
103.147838040
 21
194.992753623
  0
LINE
  8
1
 62
7
  6
CONTINUOUS
 10
99.997838040
 20
195.392753623
 11
100.147838040
 21
195.242753623
  0
LINE
  8
1
 62
7
  6
CONTINUOUS
 10
110.819340655
 20
184.992753623
 11
108.319340655
 21
184.992753623
  0
LINE
  8
1
 62
7
  6
CONTINUOUS
 10
119.119340655
 20
210.292753623
 11
119.319340655
 21
210.292753623
  0
LINE
  8
1
 62
7
  6
CONTINUOUS
 10
119.119340655
 20
210.292753623
 11
119.119340655
 21
168.692753623
  0
LINE
  8
1
 62
7
  6
CONTINUOUS
 10
110.819340655
 20
201.992753623
 11
119.119340655
 21
210.292753623
  0
LINE
  8
1
 62
7
  6
CONTINUOUS
 10
110.819340655
 20
176.992753623
 11
110.819340655
 21
201.992753623
  0
LINE
  8
1
 62
7
  6
CONTINUOUS
 10
99.997838040
 20
183.592753623
 11
99.706683767
 21
183.592753623
  0
LINE
  8
1
 62
7
  6
CONTINUOUS
 10
119.319340655
 20
210.292753623
 11
119.319340655
 21
168.692753623
  0
LINE
  8
1
 62
7
  6
CONTINUOUS
 10
107.647838040
 20
184.792753623
 11
108.119340655
 21
184.792753623
  0
LINE
  8
1
 62
7
  6
CONTINUOUS
 10
108.319340655
 20
191.554306436
 11
110.819340655
 21
191.554306436
  0
LINE
  8
1
 62
7
  6
CONTINUOUS
 10
108.319340655
 20
184.992753623
 11
108.319340655
 21
193.992753623
  0
LINE
  8
1
 62
4
  6
CONTINUOUS
 10
110.819340655
 20
191.554306436
 11
108.319340655
 21
187.431200810
  0
LINE
  8
1
 62
7
  6
CONTINUOUS
 10
110.819340655
 20
176.992753623
 11
119.119340655
 21
168.692753623
  0
LINE
  8
1
 62
4
  6
CONTINUOUS
 10
108.319340655
 20
191.554306436
 11
110.819340655
 21
187.431200810
  0
ARC
  8
1
 62
7
  6
CONTINUOUS
 10
99.706683767
 20
184.592753623
 40
1.000000000
 50
240.000000000
 51
270.000000000
  0
LINE
  8
1
 62
7
  6
CONTINUOUS
 10
119.119340655
 20
168.692753623
 11
119.319340655
 21
168.692753623
  0
LINE
  8
1
 62
7
  6
CONTINUOUS
 10
120.669340655
 20
167.242753623
 11
120.669340655
 21
211.742753623
  0
LINE
  8
1
 62
7
  6
CONTINUOUS
 10
158.747340655
 20
160.742753623
 11
158.747340655
 21
153.942753623
  0
LINE
  8
1
 62
7
  6
CONTINUOUS
 10
157.719340655
 20
153.942753623
 11
157.719340655
 21
151.442753623
  0
LINE
  8
1
 62
7
  6
CONTINUOUS
 10
145.919340655
 20
153.942753623
 11
145.919340655
 21
151.442753623
  0
LINE
  8
1
 62
7
  6
CONTINUOUS
 10
157.569340655
 20
146.242753623
 11
157.569340655
 21
147.742753623
  0
LINE
  8
1
 62
7
  6
CONTINUOUS
 10
146.069340655
 20
146.242753623
 11
146.069340655
 21
147.742753623
  0
LINE
  8
1
 62
7
  6
CONTINUOUS
 10
146.069340655
 20
147.742753623
 11
157.569340655
 21
147.742753623
  0
LINE
  8
1
 62
7
  6
CONTINUOUS
 10
155.319340655
 20
147.742753623
 11
155.319340655
 21
149.542753623
  0
LINE
  8
1
 62
7
  6
CONTINUOUS
 10
148.319340655
 20
147.742753623
 11
148.319340655
 21
149.542753623
  0
LINE
  8
1
 62
7
  6
CONTINUOUS
 10
157.819340655
 20
149.542753623
 11
157.819340655
 21
151.442753623
  0
LINE
  8
1
 62
7
  6
CONTINUOUS
 10
145.819340655
 20
149.542753623
 11
145.819340655
 21
151.442753623
  0
LINE
  8
1
 62
7
  6
CONTINUOUS
 10
145.819340655
 20
149.542753623
 11
157.819340655
 21
149.542753623
  0
LINE
  8
1
 62
7
  6
CONTINUOUS
 10
146.829340655
 20
160.742753623
 11
146.954340655
 21
164.742753623
  0
LINE
  8
1
 62
7
  6
CONTINUOUS
 10
156.752340655
 20
162.574753623
 11
146.886340655
 21
162.574753623
  0
LINE
  8
1
 62
7
  6
CONTINUOUS
 10
156.809340655
 20
160.742753623
 11
156.684340655
 21
164.742753623
  0
LINE
  8
1
 62
7
  6
CONTINUOUS
 10
184.319340655
 20
208.992753623
 11
183.819340655
 21
209.492753623
  0
LINE
  8
1
 62
7
  6
CONTINUOUS
 10
162.819340655
 20
163.492753623
 11
168.319340655
 21
157.992753623
  0
ARC
  8
1
 62
7
  6
CONTINUOUS
 10
203.519340655
 20
176.051857209
 40
0.800000000
 50
272.868421289
 51
0.000000000
  0
ARC
  8
1
 62
7
  6
CONTINUOUS
 10
203.519340655
 20
202.933650038
 40
0.800000000
 50
0.000000000
 51
87.131578711
  0
LINE
  8
1
 62
7
  6
CONTINUOUS
 10
168.319340655
 20
157.992753623
 11
171.019340655
 21
157.992753623
  0
LINE
  8
1
 62
7
  6
CONTINUOUS
 10
171.319340655
 20
220.692753623
 11
171.319340655
 21
158.292753623
  0
ARC
  8
1
 62
7
  6
CONTINUOUS
 10
180.319340655
 20
209.992753623
 40
0.500000000
 50
180.000000000
 51
270.000000000
  0
LINE
  8
1
 62
7
  6
CONTINUOUS
 10
180.319340655
 20
169.492753623
 11
183.819340655
 21
169.492753623
  0
LINE
  8
1
 62
7
  6
CONTINUOUS
 10
183.819340655
 20
209.492753623
 11
180.319340655
 21
209.492753623
  0
LINE
  8
1
 62
7
  6
CONTINUOUS
 10
184.319340655
 20
208.992753623
 11
184.319340655
 21
169.992753623
  0
ARC
  8
1
 62
7
  6
CONTINUOUS
 10
180.319340655
 20
168.992753623
 40
0.500000000
 50
90.000000000
 51
180.000000000
  0
LINE
  8
1
 62
7
  6
CONTINUOUS
 10
186.319340655
 20
204.596464150
 11
186.319340655
 21
174.389043097
  0
ARC
  8
1
 62
7
  6
CONTINUOUS
 10
184.619174243
 20
204.796464150
 40
0.400000000
 50
221.445647020
 51
270.000000000
  0
LINE
  8
1
 62
7
  6
CONTINUOUS
 10
185.520269495
 20
204.396464150
 11
184.619174243
 21
204.396464150
  0
LINE
  8
1
 62
7
  6
CONTINUOUS
 10
186.319340655
 20
204.596464150
 11
185.623797113
 21
204.410093819
  0
LINE
  8
1
 62
7
  6
CONTINUOUS
 10
168.319340655
 20
220.992753623
 11
168.319340655
 21
157.992753623
  0
LINE
  8
1
 62
7
  6
CONTINUOUS
 10
162.819340655
 20
215.492753623
 11
162.819340655
 21
163.492753623
  0
ARC
  8
1
 62
7
  6
CONTINUOUS
 10
185.520269495
 20
204.796464150
 40
0.400000000
 50
270.000000000
 51
285.000000000
  0
ARC
  8
1
 62
7
  6
CONTINUOUS
 10
185.520269495
 20
174.189043097
 40
0.400000000
 50
75.000000000
 51
90.000000000
  0
TEXT
  8
1
 62
4
  6
CONTINUOUS
 72
5
 10
215.963698168
 20
237.012753623
 40
3.200000000
  1
ＨＳＫ Ｅ４０
 41
0.859498393
 11
236.163698168
 21
237.012753623
  0
POLYLINE
  8
1
 62
4
  6
CONTINUOUS
 66
1
  0
VERTEX
  8
1
 10
197.513229370
 20
204.035598755
  0
VERTEX
  8
1
 10
198.089797974
 20
205.034255981
  0
VERTEX
  8
1
 10
198.666381836
 20
206.032913208
  0
VERTEX
  8
1
 10
199.242950439
 20
207.031570435
  0
VERTEX
  8
1
 10
199.819534302
 20
208.030242920
  0
VERTEX
  8
1
 10
200.396102905
 20
209.028900146
  0
VERTEX
  8
1
 10
200.972686768
 20
210.027557373
  0
VERTEX
  8
1
 10
201.549270630
 20
211.026214600
  0
VERTEX
  8
1
 10
202.125839233
 20
212.024887085
  0
VERTEX
  8
1
 10
202.702423096
 20
213.023544312
  0
VERTEX
  8
1
 10
203.278991699
 20
214.022201538
  0
VERTEX
  8
1
 10
203.855575562
 20
215.020858765
  0
VERTEX
  8
1
 10
204.432144165
 20
216.019531250
  0
VERTEX
  8
1
 10
205.008728027
 20
217.018188477
  0
VERTEX
  8
1
 10
205.585311890
 20
218.016845703
  0
VERTEX
  8
1
 10
206.161880493
 20
219.015518188
  0
VERTEX
  8
1
 10
206.738464355
 20
220.014175415
  0
VERTEX
  8
1
 10
207.315032959
 20
221.012832642
  0
VERTEX
  8
1
 10
207.891616821
 20
222.011489868
  0
VERTEX
  8
1
 10
208.468185425
 20
223.010162354
  0
VERTEX
  8
1
 10
209.044769287
 20
224.008819580
  0
VERTEX
  8
1
 10
209.621353149
 20
225.007476807
  0
VERTEX
  8
1
 10
210.197921753
 20
226.006134033
  0
VERTEX
  8
1
 10
210.774505615
 20
227.004806519
  0
VERTEX
  8
1
 10
211.351074219
 20
228.003463745
  0
VERTEX
  8
1
 10
211.927658081
 20
229.002120972
  0
VERTEX
  8
1
 10
212.504226685
 20
230.000778198
  0
VERTEX
  8
1
 10
213.080810547
 20
230.999450684
  0
VERTEX
  8
1
 10
213.657394409
 20
231.998107910
  0
VERTEX
  8
1
 10
214.233963013
 20
232.996765137
  0
VERTEX
  8
1
 10
214.810546875
 20
233.995437622
  0
VERTEX
  8
1
 10
215.387115479
 20
234.994094849
  0
VERTEX
  8
1
 10
215.963699341
 20
235.992752075
  0
VERTEX
  8
1
 10
216.604202271
 20
235.992752075
  0
VERTEX
  8
1
 10
217.244705200
 20
235.992752075
  0
VERTEX
  8
1
 10
217.885192871
 20
235.992752075
  0
VERTEX
  8
1
 10
218.525695801
 20
235.992752075
  0
VERTEX
  8
1
 10
219.166198730
 20
235.992752075
  0
VERTEX
  8
1
 10
219.806701660
 20
235.992752075
  0
VERTEX
  8
1
 10
220.447204590
 20
235.992752075
  0
VERTEX
  8
1
 10
221.087692261
 20
235.992752075
  0
VERTEX
  8
1
 10
221.728195190
 20
235.992752075
  0
VERTEX
  8
1
 10
222.368698120
 20
235.992752075
  0
VERTEX
  8
1
 10
223.009201050
 20
235.992752075
  0
VERTEX
  8
1
 10
223.649703979
 20
235.992752075
  0
VERTEX
  8
1
 10
224.290191650
 20
235.992752075
  0
VERTEX
  8
1
 10
224.930694580
 20
235.992752075
  0
VERTEX
  8
1
 10
225.571197510
 20
235.992752075
  0
VERTEX
  8
1
 10
226.211700439
 20
235.992752075
  0
VERTEX
  8
1
 10
226.852203369
 20
235.992752075
  0
VERTEX
  8
1
 10
227.492691040
 20
235.992752075
  0
VERTEX
  8
1
 10
228.133193970
 20
235.992752075
  0
VERTEX
  8
1
 10
228.773696899
 20
235.992752075
  0
VERTEX
  8
1
 10
229.414199829
 20
235.992752075
  0
VERTEX
  8
1
 10
230.054702759
 20
235.992752075
  0
VERTEX
  8
1
 10
230.695205688
 20
235.992752075
  0
VERTEX
  8
1
 10
231.335693359
 20
235.992752075
  0
VERTEX
  8
1
 10
231.976196289
 20
235.992752075
  0
VERTEX
  8
1
 10
232.616699219
 20
235.992752075
  0
VERTEX
  8
1
 10
233.257202148
 20
235.992752075
  0
VERTEX
  8
1
 10
233.897705078
 20
235.992752075
  0
VERTEX
  8
1
 10
234.538192749
 20
235.992752075
  0
VERTEX
  8
1
 10
235.178695679
 20
235.992752075
  0
VERTEX
  8
1
 10
235.819198608
 20
235.992752075
  0
VERTEX
  8
1
 10
236.459701538
 20
235.992752075
  0
SEQEND
  8
1
  0
POLYLINE
  8
1
 62
4
  6
CONTINUOUS
 66
1
  0
VERTEX
  8
1
 10
198.253421700
 20
205.917649582
  0
VERTEX
  8
1
 10
197.513229370
 20
204.035598755
  0
VERTEX
  8
1
 10
198.773036950
 20
205.617649595
  0
SEQEND
  8
1
  0
ARC
  8
1
 62
7
  6
CONTINUOUS
 10
184.619174243
 20
174.189043097
 40
0.400000000
 50
90.000000000
 51
138.554352980
  0
TEXT
  8
1
 62
3
  6
CONTINUOUS
 72
5
 10
121.019340655
 20
129.258753623
 40
4.000000000
  1
ＨＴＳ１５０１Ｓ－ＨＳＫ Ｅ４０
 41
0.843235378
 11
182.219340655
 21
129.258753623
  0
LINE
  8
1
 62
7
  6
CONTINUOUS
 10
168.319340655
 20
220.992753623
 11
171.019340655
 21
220.992753623
  0
LINE
  8
1
 62
7
  6
CONTINUOUS
 10
162.819340655
 20
215.492753623
 11
168.319340655
 21
220.992753623
  0
LINE
  8
1
 62
7
  6
CONTINUOUS
 10
179.819340655
 20
220.492753623
 11
179.819340655
 21
158.492753623
  0
LINE
  8
1
 62
7
  6
CONTINUOUS
 10
171.519340655
 20
220.992753623
 11
171.319340655
 21
220.792753623
  0
LINE
  8
1
 62
7
  6
CONTINUOUS
 10
171.519340655
 20
157.992753623
 11
171.319340655
 21
158.192753623
  0
LINE
  8
1
 62
7
  6
CONTINUOUS
 10
185.623797113
 20
204.410093819
 11
185.623797113
 21
174.575413427
  0
LINE
  8
1
 62
7
  6
CONTINUOUS
 10
179.819340655
 20
158.492753623
 11
179.319340655
 21
157.992753623
  0
LINE
  8
1
 62
7
  6
CONTINUOUS
 10
179.819340655
 20
220.492753623
 11
179.319340655
 21
220.992753623
  0
LINE
  8
1
 62
7
  6
CONTINUOUS
 10
171.319340655
 20
220.792753623
 11
171.319340655
 21
158.192753623
  0
LINE
  8
1
 62
7
  6
CONTINUOUS
 10
179.319340655
 20
157.992753623
 11
171.519340655
 21
157.992753623
  0
LINE
  8
1
 62
7
  6
CONTINUOUS
 10
179.319340655
 20
220.992753623
 11
171.519340655
 21
220.992753623
  0
DIMENSION
  8
1
 62
4
  6
CONTINUOUS
  2
*D163
 70
1
 10
222.319340655
 20
157.992753623
 11
222.319340655
 21
189.492753623
 14
179.319340655
 24
157.992753623
 13
179.319340655
 23
220.992753623
 50
90.000000000
  0
DIMENSION
  8
1
 62
4
  6
CONTINUOUS
  2
*D164
 70
0
 10
162.319340655
 20
235.992753623
 11
153.569340655
 21
235.992753623
 14
162.319340655
 24
213.742753623
 13
144.819340655
 23
211.742753623
 50
0.000000000
  0
DIMENSION
  8
1
 62
4
  6
CONTINUOUS
  2
*D165
 70
0
 10
144.819340655
 20
235.992753623
 11
127.819340655
 21
235.992753623
 14
144.819340655
 24
211.742753623
 13
110.819340655
 23
201.992753623
 50
0.000000000
  0
DIMENSION
  8
1
 62
4
  6
CONTINUOUS
  2
*D166
 70
0
 10
120.669340655
 20
227.992753623
 11
116.632427485
 21
227.992753623
 14
120.669340655
 24
211.742753623
 13
110.819340655
 23
201.992753623
 50
0.000000000
  0
DIMENSION
  8
1
 62
4
  6
CONTINUOUS
  2
*D167
 70
0
 10
204.319340655
 20
243.992753623
 11
194.319340655
 21
243.992753623
 14
204.319340655
 24
202.933650038
 13
184.319340655
 23
208.992753623
 50
0.000000000
  0
DIMENSION
  8
1
 62
4
  6
CONTINUOUS
  2
*D168
 70
0
 10
184.319340655
 20
243.992753623
 11
147.569340655
 21
243.992753623
 14
184.319340655
 24
208.992753623
 13
110.819340655
 23
201.992753623
 50
0.000000000
  0
DIMENSION
  8
1
 62
4
  6
CONTINUOUS
  2
*D169
 70
0
 10
110.819340655
 20
251.992753623
 11
103.483589348
 21
251.992753623
 14
110.819340655
 24
201.992753623
 13
96.147838040
 23
192.915403354
 50
0.000000000
  0
DIMENSION
  8
1
 62
4
  6
CONTINUOUS
  2
*D170
 70
0
 10
204.319340655
 20
251.992753623
 11
157.569340655
 21
251.992753623
 14
204.319340655
 24
202.933650038
 13
110.819340655
 23
201.992753623
 50
0.000000000
  0
DIMENSION
  8
1
 62
4
  6
CONTINUOUS
  2
*D171
 70
1
 10
62.147838040
 20
164.742753623
 11
62.147838040
 21
189.492753623
 14
146.262716328
 24
164.742753623
 13
146.262716328
 23
214.242753623
 50
90.000000000
  0
LINE
  8
1
 62
7
  6
CONTINUOUS
 10
171.019340655
 20
220.992753623
 11
171.319340655
 21
220.692753623
  0
LINE
  8
1
 62
7
  6
CONTINUOUS
 10
184.619174243
 20
204.396464150
 11
184.619174243
 21
174.589043097
  0
LINE
  8
1
 62
7
  6
CONTINUOUS
 10
171.319340655
 20
158.292753623
 11
171.019340655
 21
157.992753623
  0
ENDSEC
  0
EOF
