  0
SECTION
  2
HEADER
  9
$ACADVER
  1
AC1009
  9
$INSBASE
 10
0.000000000
 20
0.000000000
  9
$EXTMIN
 10
-26.090771211
 20
-26.177536232
  9
$EXTMAX
 10
286.998483325
 20
287.952898551
  9
$LIMMIN
 10
-26.090771211
 20
-26.177536232
  9
$LIMMAX
 10
286.998483325
 20
287.952898551
  9
$SNAPBASE
 10
0.000000000
 20
0.000000000
  9
$SNAPANG
 50
0.000000000
  9
$SNAPSTYLE
 70
0
  9
$GRIDMODE
 70
0
  9
$GRIDUNIT
 10
0.000000000
 20
0.000000000
  9
$DIMEXO
 40
0.000000000
  9
$DIMDLI
 40
8.000000000
  9
$DIMDLE
 40
0.000000000
  9
$DIMEXE
 40
1.000000000
  9
$DIMTIH
 70
1
  9
$DIMTOH
 70
1
  9
$DIMTAD
 70
2
  9
$DIMZIN
 70
0
  9
$FILLETRAD
 40
1.000000000
  9
$CHAMFERA
 40
1.000000000
  9
$CHAMFERB
 40
1.000000000
  9
$TDCREATE
 40
2454182.600150463
  9
$TDUPDATE
 40
2454182.600150463
  9
$ANGBASE
 50
0.000000000
  9
$ANGDIR
 70
0
  0
ENDSEC
  0
SECTION
  2
TABLES
  0
TABLE
  2
LTYPE
 70
4
  0
LTYPE
  2
CENTER
 70
64
  3
___ _ ___ _ __
 72
65
 73
4
 40
13.000000000
 49
8.500000000
 49
-1.500000000
 49
1.500000000
 49
-1.500000000
  0
LTYPE
  2
CONTINUOUS
 70
64
  3
______________
 72
65
 73
0
 40
0.000000000
  0
LTYPE
  2
DASHED
 70
64
  3
___ ___ ___ __
 72
65
 73
2
 40
5.000000119
 49
3.400000095
 49
-1.600000024
  0
LTYPE
  2
DIVIDE
 70
64
  3
___ . . ___ . 
 72
65
 73
6
 40
12.999999523
 49
5.199999809
 49
-2.599999905
 49
0.000000000
 49
-2.599999905
 49
0.000000000
 49
-2.599999905
  0
ENDTAB
  0
TABLE
  2
LAYER
 70
3
  0
LAYER
  2
1
 70
0
 62
7
  6
CONTINUOUS
  0
LAYER
  2
6
 70
0
 62
7
  6
CONTINUOUS
999
LAYER0016
  0
LAYER
  2
15
 70
0
 62
5
  6
CONTINUOUS
999
ﾁｬｯｸ
  0
LAYER
  2
_CONSTR
 70
0
 62
5
  6
CONTINUOUS
  0
ENDTAB
  0
TABLE
  2
STYLE
 70
1
  0
STYLE
  2
STANDARD
 70
64
 40
0.000000000
 41
1.000000000
 50
0.000000000
 71
0
 42
3.200000000
  3
TXT
  4
EXTFONT
  0
ENDTAB
  0
TABLE
  2
VIEW
 70
0
  0
ENDTAB
  0
ENDSEC
  0
SECTION
  2
BLOCKS
  0
BLOCK
  8
0
  2
*D110
 70
65
 10
0.000000000
 20
0.000000000
  3
*D
  0
TEXT
  8
1
 62
4
  6
CONTINUOUS
 72
5
 10
74.688714776
 20
192.143762319
 40
2.800000000
  1
φ
 41
1.270648030
 50
90.000000000
 11
74.688714776
 21
195.503762319
  0
TEXT
  8
1
 62
4
  6
CONTINUOUS
 72
5
 10
74.688714776
 20
197.183762319
 40
2.800000000
  1
44.5
 41
1.099999267
 50
90.000000000
 11
74.688714776
 21
206.423762319
  0
LINE
  8
1
 62
4
  6
CONTINUOUS
 10
127.415217391
 20
221.525362308
 11
74.893714776
 21
221.525362308
  0
POLYLINE
  8
1
 62
4
  6
CONTINUOUS
 66
1
  0
VERTEX
  8
1
 10
77.193714776
 20
219.525362308
  0
VERTEX
  8
1
 10
76.893714776
 20
221.525362308
  0
VERTEX
  8
1
 10
76.593714776
 20
219.525362308
  0
SEQEND
  8
1
  0
LINE
  8
1
 62
4
  6
CONTINUOUS
 10
76.893714776
 20
221.525362308
 11
76.893714776
 21
177.025362329
  0
POLYLINE
  8
1
 62
4
  6
CONTINUOUS
 66
1
  0
VERTEX
  8
1
 10
76.593714776
 20
179.025362329
  0
VERTEX
  8
1
 10
76.893714776
 20
177.025362329
  0
VERTEX
  8
1
 10
77.193714776
 20
179.025362329
  0
SEQEND
  8
1
  0
LINE
  8
1
 62
4
  6
CONTINUOUS
 10
127.415217391
 20
177.025362329
 11
74.893714776
 21
177.025362329
  0
ENDBLK
  8
0
  0
BLOCK
  8
0
  2
*D111
 70
65
 10
0.000000000
 20
0.000000000
  3
*D
  0
TEXT
  8
1
 62
4
  6
CONTINUOUS
 72
5
 10
82.688714776
 20
192.143762319
 40
2.800000000
  1
φ
 41
1.270648030
 50
90.000000000
 11
82.688714776
 21
195.503762319
  0
TEXT
  8
1
 62
4
  6
CONTINUOUS
 72
5
 10
82.688714776
 20
197.183762319
 40
2.800000000
  1
11.8
 41
1.414284098
 50
90.000000000
 11
82.688714776
 21
206.423762319
  0
LINE
  8
1
 62
4
  6
CONTINUOUS
 10
106.452560503
 20
205.175362319
 11
82.893714776
 21
205.175362319
  0
POLYLINE
  8
1
 62
4
  6
CONTINUOUS
 66
1
  0
VERTEX
  8
1
 10
85.193714776
 20
203.175362319
  0
VERTEX
  8
1
 10
84.893714776
 20
205.175362319
  0
VERTEX
  8
1
 10
84.593714776
 20
203.175362319
  0
SEQEND
  8
1
  0
LINE
  8
1
 62
4
  6
CONTINUOUS
 10
84.893714776
 20
205.175362319
 11
84.893714776
 21
193.375362319
  0
POLYLINE
  8
1
 62
4
  6
CONTINUOUS
 66
1
  0
VERTEX
  8
1
 10
84.593714776
 20
195.375362319
  0
VERTEX
  8
1
 10
84.893714776
 20
193.375362319
  0
VERTEX
  8
1
 10
85.193714776
 20
195.375362319
  0
SEQEND
  8
1
  0
LINE
  8
1
 62
4
  6
CONTINUOUS
 10
106.452560503
 20
193.375362319
 11
82.893714776
 21
193.375362319
  0
ENDBLK
  8
0
  0
BLOCK
  8
0
  2
*D180
 70
65
 10
0.000000000
 20
0.000000000
  3
*D
  0
TEXT
  8
1
 62
4
  6
CONTINUOUS
 72
5
 10
66.688714776
 20
192.143762319
 40
2.800000000
  1
φ
 41
1.270648030
 50
90.000000000
 11
66.688714776
 21
195.503762319
  0
TEXT
  8
1
 62
4
  6
CONTINUOUS
 72
5
 10
66.688714776
 20
197.183762319
 40
2.800000000
  1
49.5
 41
1.099999267
 50
90.000000000
 11
66.688714776
 21
206.423762319
  0
LINE
  8
1
 62
4
  6
CONTINUOUS
 10
153.008593064
 20
224.025362319
 11
66.893714776
 21
224.025362319
  0
POLYLINE
  8
1
 62
4
  6
CONTINUOUS
 66
1
  0
VERTEX
  8
1
 10
69.193714776
 20
222.025362319
  0
VERTEX
  8
1
 10
68.893714776
 20
224.025362319
  0
VERTEX
  8
1
 10
68.593714776
 20
222.025362319
  0
SEQEND
  8
1
  0
LINE
  8
1
 62
4
  6
CONTINUOUS
 10
68.893714776
 20
224.025362319
 11
68.893714776
 21
174.525362319
  0
POLYLINE
  8
1
 62
4
  6
CONTINUOUS
 66
1
  0
VERTEX
  8
1
 10
68.593714776
 20
176.525362319
  0
VERTEX
  8
1
 10
68.893714776
 20
174.525362319
  0
VERTEX
  8
1
 10
69.193714776
 20
176.525362319
  0
SEQEND
  8
1
  0
LINE
  8
1
 62
4
  6
CONTINUOUS
 10
153.008593064
 20
174.525362319
 11
66.893714776
 21
174.525362319
  0
ENDBLK
  8
0
  0
BLOCK
  8
0
  2
*D181
 70
65
 10
0.000000000
 20
0.000000000
  3
*D
  0
TEXT
  8
1
 62
4
  6
CONTINUOUS
 72
5
 10
201.970913661
 20
247.980362319
 40
2.800000000
  1
7.5
 41
1.199998800
 11
208.690913661
 21
247.980362319
  0
LINE
  8
1
 62
4
  6
CONTINUOUS
 10
209.565217391
 20
230.275362319
 11
209.565217391
 21
247.775362319
  0
POLYLINE
  8
1
 62
4
  6
CONTINUOUS
 66
1
  0
VERTEX
  8
1
 10
211.565217391
 20
245.475362319
  0
VERTEX
  8
1
 10
209.565217391
 20
245.775362319
  0
SEQEND
  8
1
  0
POLYLINE
  8
1
 62
4
  6
CONTINUOUS
 66
1
  0
VERTEX
  8
1
 10
212.565217391
 20
245.775362319
  0
VERTEX
  8
1
 10
209.565217391
 20
245.775362319
  0
VERTEX
  8
1
 10
211.565217391
 20
246.075362319
  0
SEQEND
  8
1
  0
LINE
  8
1
 62
4
  6
CONTINUOUS
 10
209.565217391
 20
245.775362319
 11
202.065217391
 21
245.775362319
  0
POLYLINE
  8
1
 62
4
  6
CONTINUOUS
 66
1
  0
VERTEX
  8
1
 10
200.065217391
 20
246.075362319
  0
VERTEX
  8
1
 10
202.065217391
 20
245.775362319
  0
SEQEND
  8
1
  0
POLYLINE
  8
1
 62
4
  6
CONTINUOUS
 66
1
  0
VERTEX
  8
1
 10
199.065217391
 20
245.775362319
  0
VERTEX
  8
1
 10
202.065217391
 20
245.775362319
  0
VERTEX
  8
1
 10
200.065217391
 20
245.475362319
  0
SEQEND
  8
1
  0
LINE
  8
1
 62
4
  6
CONTINUOUS
 10
202.065217391
 20
232.775362319
 11
202.065217391
 21
247.775362319
  0
ENDBLK
  8
0
  0
BLOCK
  8
0
  2
*D182
 70
65
 10
0.000000000
 20
0.000000000
  3
*D
  0
TEXT
  8
1
 62
4
  6
CONTINUOUS
 72
5
 10
252.360217391
 20
194.663762319
 40
2.800000000
  1
φ
 41
1.270648030
 50
90.000000000
 11
252.360217391
 21
198.023762319
  0
TEXT
  8
1
 62
4
  6
CONTINUOUS
 72
5
 10
252.360217391
 20
199.703762319
 40
2.800000000
  1
63
 41
0.899998740
 50
90.000000000
 11
252.360217391
 21
203.903762319
  0
LINE
  8
1
 62
4
  6
CONTINUOUS
 10
209.065217391
 20
230.775362319
 11
256.565217391
 21
230.775362319
  0
POLYLINE
  8
1
 62
4
  6
CONTINUOUS
 66
1
  0
VERTEX
  8
1
 10
254.865217391
 20
228.775362319
  0
VERTEX
  8
1
 10
254.565217391
 20
230.775362319
  0
VERTEX
  8
1
 10
254.265217391
 20
228.775362319
  0
SEQEND
  8
1
  0
LINE
  8
1
 62
4
  6
CONTINUOUS
 10
254.565217391
 20
230.775362319
 11
254.565217391
 21
167.775362319
  0
POLYLINE
  8
1
 62
4
  6
CONTINUOUS
 66
1
  0
VERTEX
  8
1
 10
254.265217391
 20
169.775362319
  0
VERTEX
  8
1
 10
254.565217391
 20
167.775362319
  0
VERTEX
  8
1
 10
254.865217391
 20
169.775362319
  0
SEQEND
  8
1
  0
LINE
  8
1
 62
4
  6
CONTINUOUS
 10
209.065217391
 20
167.775362319
 11
256.565217391
 21
167.775362319
  0
ENDBLK
  8
0
  0
BLOCK
  8
0
  2
*D183
 70
65
 10
0.000000000
 20
0.000000000
  3
*D
  0
TEXT
  8
1
 62
4
  6
CONTINUOUS
 72
5
 10
219.973617391
 20
255.980362319
 40
2.800000000
  1
25
 41
0.899998740
 11
224.173617391
 21
255.980362319
  0
POLYLINE
  8
1
 62
4
  6
CONTINUOUS
 66
1
  0
VERTEX
  8
1
 10
211.565217391
 20
254.075362319
  0
VERTEX
  8
1
 10
209.565217391
 20
253.775362319
  0
VERTEX
  8
1
 10
211.565217391
 20
253.475362319
  0
SEQEND
  8
1
  0
LINE
  8
1
 62
4
  6
CONTINUOUS
 10
209.565217391
 20
253.775362319
 11
234.565217391
 21
253.775362319
  0
POLYLINE
  8
1
 62
4
  6
CONTINUOUS
 66
1
  0
VERTEX
  8
1
 10
232.565217391
 20
253.475362319
  0
VERTEX
  8
1
 10
234.565217391
 20
253.775362319
  0
VERTEX
  8
1
 10
232.565217391
 20
254.075362319
  0
SEQEND
  8
1
  0
LINE
  8
1
 62
4
  6
CONTINUOUS
 10
234.565217391
 20
216.324113099
 11
234.565217391
 21
255.775362319
  0
ENDBLK
  8
0
  0
BLOCK
  8
0
  2
*D186
 70
65
 10
0.000000000
 20
0.000000000
  3
*D
  0
TEXT
  8
1
 62
4
  6
CONTINUOUS
 72
5
 10
158.953617391
 20
255.980362319
 40
2.800000000
  1
(
 41
1.800001800
 11
160.633617391
 21
255.980362319
  0
TEXT
  8
1
 62
4
  6
CONTINUOUS
 72
5
 10
161.473617391
 20
255.980362319
 40
2.800000000
  1
92
 41
0.899998740
 11
165.673617391
 21
255.980362319
  0
TEXT
  8
1
 62
4
  6
CONTINUOUS
 72
5
 10
166.513617391
 20
255.980362319
 40
2.800000000
  1
)
 41
1.800001800
 11
168.193617391
 21
255.980362319
  0
LINE
  8
1
 62
4
  6
CONTINUOUS
 10
117.565217391
 20
211.775362319
 11
117.565217391
 21
255.775362319
  0
POLYLINE
  8
1
 62
4
  6
CONTINUOUS
 66
1
  0
VERTEX
  8
1
 10
119.565217391
 20
254.075362319
  0
VERTEX
  8
1
 10
117.565217391
 20
253.775362319
  0
VERTEX
  8
1
 10
119.565217391
 20
253.475362319
  0
SEQEND
  8
1
  0
LINE
  8
1
 62
4
  6
CONTINUOUS
 10
117.565217391
 20
253.775362319
 11
209.565217391
 21
253.775362319
  0
POLYLINE
  8
1
 62
4
  6
CONTINUOUS
 66
1
  0
VERTEX
  8
1
 10
207.565217391
 20
253.475362319
  0
VERTEX
  8
1
 10
209.565217391
 20
253.775362319
  0
VERTEX
  8
1
 10
207.565217391
 20
254.075362319
  0
SEQEND
  8
1
  0
LINE
  8
1
 62
4
  6
CONTINUOUS
 10
209.565217391
 20
230.275362319
 11
209.565217391
 21
255.775362319
  0
ENDBLK
  8
0
  0
BLOCK
  8
0
  2
*D187
 70
65
 10
0.000000000
 20
0.000000000
  3
*D
  0
TEXT
  8
1
 62
4
  6
CONTINUOUS
 72
5
 10
155.703617391
 20
247.980362319
 40
2.800000000
  1
17.5
 41
1.237498917
 11
164.943617391
 21
247.980362319
  0
POLYLINE
  8
1
 62
4
  6
CONTINUOUS
 66
1
  0
VERTEX
  8
1
 10
153.565217391
 20
246.075362319
  0
VERTEX
  8
1
 10
151.565217391
 20
245.775362319
  0
VERTEX
  8
1
 10
153.565217391
 20
245.475362319
  0
SEQEND
  8
1
  0
LINE
  8
1
 62
4
  6
CONTINUOUS
 10
151.565217391
 20
245.775362319
 11
169.065217391
 21
245.775362319
  0
POLYLINE
  8
1
 62
4
  6
CONTINUOUS
 66
1
  0
VERTEX
  8
1
 10
167.065217391
 20
245.475362319
  0
VERTEX
  8
1
 10
169.065217391
 20
245.775362319
  0
VERTEX
  8
1
 10
167.065217391
 20
246.075362319
  0
SEQEND
  8
1
  0
LINE
  8
1
 62
4
  6
CONTINUOUS
 10
169.065217391
 20
223.525362319
 11
169.065217391
 21
247.775362319
  0
ENDBLK
  8
0
  0
BLOCK
  8
0
  2
*D188
 70
65
 10
0.000000000
 20
0.000000000
  3
*D
  0
TEXT
  8
1
 62
4
  6
CONTINUOUS
 72
5
 10
129.953617391
 20
247.980362319
 40
2.800000000
  1
(
 41
1.800001800
 11
131.633617391
 21
247.980362319
  0
TEXT
  8
1
 62
4
  6
CONTINUOUS
 72
5
 10
132.473617391
 20
247.980362319
 40
2.800000000
  1
34
 41
0.899998740
 11
136.673617391
 21
247.980362319
  0
TEXT
  8
1
 62
4
  6
CONTINUOUS
 72
5
 10
137.513617391
 20
247.980362319
 40
2.800000000
  1
)
 41
1.800001800
 11
139.193617391
 21
247.980362319
  0
LINE
  8
1
 62
4
  6
CONTINUOUS
 10
117.565217391
 20
211.775362319
 11
117.565217391
 21
247.775362319
  0
POLYLINE
  8
1
 62
4
  6
CONTINUOUS
 66
1
  0
VERTEX
  8
1
 10
119.565217391
 20
246.075362319
  0
VERTEX
  8
1
 10
117.565217391
 20
245.775362319
  0
VERTEX
  8
1
 10
119.565217391
 20
245.475362319
  0
SEQEND
  8
1
  0
LINE
  8
1
 62
4
  6
CONTINUOUS
 10
117.565217391
 20
245.775362319
 11
151.565217391
 21
245.775362319
  0
POLYLINE
  8
1
 62
4
  6
CONTINUOUS
 66
1
  0
VERTEX
  8
1
 10
149.565217391
 20
245.475362319
  0
VERTEX
  8
1
 10
151.565217391
 20
245.775362319
  0
VERTEX
  8
1
 10
149.565217391
 20
246.075362319
  0
SEQEND
  8
1
  0
LINE
  8
1
 62
4
  6
CONTINUOUS
 10
151.565217391
 20
221.525362319
 11
151.565217391
 21
247.775362319
  0
ENDBLK
  8
0
  0
BLOCK
  8
0
  2
*D189
 70
65
 10
0.000000000
 20
0.000000000
  3
*D
  0
TEXT
  8
1
 62
4
  6
CONTINUOUS
 72
5
 10
118.034109497
 20
239.980362319
 40
2.800000000
  1
(
 41
1.800001800
 11
119.714109497
 21
239.980362319
  0
TEXT
  8
1
 62
4
  6
CONTINUOUS
 72
5
 10
120.554109497
 20
239.980362319
 40
2.800000000
  1
9.9
 41
1.199998800
 11
127.274109497
 21
239.980362319
  0
TEXT
  8
1
 62
4
  6
CONTINUOUS
 72
5
 10
128.114109497
 20
239.980362319
 40
2.800000000
  1
)
 41
1.800001800
 11
129.794109497
 21
239.980362319
  0
LINE
  8
1
 62
4
  6
CONTINUOUS
 10
117.565217391
 20
211.775362319
 11
117.565217391
 21
239.775362319
  0
POLYLINE
  8
1
 62
4
  6
CONTINUOUS
 66
1
  0
VERTEX
  8
1
 10
115.565217391
 20
238.075362319
  0
VERTEX
  8
1
 10
117.565217391
 20
237.775362319
  0
SEQEND
  8
1
  0
POLYLINE
  8
1
 62
4
  6
CONTINUOUS
 66
1
  0
VERTEX
  8
1
 10
114.565217391
 20
237.775362319
  0
VERTEX
  8
1
 10
117.565217391
 20
237.775362319
  0
VERTEX
  8
1
 10
115.565217391
 20
237.475362319
  0
SEQEND
  8
1
  0
LINE
  8
1
 62
4
  6
CONTINUOUS
 10
117.565217391
 20
237.775362319
 11
127.415217391
 21
237.775362319
  0
POLYLINE
  8
1
 62
4
  6
CONTINUOUS
 66
1
  0
VERTEX
  8
1
 10
129.415217391
 20
237.475362319
  0
VERTEX
  8
1
 10
127.415217391
 20
237.775362319
  0
SEQEND
  8
1
  0
POLYLINE
  8
1
 62
4
  6
CONTINUOUS
 66
1
  0
VERTEX
  8
1
 10
130.415217391
 20
237.775362319
  0
VERTEX
  8
1
 10
127.415217391
 20
237.775362319
  0
VERTEX
  8
1
 10
129.415217391
 20
238.075362319
  0
SEQEND
  8
1
  0
LINE
  8
1
 62
4
  6
CONTINUOUS
 10
127.415217391
 20
221.525362308
 11
127.415217391
 21
239.775362319
  0
ENDBLK
  8
0
  0
BLOCK
  8
0
  2
*D190
 70
65
 10
0.000000000
 20
0.000000000
  3
*D
  0
TEXT
  8
1
 62
4
  6
CONTINUOUS
 72
5
 10
170.193617391
 20
263.980362319
 40
2.800000000
  1
(
 41
1.800001800
 11
171.873617391
 21
263.980362319
  0
TEXT
  8
1
 62
4
  6
CONTINUOUS
 72
5
 10
172.713617391
 20
263.980362319
 40
2.800000000
  1
117
 41
1.199998200
 11
179.433617391
 21
263.980362319
  0
TEXT
  8
1
 62
4
  6
CONTINUOUS
 72
5
 10
180.273617391
 20
263.980362319
 40
2.800000000
  1
)
 41
1.800001800
 11
181.953617391
 21
263.980362319
  0
POLYLINE
  8
1
 62
4
  6
CONTINUOUS
 66
1
  0
VERTEX
  8
1
 10
119.565217391
 20
262.075362319
  0
VERTEX
  8
1
 10
117.565217391
 20
261.775362319
  0
VERTEX
  8
1
 10
119.565217391
 20
261.475362319
  0
SEQEND
  8
1
  0
LINE
  8
1
 62
4
  6
CONTINUOUS
 10
117.565217391
 20
261.775362319
 11
234.565217391
 21
261.775362319
  0
POLYLINE
  8
1
 62
4
  6
CONTINUOUS
 66
1
  0
VERTEX
  8
1
 10
232.565217391
 20
261.475362319
  0
VERTEX
  8
1
 10
234.565217391
 20
261.775362319
  0
VERTEX
  8
1
 10
232.565217391
 20
262.075362319
  0
SEQEND
  8
1
  0
LINE
  8
1
 62
4
  6
CONTINUOUS
 10
234.565217391
 20
216.324113099
 11
234.565217391
 21
263.775362319
  0
ENDBLK
  8
0
  0
BLOCK
  8
0
  2
*D191
 70
65
 10
0.000000000
 20
0.000000000
  3
*D
  0
TEXT
  8
1
 62
4
  6
CONTINUOUS
 72
5
 10
103.097866084
 20
263.980362319
 40
2.800000000
  1
(
 41
1.800001800
 11
104.777866084
 21
263.980362319
  0
TEXT
  8
1
 62
4
  6
CONTINUOUS
 72
5
 10
105.617866084
 20
263.980362319
 40
2.800000000
  1
14.7
 41
1.237498917
 11
114.857866084
 21
263.980362319
  0
TEXT
  8
1
 62
4
  6
CONTINUOUS
 72
5
 10
115.697866084
 20
263.980362319
 40
2.800000000
  1
)
 41
1.800001800
 11
117.377866084
 21
263.980362319
  0
LINE
  8
1
 62
4
  6
CONTINUOUS
 10
102.893714776
 20
202.698012050
 11
102.893714776
 21
263.775362319
  0
POLYLINE
  8
1
 62
4
  6
CONTINUOUS
 66
1
  0
VERTEX
  8
1
 10
104.893714776
 20
262.075362319
  0
VERTEX
  8
1
 10
102.893714776
 20
261.775362319
  0
VERTEX
  8
1
 10
104.893714776
 20
261.475362319
  0
SEQEND
  8
1
  0
LINE
  8
1
 62
4
  6
CONTINUOUS
 10
102.893714776
 20
261.775362319
 11
117.565217391
 21
261.775362319
  0
POLYLINE
  8
1
 62
4
  6
CONTINUOUS
 66
1
  0
VERTEX
  8
1
 10
115.565217391
 20
261.475362319
  0
VERTEX
  8
1
 10
117.565217391
 20
261.775362319
  0
VERTEX
  8
1
 10
115.565217391
 20
262.075362319
  0
SEQEND
  8
1
  0
LINE
  8
1
 62
4
  6
CONTINUOUS
 10
117.565217391
 20
211.775362319
 11
117.565217391
 21
263.775362319
  0
ENDBLK
  8
0
  0
ENDSEC
  0
SECTION
  2
ENTITIES
  0
LINE
  8
1
 62
1
  6
CENTER
 10
90.893714776
 20
199.275362319
 11
237.565217391
 21
199.275362319
  0
LINE
  8
1
 62
7
  6
CONTINUOUS
 10
125.865217391
 20
178.475362319
 11
126.065217391
 21
178.475362319
  0
LINE
  8
1
 62
7
  6
CONTINUOUS
 10
127.415217391
 20
221.525362308
 11
147.065217391
 21
221.525362308
  0
LINE
  8
1
 62
7
  6
CONTINUOUS
 10
126.165217391
 20
220.275362308
 11
127.415217391
 21
221.525362308
  0
ARC
  8
1
 62
7
  6
CONTINUOUS
 10
106.452560503
 20
194.375362319
 40
1.000000000
 50
240.000000000
 51
270.000000000
  0
LINE
  8
1
 62
4
  6
CONTINUOUS
 10
115.065217391
 20
201.336915132
 11
117.565217391
 21
197.213809506
  0
LINE
  8
1
 62
7
  6
CONTINUOUS
 10
117.565217391
 20
186.775362319
 11
125.865217391
 21
178.475362319
  0
LINE
  8
1
 62
4
  6
CONTINUOUS
 10
117.565217391
 20
201.336915132
 11
115.065217391
 21
197.213809506
  0
LINE
  8
1
 62
7
  6
CONTINUOUS
 10
115.065217391
 20
194.775362319
 11
115.065217391
 21
203.775362319
  0
LINE
  8
1
 62
7
  6
CONTINUOUS
 10
115.065217391
 20
201.336915132
 11
117.565217391
 21
201.336915132
  0
LINE
  8
1
 62
7
  6
CONTINUOUS
 10
114.393714776
 20
194.575362319
 11
114.865217391
 21
194.575362319
  0
LINE
  8
1
 62
7
  6
CONTINUOUS
 10
126.065217391
 20
220.075362319
 11
126.065217391
 21
178.475362319
  0
LINE
  8
1
 62
7
  6
CONTINUOUS
 10
106.743714776
 20
193.375362319
 11
106.452560503
 21
193.375362319
  0
LINE
  8
1
 62
7
  6
CONTINUOUS
 10
117.565217391
 20
186.775362319
 11
117.565217391
 21
211.775362319
  0
LINE
  8
1
 62
7
  6
CONTINUOUS
 10
117.565217391
 20
211.775362319
 11
125.865217391
 21
220.075362319
  0
LINE
  8
1
 62
7
  6
CONTINUOUS
 10
125.865217391
 20
220.075362319
 11
125.865217391
 21
178.475362319
  0
LINE
  8
1
 62
7
  6
CONTINUOUS
 10
125.865217391
 20
220.075362319
 11
126.065217391
 21
220.075362319
  0
LINE
  8
1
 62
7
  6
CONTINUOUS
 10
117.565217391
 20
194.775362319
 11
115.065217391
 21
194.775362319
  0
LINE
  8
1
 62
7
  6
CONTINUOUS
 10
106.743714776
 20
205.175362319
 11
106.893714776
 21
205.025362319
  0
LINE
  8
1
 62
7
  6
CONTINUOUS
 10
106.893714776
 20
204.775362319
 11
109.893714776
 21
204.775362319
  0
LINE
  8
1
 62
7
  6
CONTINUOUS
 10
114.865217391
 20
194.575362319
 11
114.865217391
 21
203.975362319
  0
LINE
  8
1
 62
7
  6
CONTINUOUS
 10
114.393714776
 20
204.375362319
 11
114.393714776
 21
194.175362319
  0
LINE
  8
1
 62
7
  6
CONTINUOUS
 10
115.065217391
 20
203.775362319
 11
114.865217391
 21
203.975362319
  0
LINE
  8
1
 62
7
  6
CONTINUOUS
 10
117.565217391
 20
203.775362319
 11
115.065217391
 21
203.775362319
  0
LINE
  8
1
 62
7
  6
CONTINUOUS
 10
115.065217391
 20
194.775362319
 11
114.865217391
 21
194.575362319
  0
LINE
  8
1
 62
7
  6
CONTINUOUS
 10
114.393714776
 20
203.975362319
 11
114.865217391
 21
203.975362319
  0
LINE
  8
1
 62
7
  6
CONTINUOUS
 10
113.593714776
 20
205.175362319
 11
110.043714776
 21
205.175362319
  0
LINE
  8
1
 62
7
  6
CONTINUOUS
 10
115.065217391
 20
197.213809506
 11
117.565217391
 21
197.213809506
  0
LINE
  8
1
 62
7
  6
CONTINUOUS
 10
103.393714776
 20
194.986687184
 11
105.952560503
 21
193.509336915
  0
LINE
  8
1
 62
7
  6
CONTINUOUS
 10
106.893714776
 20
193.525362319
 11
106.893714776
 21
205.025362319
  0
ARC
  8
1
 62
7
  6
CONTINUOUS
 10
113.593714776
 20
194.175362319
 40
0.800000000
 50
270.000000000
 51
0.000000000
  0
ARC
  8
1
 62
7
  6
CONTINUOUS
 10
103.893714776
 20
195.852712588
 40
1.000000000
 50
180.000000000
 51
240.000000000
  0
ARC
  8
1
 62
7
  6
CONTINUOUS
 10
103.893714776
 20
202.698012050
 40
1.000000000
 50
120.000000000
 51
180.000000000
  0
ARC
  8
1
 62
7
  6
CONTINUOUS
 10
113.593714776
 20
204.375362319
 40
0.800000000
 50
0.000000000
 51
90.000000000
  0
LINE
  8
1
 62
7
  6
CONTINUOUS
 10
106.743714776
 20
193.375362319
 11
106.893714776
 21
193.525362319
  0
LINE
  8
1
 62
7
  6
CONTINUOUS
 10
107.043714776
 20
201.410777969
 11
106.893714776
 21
201.260777969
  0
LINE
  8
1
 62
7
  6
CONTINUOUS
 10
103.393714776
 20
203.564037453
 11
105.952560503
 21
205.041387723
  0
LINE
  8
1
 62
7
  6
CONTINUOUS
 10
106.893714776
 20
193.775362319
 11
109.893714776
 21
193.775362319
  0
LINE
  8
1
 62
7
  6
CONTINUOUS
 10
113.593714776
 20
193.375362319
 11
110.043714776
 21
193.375362319
  0
LINE
  8
15
 62
7
  6
CONTINUOUS
 10
92.893714776
 20
201.075362319
 11
92.893714776
 21
197.475362319
  0
LINE
  8
1
 62
7
  6
CONTINUOUS
 10
109.893714776
 20
205.025362319
 11
110.043714776
 21
205.175362319
  0
LINE
  8
15
 62
7
  6
CONTINUOUS
 10
93.093714776
 20
201.275362319
 11
102.893714776
 21
201.275362319
  0
ARC
  8
1
 62
7
  6
CONTINUOUS
 10
106.452560503
 20
204.175362319
 40
1.000000000
 50
90.000000000
 51
120.000000000
  0
LINE
  8
1
 62
7
  6
CONTINUOUS
 10
106.743714776
 20
205.175362319
 11
106.452560503
 21
205.175362319
  0
LINE
  8
1
 62
7
  6
CONTINUOUS
 10
106.893714776
 20
197.289946668
 11
107.043714776
 21
197.139946668
  0
LINE
  8
15
 62
7
  6
CONTINUOUS
 10
102.893714776
 20
197.275362319
 11
93.093714776
 21
197.275362319
  0
ARC
  8
15
 62
7
  6
CONTINUOUS
 10
93.093714776
 20
197.475362319
 40
0.200000000
 50
180.000000000
 51
270.000000000
  0
LINE
  8
1
 62
4
  6
CONTINUOUS
 10
109.893714776
 20
201.260777969
 11
106.893714776
 21
197.289946668
  0
ARC
  8
15
 62
7
  6
CONTINUOUS
 10
93.093714776
 20
201.075362319
 40
0.200000000
 50
90.000000000
 51
180.000000000
  0
LINE
  8
1
 62
7
  6
CONTINUOUS
 10
109.893714776
 20
205.025362319
 11
109.893714776
 21
193.525362319
  0
LINE
  8
1
 62
7
  6
CONTINUOUS
 10
103.393714776
 20
203.064037453
 11
103.393714776
 21
195.486687184
  0
LINE
  8
1
 62
7
  6
CONTINUOUS
 10
109.893714776
 20
193.525362319
 11
110.043714776
 21
193.375362319
  0
LINE
  8
1
 62
7
  6
CONTINUOUS
 10
106.452560503
 20
205.175362319
 11
106.452560503
 21
193.375362319
  0
LINE
  8
1
 62
7
  6
CONTINUOUS
 10
102.893714776
 20
195.852712588
 11
102.893714776
 21
202.698012050
  0
LINE
  8
1
 62
7
  6
CONTINUOUS
 10
113.593714776
 20
205.175362319
 11
113.593714776
 21
193.375362319
  0
LINE
  8
1
 62
7
  6
CONTINUOUS
 10
109.743714776
 20
201.410777969
 11
109.743714776
 21
204.775362319
  0
LINE
  8
1
 62
7
  6
CONTINUOUS
 10
107.043714776
 20
201.410777969
 11
107.043714776
 21
204.775362319
  0
LINE
  8
1
 62
4
  6
CONTINUOUS
 10
106.893714776
 20
201.260777969
 11
109.893714776
 21
197.289946668
  0
LINE
  8
1
 62
7
  6
CONTINUOUS
 10
107.043714776
 20
197.139946668
 11
109.743714776
 21
197.139946668
  0
LINE
  8
1
 62
7
  6
CONTINUOUS
 10
107.043714776
 20
201.410777969
 11
109.743714776
 21
201.410777969
  0
LINE
  8
1
 62
7
  6
CONTINUOUS
 10
109.743714776
 20
193.775362319
 11
109.743714776
 21
197.139946668
  0
LINE
  8
1
 62
7
  6
CONTINUOUS
 10
107.043714776
 20
193.775362319
 11
107.043714776
 21
197.139946668
  0
LINE
  8
1
 62
7
  6
CONTINUOUS
 10
109.893714776
 20
201.260777969
 11
109.743714776
 21
201.410777969
  0
LINE
  8
1
 62
7
  6
CONTINUOUS
 10
109.743714776
 20
197.139946668
 11
109.893714776
 21
197.289946668
  0
LINE
  8
1
 62
7
  6
CONTINUOUS
 10
106.743714776
 20
193.375362319
 11
106.743714776
 21
205.175362319
  0
LINE
  8
1
 62
7
  6
CONTINUOUS
 10
110.043714776
 20
193.375362319
 11
110.043714776
 21
205.175362319
  0
LINE
  8
1
 62
7
  6
CONTINUOUS
 10
105.952560503
 20
204.541387723
 11
105.952560503
 21
194.009336915
  0
LINE
  8
1
 62
7
  6
CONTINUOUS
 10
126.065217391
 20
216.525362319
 11
126.165217391
 21
216.525362319
  0
LINE
  8
1
 62
7
  6
CONTINUOUS
 10
147.065217391
 20
221.525362308
 11
151.065217391
 21
221.525362308
  0
ARC
  8
6
 62
7
  6
CONTINUOUS
 10
183.065217391
 20
225.775362319
 40
0.500000000
 50
270.000000000
 51
0.000000000
  0
LINE
  8
1
 62
7
  6
CONTINUOUS
 10
126.165217391
 20
220.275362308
 11
126.165217391
 21
178.275362329
  0
LINE
  8
1
 62
7
  6
CONTINUOUS
 10
147.065217391
 20
177.025362329
 11
147.065217391
 21
221.525362308
  0
LINE
  8
1
 62
7
  6
CONTINUOUS
 10
126.065217391
 20
182.025362319
 11
126.165217391
 21
182.025362319
  0
LINE
  8
1
 62
7
  6
CONTINUOUS
 10
126.065217391
 20
216.525362319
 11
126.065217391
 21
182.025362319
  0
LINE
  8
1
 62
7
  6
CONTINUOUS
 10
147.065217391
 20
177.025362329
 11
151.065217391
 21
177.025362329
  0
LINE
  8
1
 62
7
  6
CONTINUOUS
 10
151.065217391
 20
177.025362329
 11
151.065217391
 21
221.525362308
  0
LINE
  8
1
 62
7
  6
CONTINUOUS
 10
147.065217391
 20
221.525362308
 11
147.065217391
 21
177.025362329
  0
LINE
  8
1
 62
7
  6
CONTINUOUS
 10
127.415217391
 20
177.025362329
 11
147.065217391
 21
177.025362329
  0
LINE
  8
1
 62
7
  6
CONTINUOUS
 10
126.165217391
 20
178.275362329
 11
127.415217391
 21
177.025362329
  0
LINE
  8
1
 62
7
  6
CONTINUOUS
 10
127.415217391
 20
221.525362308
 11
127.415217391
 21
177.025362329
  0
LINE
  8
1
 62
7
  6
CONTINUOUS
 10
169.115217391
 20
180.275362319
 11
169.515217391
 21
180.275362319
  0
LINE
  8
1
 62
7
  6
CONTINUOUS
 10
169.115217391
 20
218.275362319
 11
169.115217391
 21
180.275362319
  0
LINE
  8
1
 62
7
  6
CONTINUOUS
 10
151.515217391
 20
221.275362319
 11
151.115217391
 21
221.275362319
  0
LINE
  8
1
 62
7
  6
CONTINUOUS
 10
151.515217391
 20
177.275362319
 11
151.515217391
 21
221.275362319
  0
LINE
  8
1
 62
7
  6
CONTINUOUS
 10
151.115217391
 20
177.275362319
 11
151.515217391
 21
177.275362319
  0
LINE
  8
1
 62
7
  6
CONTINUOUS
 10
151.115217391
 20
221.275362319
 11
151.115217391
 21
177.275362319
  0
LINE
  8
1
 62
7
  6
CONTINUOUS
 10
169.565217391
 20
173.775362319
 11
170.065217391
 21
173.275362319
  0
LINE
  8
1
 62
7
  6
CONTINUOUS
 10
169.565217391
 20
224.775362319
 11
169.565217391
 21
173.775362319
  0
LINE
  8
1
 62
7
  6
CONTINUOUS
 10
170.065217391
 20
173.275362319
 11
176.265217391
 21
173.275362319
  0
LINE
  8
1
 62
7
  6
CONTINUOUS
 10
176.265217391
 20
173.275362319
 11
176.565217391
 21
173.575362319
  0
LINE
  8
1
 62
7
  6
CONTINUOUS
 10
176.265217391
 20
225.275362319
 11
176.565217391
 21
224.975362319
  0
LINE
  8
1
 62
7
  6
CONTINUOUS
 10
176.565217391
 20
173.575362319
 11
176.565217391
 21
224.975362319
  0
LINE
  8
1
 62
7
  6
CONTINUOUS
 10
170.065217391
 20
225.275362319
 11
176.265217391
 21
225.275362319
  0
LINE
  8
1
 62
7
  6
CONTINUOUS
 10
169.565217391
 20
224.775362319
 11
170.065217391
 21
225.275362319
  0
LINE
  8
6
 62
7
  6
CONTINUOUS
 10
183.065217391
 20
225.275362319
 11
176.865217391
 21
225.275362319
  0
LINE
  8
1
 62
7
  6
CONTINUOUS
 10
163.555217391
 20
170.525362319
 11
163.430217391
 21
174.525362319
  0
LINE
  8
1
 62
7
  6
CONTINUOUS
 10
163.498217391
 20
172.357362319
 11
153.632217391
 21
172.357362319
  0
LINE
  8
1
 62
7
  6
CONTINUOUS
 10
153.575217391
 20
170.525362319
 11
153.700217391
 21
174.525362319
  0
LINE
  8
1
 62
7
  6
CONTINUOUS
 10
152.565217391
 20
159.325362319
 11
164.565217391
 21
159.325362319
  0
LINE
  8
1
 62
7
  6
CONTINUOUS
 10
152.565217391
 20
159.325362319
 11
152.565217391
 21
161.225362319
  0
LINE
  8
1
 62
7
  6
CONTINUOUS
 10
164.565217391
 20
159.325362319
 11
164.565217391
 21
161.225362319
  0
LINE
  8
1
 62
7
  6
CONTINUOUS
 10
155.065217391
 20
157.525362319
 11
155.065217391
 21
159.325362319
  0
LINE
  8
1
 62
7
  6
CONTINUOUS
 10
151.565217391
 20
177.025362319
 11
151.565217391
 21
221.525362319
  0
LINE
  8
1
 62
7
  6
CONTINUOUS
 10
162.065217391
 20
157.525362319
 11
162.065217391
 21
159.325362319
  0
LINE
  8
1
 62
7
  6
CONTINUOUS
 10
152.815217391
 20
157.525362319
 11
164.315217391
 21
157.525362319
  0
LINE
  8
1
 62
7
  6
CONTINUOUS
 10
152.815217391
 20
156.025362319
 11
152.815217391
 21
157.525362319
  0
LINE
  8
6
 62
7
  6
CONTINUOUS
 10
183.065217391
 20
173.275362319
 11
176.865217391
 21
173.275362319
  0
LINE
  8
6
 62
7
  6
CONTINUOUS
 10
176.565217391
 20
224.975362319
 11
176.565217391
 21
173.575362319
  0
LINE
  8
6
 62
7
  6
CONTINUOUS
 10
209.565217391
 20
230.275362319
 11
209.565217391
 21
168.275362319
  0
DIMENSION
  8
1
 62
4
  6
CONTINUOUS
  2
*D110
 70
1
 10
76.893714776
 20
177.025362329
 11
76.893714776
 21
199.275362319
 14
127.415217391
 24
177.025362329
 13
127.415217391
 23
221.525362308
 50
90.000000000
  0
DIMENSION
  8
1
 62
4
  6
CONTINUOUS
  2
*D111
 70
1
 10
84.893714776
 20
193.375362319
 11
84.893714776
 21
199.275362319
 14
106.452560503
 24
193.375362319
 13
106.452560503
 23
205.175362319
 50
90.000000000
  0
TEXT
  8
1
 62
3
  6
CONTINUOUS
 72
5
 10
145.265217391
 20
130.041362319
 40
4.000000000
  1
ＨＴＳ１５０１Ｓ－ＨＳＫ Ｆ６３
 41
0.843235378
 11
206.465217391
 21
130.041362319
  0
LINE
  8
1
 62
7
  6
CONTINUOUS
 10
210.895107158
 20
180.304917815
 11
210.895107158
 21
218.245806823
  0
LINE
  8
1
 62
7
  6
CONTINUOUS
 10
164.315217391
 20
156.025362319
 11
164.315217391
 21
157.525362319
  0
LINE
  8
1
 62
7
  6
CONTINUOUS
 10
152.665217391
 20
163.725362319
 11
152.665217391
 21
161.225362319
  0
LINE
  8
1
 62
7
  6
CONTINUOUS
 10
164.465217391
 20
163.725362319
 11
164.465217391
 21
161.225362319
  0
LINE
  8
1
 62
7
  6
CONTINUOUS
 10
165.493217391
 20
170.525362319
 11
165.493217391
 21
163.725362319
  0
LINE
  8
1
 62
7
  6
CONTINUOUS
 10
169.515217391
 20
180.275362319
 11
169.515217391
 21
218.275362319
  0
LINE
  8
1
 62
7
  6
CONTINUOUS
 10
169.515217391
 20
218.275362319
 11
169.115217391
 21
218.275362319
  0
LINE
  8
1
 62
7
  6
CONTINUOUS
 10
151.637217391
 20
170.525362319
 11
151.637217391
 21
163.725362319
  0
LINE
  8
1
 62
1
  6
CONTINUOUS
 10
162.917217391
 20
172.357362319
 11
162.849379518
 21
174.525362319
  0
LINE
  8
1
 62
7
  6
CONTINUOUS
 10
151.637217391
 20
163.725362319
 11
165.493217391
 21
163.725362319
  0
LINE
  8
1
 62
7
  6
CONTINUOUS
 10
152.565217391
 20
161.225362319
 11
164.565217391
 21
161.225362319
  0
LINE
  8
1
 62
7
  6
CONTINUOUS
 10
151.637217391
 20
170.525362319
 11
165.493217391
 21
170.525362319
  0
LINE
  8
1
 62
7
  6
CONTINUOUS
 10
152.815217391
 20
156.025362319
 11
164.315217391
 21
156.025362319
  0
LINE
  8
1
 62
1
  6
CONTINUOUS
 10
154.213217391
 20
172.357362319
 11
154.281055264
 21
174.525362319
  0
LINE
  8
1
 62
7
  6
CONTINUOUS
 10
155.101217391
 20
170.525362319
 11
155.101217391
 21
163.725362319
  0
LINE
  8
1
 62
7
  6
CONTINUOUS
 10
162.029217391
 20
170.525362319
 11
162.029217391
 21
163.725362319
  0
LINE
  8
1
 62
1
  6
CENTER
 10
158.565217391
 20
176.525362319
 11
158.565217391
 21
154.025362319
  0
LINE
  8
1
 62
7
  6
CONTINUOUS
 10
153.008593064
 20
174.525362319
 11
153.008593064
 21
224.025362319
  0
LINE
  8
1
 62
7
  6
CONTINUOUS
 10
151.565217391
 20
221.525362319
 11
153.008593064
 21
224.025362319
  0
LINE
  8
1
 62
7
  6
CONTINUOUS
 10
153.008593064
 20
224.025362319
 11
168.565217391
 21
224.025362319
  0
LINE
  8
1
 62
7
  6
CONTINUOUS
 10
168.565217391
 20
174.525362319
 11
169.065217391
 21
175.025362319
  0
LINE
  8
1
 62
7
  6
CONTINUOUS
 10
168.565217391
 20
224.025362319
 11
169.065217391
 21
223.525362319
  0
LINE
  8
1
 62
7
  6
CONTINUOUS
 10
153.008593064
 20
174.525362319
 11
168.565217391
 21
174.525362319
  0
LINE
  8
1
 62
7
  6
CONTINUOUS
 10
151.565217391
 20
177.025362319
 11
153.008593064
 21
174.525362319
  0
LINE
  8
1
 62
7
  6
CONTINUOUS
 10
169.065217391
 20
223.525362319
 11
169.065217391
 21
175.025362319
  0
ARC
  8
6
 62
7
  6
CONTINUOUS
 10
183.065217391
 20
172.775362319
 40
0.500000000
 50
0.000000000
 51
90.000000000
  0
LINE
  8
6
 62
7
  6
CONTINUOUS
 10
176.565217391
 20
173.575362319
 11
176.865217391
 21
173.275362319
  0
LINE
  8
6
 62
7
  6
CONTINUOUS
 10
176.565217391
 20
224.975362319
 11
176.865217391
 21
225.275362319
  0
LINE
  8
6
 62
7
  6
CONTINUOUS
 10
209.565217391
 20
168.275362319
 11
209.065217391
 21
167.775362319
  0
LINE
  8
6
 62
7
  6
CONTINUOUS
 10
194.942716466
 20
167.775362319
 11
209.065217391
 21
167.775362319
  0
LINE
  8
6
 62
7
  6
CONTINUOUS
 10
188.187718317
 20
167.775362319
 11
184.065217391
 21
167.775362319
  0
LINE
  8
6
 62
7
  6
CONTINUOUS
 10
184.065217391
 20
167.775362319
 11
183.565217391
 21
168.275362319
  0
LINE
  8
6
 62
7
  6
CONTINUOUS
 10
183.565217391
 20
230.275362319
 11
183.565217391
 21
168.275362319
  0
LINE
  8
6
 62
7
  6
CONTINUOUS
 10
193.440217391
 20
171.775362319
 11
189.690217391
 21
171.775362319
  0
LINE
  8
6
 62
7
  6
CONTINUOUS
 10
193.440217391
 20
228.172957583
 11
193.440217391
 21
170.377767055
  0
LINE
  8
6
 62
7
  6
CONTINUOUS
 10
193.440217391
 20
170.377767055
 11
194.942716466
 21
167.775362319
  0
LINE
  8
6
 62
7
  6
CONTINUOUS
 10
189.690217391
 20
228.172957583
 11
189.690217391
 21
170.377767055
  0
LINE
  8
6
 62
7
  6
CONTINUOUS
 10
189.690217391
 20
170.377767055
 11
188.187718317
 21
167.775362319
  0
LINE
  8
6
 62
7
  6
CONTINUOUS
 10
209.565217391
 20
230.275362319
 11
209.065217391
 21
230.775362319
  0
LINE
  8
6
 62
7
  6
CONTINUOUS
 10
194.942716466
 20
230.775362319
 11
209.065217391
 21
230.775362319
  0
LINE
  8
6
 62
7
  6
CONTINUOUS
 10
188.187718317
 20
230.775362319
 11
184.065217391
 21
230.775362319
  0
LINE
  8
6
 62
7
  6
CONTINUOUS
 10
184.065217391
 20
230.775362319
 11
183.565217391
 21
230.275362319
  0
LINE
  8
6
 62
7
  6
CONTINUOUS
 10
193.440217391
 20
226.775362319
 11
189.690217391
 21
226.775362319
  0
LINE
  8
6
 62
7
  6
CONTINUOUS
 10
193.440217391
 20
228.172957583
 11
194.942716466
 21
230.775362319
  0
LINE
  8
6
 62
7
  6
CONTINUOUS
 10
189.690217391
 20
228.172957583
 11
188.187718317
 21
230.775362319
  0
LINE
  8
6
 62
7
  6
CONTINUOUS
 10
194.942716466
 20
167.775362319
 11
194.942716466
 21
230.775362319
  0
LINE
  8
6
 62
7
  6
CONTINUOUS
 10
188.187718317
 20
167.775362319
 11
188.187718317
 21
230.775362319
  0
TEXT
  8
1
 62
4
  6
CONTINUOUS
 72
5
 10
240.411712114
 20
246.795362319
 40
3.200000000
  1
ＨＳＫ Ｆ６３
 41
0.859498393
 11
260.611712114
 21
246.795362319
  0
POLYLINE
  8
1
 62
4
  6
CONTINUOUS
 66
1
  0
VERTEX
  8
1
 10
220.933059692
 20
217.956970215
  0
VERTEX
  8
1
 10
221.541778564
 20
218.826293945
  0
VERTEX
  8
1
 10
222.150482178
 20
219.695617676
  0
VERTEX
  8
1
 10
222.759185791
 20
220.564941406
  0
VERTEX
  8
1
 10
223.367889404
 20
221.434265137
  0
VERTEX
  8
1
 10
223.976608276
 20
222.303588867
  0
VERTEX
  8
1
 10
224.585311890
 20
223.172912598
  0
VERTEX
  8
1
 10
225.194015503
 20
224.042236328
  0
VERTEX
  8
1
 10
225.802719116
 20
224.911575317
  0
VERTEX
  8
1
 10
226.411437988
 20
225.780899048
  0
VERTEX
  8
1
 10
227.020141602
 20
226.650222778
  0
VERTEX
  8
1
 10
227.628845215
 20
227.519546509
  0
VERTEX
  8
1
 10
228.237564087
 20
228.388870239
  0
VERTEX
  8
1
 10
228.846267700
 20
229.258193970
  0
VERTEX
  8
1
 10
229.454971313
 20
230.127517700
  0
VERTEX
  8
1
 10
230.063674927
 20
230.996841431
  0
VERTEX
  8
1
 10
230.672393799
 20
231.866165161
  0
VERTEX
  8
1
 10
231.281097412
 20
232.735488892
  0
VERTEX
  8
1
 10
231.889801025
 20
233.604812622
  0
VERTEX
  8
1
 10
232.498504639
 20
234.474136353
  0
VERTEX
  8
1
 10
233.107223511
 20
235.343460083
  0
VERTEX
  8
1
 10
233.715927124
 20
236.212783813
  0
VERTEX
  8
1
 10
234.324630737
 20
237.082107544
  0
VERTEX
  8
1
 10
234.933349609
 20
237.951446533
  0
VERTEX
  8
1
 10
235.542053223
 20
238.820770264
  0
VERTEX
  8
1
 10
236.150756836
 20
239.690093994
  0
VERTEX
  8
1
 10
236.759460449
 20
240.559417725
  0
VERTEX
  8
1
 10
237.368179321
 20
241.428741455
  0
VERTEX
  8
1
 10
237.976882935
 20
242.298065186
  0
VERTEX
  8
1
 10
238.585586548
 20
243.167388916
  0
VERTEX
  8
1
 10
239.194290161
 20
244.036712646
  0
VERTEX
  8
1
 10
239.803009033
 20
244.906036377
  0
VERTEX
  8
1
 10
240.411712646
 20
245.775360107
  0
VERTEX
  8
1
 10
241.052215576
 20
245.775360107
  0
VERTEX
  8
1
 10
241.692718506
 20
245.775360107
  0
VERTEX
  8
1
 10
242.333206177
 20
245.775360107
  0
VERTEX
  8
1
 10
242.973709106
 20
245.775360107
  0
VERTEX
  8
1
 10
243.614212036
 20
245.775360107
  0
VERTEX
  8
1
 10
244.254714966
 20
245.775360107
  0
VERTEX
  8
1
 10
244.895217896
 20
245.775360107
  0
VERTEX
  8
1
 10
245.535705566
 20
245.775360107
  0
VERTEX
  8
1
 10
246.176208496
 20
245.775360107
  0
VERTEX
  8
1
 10
246.816711426
 20
245.775360107
  0
VERTEX
  8
1
 10
247.457214355
 20
245.775360107
  0
VERTEX
  8
1
 10
248.097717285
 20
245.775360107
  0
VERTEX
  8
1
 10
248.738204956
 20
245.775360107
  0
VERTEX
  8
1
 10
249.378707886
 20
245.775360107
  0
VERTEX
  8
1
 10
250.019210815
 20
245.775360107
  0
VERTEX
  8
1
 10
250.659713745
 20
245.775360107
  0
VERTEX
  8
1
 10
251.300216675
 20
245.775360107
  0
VERTEX
  8
1
 10
251.940719604
 20
245.775360107
  0
VERTEX
  8
1
 10
252.581207275
 20
245.775360107
  0
VERTEX
  8
1
 10
253.221710205
 20
245.775360107
  0
VERTEX
  8
1
 10
253.862213135
 20
245.775360107
  0
VERTEX
  8
1
 10
254.502716064
 20
245.775360107
  0
VERTEX
  8
1
 10
255.143218994
 20
245.775360107
  0
VERTEX
  8
1
 10
255.783706665
 20
245.775360107
  0
VERTEX
  8
1
 10
256.424224854
 20
245.775360107
  0
VERTEX
  8
1
 10
257.064697266
 20
245.775360107
  0
VERTEX
  8
1
 10
257.705200195
 20
245.775360107
  0
VERTEX
  8
1
 10
258.345703125
 20
245.775360107
  0
VERTEX
  8
1
 10
258.986206055
 20
245.775360107
  0
VERTEX
  8
1
 10
259.626708984
 20
245.775360107
  0
VERTEX
  8
1
 10
260.267211914
 20
245.775360107
  0
VERTEX
  8
1
 10
260.907714844
 20
245.775360107
  0
SEQEND
  8
1
  0
POLYLINE
  8
1
 62
4
  6
CONTINUOUS
 66
1
  0
VERTEX
  8
1
 10
221.834467242
 20
219.767347090
  0
VERTEX
  8
1
 10
220.933059692
 20
217.956970215
  0
VERTEX
  8
1
 10
222.325958414
 20
219.423201149
  0
SEQEND
  8
1
  0
POLYLINE
  8
1
 62
4
  6
CONTINUOUS
 66
1
  0
VERTEX
  8
1
 10
202.065216064
 20
230.775360107
  0
VERTEX
  8
1
 10
201.794586182
 20
231.244110107
  0
VERTEX
  8
1
 10
201.523956299
 20
231.712860107
  0
VERTEX
  8
1
 10
201.253311157
 20
232.181610107
  0
VERTEX
  8
1
 10
200.982681274
 20
232.650360107
  0
VERTEX
  8
1
 10
200.712051392
 20
233.119110107
  0
VERTEX
  8
1
 10
200.441421509
 20
233.587860107
  0
VERTEX
  8
1
 10
200.170791626
 20
234.056610107
  0
VERTEX
  8
1
 10
199.900146484
 20
234.525360107
  0
VERTEX
  8
1
 10
199.629516602
 20
234.994110107
  0
VERTEX
  8
1
 10
199.358886719
 20
235.462860107
  0
VERTEX
  8
1
 10
199.088256836
 20
235.931610107
  0
VERTEX
  8
1
 10
198.817626953
 20
236.400360107
  0
VERTEX
  8
1
 10
198.546981812
 20
236.869110107
  0
VERTEX
  8
1
 10
198.276351929
 20
237.337860107
  0
VERTEX
  8
1
 10
198.005722046
 20
237.806610107
  0
VERTEX
  8
1
 10
197.735092163
 20
238.275360107
  0
VERTEX
  8
1
 10
197.464462280
 20
238.744110107
  0
VERTEX
  8
1
 10
197.193817139
 20
239.212860107
  0
VERTEX
  8
1
 10
196.923187256
 20
239.681610107
  0
VERTEX
  8
1
 10
196.652557373
 20
240.150360107
  0
VERTEX
  8
1
 10
196.381927490
 20
240.619110107
  0
VERTEX
  8
1
 10
196.111297607
 20
241.087860107
  0
VERTEX
  8
1
 10
195.840652466
 20
241.556610107
  0
VERTEX
  8
1
 10
195.570022583
 20
242.025360107
  0
VERTEX
  8
1
 10
195.299392700
 20
242.494110107
  0
VERTEX
  8
1
 10
195.028762817
 20
242.962860107
  0
VERTEX
  8
1
 10
194.758132935
 20
243.431610107
  0
VERTEX
  8
1
 10
194.487487793
 20
243.900360107
  0
VERTEX
  8
1
 10
194.216857910
 20
244.369110107
  0
VERTEX
  8
1
 10
193.946228027
 20
244.837860107
  0
VERTEX
  8
1
 10
193.675598145
 20
245.306610107
  0
VERTEX
  8
1
 10
193.404968262
 20
245.775360107
  0
VERTEX
  8
1
 10
193.014465332
 20
245.775360107
  0
VERTEX
  8
1
 10
192.623962402
 20
245.775360107
  0
VERTEX
  8
1
 10
192.233459473
 20
245.775360107
  0
VERTEX
  8
1
 10
191.842956543
 20
245.775360107
  0
VERTEX
  8
1
 10
191.452468872
 20
245.775360107
  0
VERTEX
  8
1
 10
191.061965942
 20
245.775360107
  0
VERTEX
  8
1
 10
190.671463013
 20
245.775360107
  0
VERTEX
  8
1
 10
190.280960083
 20
245.775360107
  0
VERTEX
  8
1
 10
189.890457153
 20
245.775360107
  0
VERTEX
  8
1
 10
189.499969482
 20
245.775360107
  0
VERTEX
  8
1
 10
189.109466553
 20
245.775360107
  0
VERTEX
  8
1
 10
188.718963623
 20
245.775360107
  0
VERTEX
  8
1
 10
188.328460693
 20
245.775360107
  0
VERTEX
  8
1
 10
187.937957764
 20
245.775360107
  0
VERTEX
  8
1
 10
187.547470093
 20
245.775360107
  0
VERTEX
  8
1
 10
187.156967163
 20
245.775360107
  0
VERTEX
  8
1
 10
186.766464233
 20
245.775360107
  0
VERTEX
  8
1
 10
186.375961304
 20
245.775360107
  0
VERTEX
  8
1
 10
185.985458374
 20
245.775360107
  0
VERTEX
  8
1
 10
185.594970703
 20
245.775360107
  0
VERTEX
  8
1
 10
185.204467773
 20
245.775360107
  0
VERTEX
  8
1
 10
184.813964844
 20
245.775360107
  0
VERTEX
  8
1
 10
184.423461914
 20
245.775360107
  0
VERTEX
  8
1
 10
184.032958984
 20
245.775360107
  0
VERTEX
  8
1
 10
183.642456055
 20
245.775360107
  0
VERTEX
  8
1
 10
183.251968384
 20
245.775360107
  0
VERTEX
  8
1
 10
182.861465454
 20
245.775360107
  0
VERTEX
  8
1
 10
182.470962524
 20
245.775360107
  0
VERTEX
  8
1
 10
182.080459595
 20
245.775360107
  0
VERTEX
  8
1
 10
181.689956665
 20
245.775360107
  0
VERTEX
  8
1
 10
181.299468994
 20
245.775360107
  0
VERTEX
  8
1
 10
180.908966064
 20
245.775360107
  0
SEQEND
  8
1
  0
POLYLINE
  8
1
 62
4
  6
CONTINUOUS
 66
1
  0
VERTEX
  8
1
 10
200.805408937
 20
232.357411308
  0
VERTEX
  8
1
 10
202.065216064
 20
230.775360107
  0
VERTEX
  8
1
 10
201.325024272
 20
232.657411146
  0
SEQEND
  8
1
  0
TEXT
  8
1
 62
4
  6
CONTINUOUS
 72
5
 10
180.908963353
 20
246.795362319
 40
3.200000000
  1
Ｍ６Ｘ１
 41
0.838944635
 11
193.108963353
 21
246.795362319
  0
TEXT
  8
1
 62
4
  6
CONTINUOUS
 72
5
 10
180.908963353
 20
241.695362319
 40
3.200000000
  1
深さ６
 41
0.840958019
 11
189.908963353
 21
241.695362319
  0
LINE
  8
1
 62
7
  6
CONTINUOUS
 10
234.565217391
 20
182.226611539
 11
234.565217391
 21
216.324113099
  0
ARC
  8
1
 62
7
  6
CONTINUOUS
 10
233.565217391
 20
216.324113099
 40
1.000000000
 50
0.000000000
 51
87.137594774
  0
ARC
  8
1
 62
7
  6
CONTINUOUS
 10
233.565217391
 20
182.226611539
 40
1.000000000
 50
272.862405226
 51
0.000000000
  0
LINE
  8
1
 62
7
  6
CONTINUOUS
 10
233.615155008
 20
181.227859200
 11
211.565217391
 21
180.125362319
  0
LINE
  8
1
 62
7
  6
CONTINUOUS
 10
233.615155008
 20
217.322865438
 11
211.565217391
 21
218.425362319
  0
LINE
  8
1
 62
7
  6
CONTINUOUS
 10
211.565217391
 20
218.425362319
 11
210.895107158
 21
218.245806823
  0
LINE
  8
1
 62
7
  6
CONTINUOUS
 10
210.739815731
 20
218.225362319
 11
210.065217391
 21
218.225362319
  0
ARC
  8
1
 62
7
  6
CONTINUOUS
 10
210.739815731
 20
218.825362319
 40
0.600000000
 50
270.000000000
 51
285.000000000
  0
ARC
  8
1
 62
7
  6
CONTINUOUS
 10
210.065217391
 20
218.825362319
 40
0.600000000
 50
213.557309762
 51
270.000000000
  0
LINE
  8
1
 62
7
  6
CONTINUOUS
 10
210.739815731
 20
180.325362319
 11
210.739815731
 21
218.225362319
  0
LINE
  8
1
 62
7
  6
CONTINUOUS
 10
210.065217391
 20
180.325362319
 11
210.065217391
 21
218.225362319
  0
LINE
  8
1
 62
7
  6
CONTINUOUS
 10
210.739815731
 20
180.325362319
 11
210.065217391
 21
180.325362319
  0
ARC
  8
1
 62
7
  6
CONTINUOUS
 10
210.739815731
 20
179.725362319
 40
0.600000000
 50
75.000000000
 51
90.000000000
  0
LINE
  8
1
 62
7
  6
CONTINUOUS
 10
211.565217391
 20
180.125362319
 11
210.895107158
 21
180.304917815
  0
ARC
  8
1
 62
7
  6
CONTINUOUS
 10
210.065217391
 20
179.725362319
 40
0.600000000
 50
90.000000000
 51
146.442690238
  0
LINE
  8
1
 62
7
  6
CONTINUOUS
 10
211.565217391
 20
180.125362319
 11
211.565217391
 21
218.425362319
  0
DIMENSION
  8
1
 62
4
  6
CONTINUOUS
  2
*D180
 70
1
 10
68.893714776
 20
174.525362319
 11
68.893714776
 21
199.275362319
 14
153.008593064
 24
174.525362319
 13
153.008593064
 23
224.025362319
 50
90.000000000
  0
DIMENSION
  8
1
 62
4
  6
CONTINUOUS
  2
*D181
 70
0
 10
202.065217391
 20
245.775362319
 11
205.322513661
 21
245.775362319
 14
202.065217391
 24
232.775362319
 13
209.565217391
 23
230.275362319
 50
0.000000000
  0
DIMENSION
  8
1
 62
4
  6
CONTINUOUS
  2
*D182
 70
1
 10
254.565217391
 20
167.775362319
 11
254.565217391
 21
199.275362319
 14
209.065217391
 24
167.775362319
 13
209.065217391
 23
230.775362319
 50
90.000000000
  0
DIMENSION
  8
1
 62
4
  6
CONTINUOUS
  2
*D183
 70
0
 10
234.565217391
 20
253.775362319
 11
222.065217391
 21
253.775362319
 14
234.565217391
 24
216.324113099
 13
209.565217391
 23
230.275362319
 50
0.000000000
  0
LINE
  8
1
 62
1
  6
CENTER
 10
202.065217391
 20
218.303119132
 11
202.065217391
 21
232.775362319
  0
LINE
  8
1
 62
1
  6
DASHED
 10
204.615217391
 20
229.975362319
 11
204.615217391
 21
221.775362319
  0
DIMENSION
  8
1
 62
4
  6
CONTINUOUS
  2
*D186
 70
0
 10
209.565217391
 20
253.775362319
 11
163.565217391
 21
253.775362319
 14
209.565217391
 24
230.275362319
 13
117.565217391
 23
211.775362319
 50
0.000000000
  0
DIMENSION
  8
1
 62
4
  6
CONTINUOUS
  2
*D187
 70
0
 10
169.065217391
 20
245.775362319
 11
160.315217391
 21
245.775362319
 14
169.065217391
 24
223.525362319
 13
151.565217391
 23
221.525362319
 50
0.000000000
  0
DIMENSION
  8
1
 62
4
  6
CONTINUOUS
  2
*D188
 70
0
 10
151.565217391
 20
245.775362319
 11
134.565217391
 21
245.775362319
 14
151.565217391
 24
221.525362319
 13
117.565217391
 23
211.775362319
 50
0.000000000
  0
DIMENSION
  8
1
 62
4
  6
CONTINUOUS
  2
*D189
 70
0
 10
127.415217391
 20
237.775362319
 11
123.905709497
 21
237.775362319
 14
127.415217391
 24
221.525362308
 13
117.565217391
 23
211.775362319
 50
0.000000000
  0
DIMENSION
  8
1
 62
4
  6
CONTINUOUS
  2
*D190
 70
0
 10
234.565217391
 20
261.775362319
 11
176.065217391
 21
261.775362319
 14
234.565217391
 24
216.324113099
 13
117.565217391
 23
211.775362319
 50
0.000000000
  0
DIMENSION
  8
1
 62
4
  6
CONTINUOUS
  2
*D191
 70
0
 10
117.565217391
 20
261.775362319
 11
110.229466084
 21
261.775362319
 14
117.565217391
 24
211.775362319
 13
102.893714776
 23
202.698012050
 50
0.000000000
  0
LINE
  8
1
 62
1
  6
DASHED
 10
199.515217391
 20
229.975362319
 11
198.715217391
 21
230.775362319
  0
LINE
  8
1
 62
1
  6
DASHED
 10
204.615217391
 20
229.975362319
 11
199.515217391
 21
229.975362319
  0
LINE
  8
1
 62
1
  6
DASHED
 10
199.515217391
 20
229.975362319
 11
199.515217391
 21
221.775362319
  0
LINE
  8
1
 62
1
  6
DASHED
 10
204.615217391
 20
221.775362319
 11
202.065217391
 21
220.303119132
  0
LINE
  8
1
 62
1
  6
DASHED
 10
199.515217391
 20
221.775362319
 11
202.065217391
 21
220.303119132
  0
LINE
  8
1
 62
1
  6
DASHED
 10
204.615217391
 20
221.775362319
 11
199.515217391
 21
221.775362319
  0
LINE
  8
1
 62
1
  6
DASHED
 10
205.065217391
 20
230.425362319
 11
205.065217391
 21
224.775362319
  0
LINE
  8
1
 62
1
  6
DASHED
 10
205.065217391
 20
224.775362319
 11
204.615217391
 21
223.995939455
  0
LINE
  8
1
 62
1
  6
DASHED
 10
199.065217391
 20
230.425362319
 11
199.065217391
 21
224.775362319
  0
LINE
  8
1
 62
1
  6
DASHED
 10
199.065217391
 20
224.775362319
 11
199.515217391
 21
223.995939455
  0
LINE
  8
1
 62
1
  6
DASHED
 10
199.065217391
 20
224.775362319
 11
205.065217391
 21
224.775362319
  0
LINE
  8
1
 62
1
  6
DASHED
 10
204.615217391
 20
229.975362319
 11
205.415217391
 21
230.775362319
  0
ENDSEC
  0
EOF
