  0
SECTION
  2
HEADER
  9
$ACADVER
  1
AC1015
  9
$ACADMAINTVER
 70
     6
  9
$DWGCODEPAGE
  3
DOS932
  9
$INSBASE
 10
0.0
 20
0.0
 30
0.0
  9
$EXTMIN
 10
0.0
 20
0.0
 30
0.0
  9
$EXTMAX
 10
297.0
 20
210.0
 30
0.0
  9
$LIMMIN
 10
0.0
 20
0.0
  9
$LIMMAX
 10
297.0
 20
210.0
  9
$ORTHOMODE
 70
     0
  9
$REGENMODE
 70
     1
  9
$FILLMODE
 70
     1
  9
$QTEXTMODE
 70
     0
  9
$MIRRTEXT
 70
     1
  9
$LTSCALE
 40
1.0
  9
$ATTMODE
 70
     1
  9
$TEXTSIZE
 40
3.2
  9
$TRACEWID
 40
1.0
  9
$TEXTSTYLE
  7
Standard
  9
$CLAYER
  8
0
  9
$CELTYPE
  6
ByLayer
  9
$CECOLOR
 62
   256
  9
$CELTSCALE
 40
1.0
  9
$DISPSILH
 70
     0
  9
$DIMSCALE
 40
1.0
  9
$DIMASZ
 40
2.0
  9
$DIMEXO
 40
0.01
  9
$DIMDLI
 40
3.75
  9
$DIMRND
 40
0.0
  9
$DIMDLE
 40
0.0
  9
$DIMEXE
 40
0.8
  9
$DIMTP
 40
0.0
  9
$DIMTM
 40
0.0
  9
$DIMTXT
 40
3.0
  9
$DIMCEN
 40
2.5
  9
$DIMTSZ
 40
0.0
  9
$DIMTOL
 70
     0
  9
$DIMLIM
 70
     0
  9
$DIMTIH
 70
     1
  9
$DIMTOH
 70
     1
  9
$DIMSE1
 70
     0
  9
$DIMSE2
 70
     0
  9
$DIMTAD
 70
     1
  9
$DIMZIN
 70
     0
  9
$DIMBLK
  1

  9
$DIMASO
 70
     1
  9
$DIMSHO
 70
     1
  9
$DIMPOST
  1

  9
$DIMAPOST
  1

  9
$DIMALT
 70
     0
  9
$DIMALTD
 70
     3
  9
$DIMALTF
 40
0.0393700787
  9
$DIMLFAC
 40
1.0
  9
$DIMTOFL
 70
     1
  9
$DIMTVP
 40
0.0
  9
$DIMTIX
 70
     0
  9
$DIMSOXD
 70
     0
  9
$DIMSAH
 70
     0
  9
$DIMBLK1
  1

  9
$DIMBLK2
  1

  9
$DIMSTYLE
  2
ISO-25
  9
$DIMCLRD
 70
     0
  9
$DIMCLRE
 70
     0
  9
$DIMCLRT
 70
     0
  9
$DIMTFAC
 40
1.0
  9
$DIMGAP
 40
1.0
  9
$DIMJUST
 70
     0
  9
$DIMSD1
 70
     0
  9
$DIMSD2
 70
     0
  9
$DIMTOLJ
 70
     0
  9
$DIMTZIN
 70
     0
  9
$DIMALTZ
 70
     0
  9
$DIMALTTZ
 70
     0
  9
$DIMUPT
 70
     0
  9
$DIMDEC
 70
     3
  9
$DIMTDEC
 70
     2
  9
$DIMALTU
 70
     2
  9
$DIMALTTD
 70
     3
  9
$DIMTXSTY
  7
Standard
  9
$DIMAUNIT
 70
     0
  9
$DIMADEC
 70
     3
  9
$DIMALTRND
 40
0.0
  9
$DIMAZIN
 70
     0
  9
$DIMDSEP
 70
    44
  9
$DIMATFIT
 70
     3
  9
$DIMFRAC
 70
     0
  9
$DIMLDRBLK
  1

  9
$DIMLUNIT
 70
     2
  9
$DIMLWD
 70
    -2
  9
$DIMLWE
 70
    -2
  9
$DIMTMOVE
 70
     0
  9
$LUNITS
 70
     2
  9
$LUPREC
 70
     3
  9
$SKETCHINC
 40
1.0
  9
$FILLETRAD
 40
10.0
  9
$AUNITS
 70
     0
  9
$AUPREC
 70
     3
  9
$MENU
  1
.
  9
$ELEVATION
 40
0.0
  9
$PELEVATION
 40
0.0
  9
$THICKNESS
 40
0.0
  9
$LIMCHECK
 70
     0
  9
$CHAMFERA
 40
10.0
  9
$CHAMFERB
 40
10.0
  9
$CHAMFERC
 40
20.0
  9
$CHAMFERD
 40
0.0
  9
$SKPOLY
 70
     0
  9
$TDCREATE
 40
2456063.671286898
  9
$TDUCREATE
 40
2456063.296286898
  9
$TDUPDATE
 40
2456063.67128691
  9
$TDUUPDATE
 40
2456063.29628691
  9
$TDINDWG
 40
0.0000000116
  9
$TDUSRTIMER
 40
0.0000000116
  9
$USRTIMER
 70
     1
  9
$ANGBASE
 50
0.0
  9
$ANGDIR
 70
     0
  9
$PDMODE
 70
     0
  9
$PDSIZE
 40
-1.0
  9
$PLINEWID
 40
0.0
  9
$SPLFRAME
 70
     0
  9
$SPLINETYPE
 70
     6
  9
$SPLINESEGS
 70
     8
  9
$HANDSEED
  5
132
  9
$SURFTAB1
 70
     6
  9
$SURFTAB2
 70
     6
  9
$SURFTYPE
 70
     6
  9
$SURFU
 70
     6
  9
$SURFV
 70
     6
  9
$UCSBASE
  2

  9
$UCSNAME
  2

  9
$UCSORG
 10
0.0
 20
0.0
 30
0.0
  9
$UCSXDIR
 10
1.0
 20
0.0
 30
0.0
  9
$UCSYDIR
 10
0.0
 20
1.0
 30
0.0
  9
$UCSORTHOREF
  2

  9
$UCSORTHOVIEW
 70
     0
  9
$UCSORGTOP
 10
0.0
 20
0.0
 30
0.0
  9
$UCSORGBOTTOM
 10
0.0
 20
0.0
 30
0.0
  9
$UCSORGLEFT
 10
0.0
 20
0.0
 30
0.0
  9
$UCSORGRIGHT
 10
0.0
 20
0.0
 30
0.0
  9
$UCSORGFRONT
 10
0.0
 20
0.0
 30
0.0
  9
$UCSORGBACK
 10
0.0
 20
0.0
 30
0.0
  9
$PUCSBASE
  2

  9
$PUCSNAME
  2

  9
$PUCSORG
 10
0.0
 20
0.0
 30
0.0
  9
$PUCSXDIR
 10
1.0
 20
0.0
 30
0.0
  9
$PUCSYDIR
 10
0.0
 20
1.0
 30
0.0
  9
$PUCSORTHOREF
  2

  9
$PUCSORTHOVIEW
 70
     0
  9
$PUCSORGTOP
 10
0.0
 20
0.0
 30
0.0
  9
$PUCSORGBOTTOM
 10
0.0
 20
0.0
 30
0.0
  9
$PUCSORGLEFT
 10
0.0
 20
0.0
 30
0.0
  9
$PUCSORGRIGHT
 10
0.0
 20
0.0
 30
0.0
  9
$PUCSORGFRONT
 10
0.0
 20
0.0
 30
0.0
  9
$PUCSORGBACK
 10
0.0
 20
0.0
 30
0.0
  9
$USERI1
 70
     0
  9
$USERI2
 70
     0
  9
$USERI3
 70
     0
  9
$USERI4
 70
     0
  9
$USERI5
 70
     0
  9
$USERR1
 40
0.0
  9
$USERR2
 40
0.0
  9
$USERR3
 40
0.0
  9
$USERR4
 40
0.0
  9
$USERR5
 40
0.0
  9
$WORLDVIEW
 70
     1
  9
$SHADEDGE
 70
     3
  9
$SHADEDIF
 70
    70
  9
$TILEMODE
 70
     1
  9
$MAXACTVP
 70
    64
  9
$PINSBASE
 10
0.0
 20
0.0
 30
0.0
  9
$PLIMCHECK
 70
     0
  9
$PEXTMIN
 10
1.0000000000E+20
 20
1.0000000000E+20
 30
1.0000000000E+20
  9
$PEXTMAX
 10
-1.0000000000E+20
 20
-1.0000000000E+20
 30
-1.0000000000E+20
  9
$PLIMMIN
 10
0.0
 20
0.0
  9
$PLIMMAX
 10
420.0
 20
297.0
  9
$UNITMODE
 70
     0
  9
$VISRETAIN
 70
     1
  9
$PLINEGEN
 70
     0
  9
$PSLTSCALE
 70
     1
  9
$TREEDEPTH
 70
  3020
  9
$CMLSTYLE
  2
Standard
  9
$CMLJUST
 70
     0
  9
$CMLSCALE
 40
20.0
  9
$PROXYGRAPHICS
 70
     1
  9
$MEASUREMENT
 70
     1
  9
$CELWEIGHT
370
    -1
  9
$ENDCAPS
280
     0
  9
$JOINSTYLE
280
     0
  9
$LWDISPLAY
290
     1
  9
$INSUNITS
 70
     4
  9
$HYPERLINKBASE
  1

  9
$STYLESHEET
  1

  9
$XEDIT
290
     1
  9
$CEPSNTYPE
380
     0
  9
$PSTYLEMODE
290
     1
  9
$FINGERPRINTGUID
  2
{E763745B-9665-4A64-ACE0-53520B24D447}
  9
$VERSIONGUID
  2
{FAEB1C32-E019-11D5-929B-00C0DF256EC4}
  9
$EXTNAMES
290
     1
  9
$PSVPSCALE
 40
0.0
  9
$OLESTARTUP
290
     0
  0
ENDSEC
  0
SECTION
  2
CLASSES
  0
CLASS
  1
ACDBDICTIONARYWDFLT
  2
AcDbDictionaryWithDefault
  3
ObjectDBX Classes
 90
        0
280
     0
281
     0
  0
CLASS
  1
VISUALSTYLE
  2
AcDbVisualStyle
  3
ObjectDBX Classes
 90
     4095
280
     0
281
     0
  0
CLASS
  1
MATERIAL
  2
AcDbMaterial
  3
ObjectDBX Classes
 90
     1153
280
     0
281
     0
  0
CLASS
  1
ACDBPLACEHOLDER
  2
AcDbPlaceHolder
  3
ObjectDBX Classes
 90
        0
280
     0
281
     0
  0
CLASS
  1
LAYOUT
  2
AcDbLayout
  3
ObjectDBX Classes
 90
        0
280
     0
281
     0
  0
ENDSEC
  0
SECTION
  2
TABLES
  0
TABLE
  2
VPORT
  5
8
330
0
100
AcDbSymbolTable
 70
     1
  0
VPORT
  5
29
330
8
100
AcDbSymbolTableRecord
100
AcDbViewportTableRecord
  2
*Active
 70
     0
 10
0.0
 20
0.0
 11
1.0
 21
1.0
 12
148.5
 22
105.0
 13
0.0
 23
0.0
 14
10.0
 24
10.0
 15
10.0
 25
10.0
 16
0.0
 26
0.0
 36
1.0
 17
0.0
 27
0.0
 37
0.0
 40
210.0
 41
1.4142857143
 42
50.0
 43
0.0
 44
0.0
 50
0.0
 51
0.0
 71
     0
 72
  2000
 73
     1
 74
     3
 75
     0
 76
     0
 77
     0
 78
     0
281
     0
 65
     1
110
0.0
120
0.0
130
0.0
111
1.0
121
0.0
131
0.0
112
0.0
122
1.0
132
0.0
 79
     0
146
0.0
  0
ENDTAB
  0
TABLE
  2
LTYPE
  5
5
330
0
100
AcDbSymbolTable
 70
     6
  0
LTYPE
  5
14
330
5
100
AcDbSymbolTableRecord
100
AcDbLinetypeTableRecord
  2
ByBlock
 70
     0
  3

 72
    65
 73
     0
 40
0.0
  0
LTYPE
  5
15
330
5
100
AcDbSymbolTableRecord
100
AcDbLinetypeTableRecord
  2
ByLayer
 70
     0
  3

 72
    65
 73
     0
 40
0.0
  0
LTYPE
  5
16
330
5
100
AcDbSymbolTableRecord
100
AcDbLinetypeTableRecord
  2
Continuous
 70
     0
  3
Solid line
 72
    65
 73
     0
 40
0.0
  0
LTYPE
  5
3F
330
5
100
AcDbSymbolTableRecord
100
AcDbLinetypeTableRecord
  2
HIDDEN
 70
     0
  3
Hidden __ __ __ __ __ __ __ __ __ __ __ __ __ __
 72
    65
 73
     2
 40
1.905
 49
1.27
 74
     0
 49
-0.635
 74
     0
  0
LTYPE
  5
40
330
5
100
AcDbSymbolTableRecord
100
AcDbLinetypeTableRecord
  2
PHANTOM
 70
     0
  3
Phantom ______  __  __  ______  __  __  ______
 72
    65
 73
     6
 40
12.7
 49
6.35
 74
     0
 49
-1.27
 74
     0
 49
1.27
 74
     0
 49
-1.27
 74
     0
 49
1.27
 74
     0
 49
-1.27
 74
     0
  0
LTYPE
  5
41
330
5
100
AcDbSymbolTableRecord
100
AcDbLinetypeTableRecord
  2
CENTER
 70
     0
  3
Center ____ _ ____ _ ____ _ ____ _ ____ _ ____
 72
    65
 73
     4
 40
10.16
 49
6.35
 74
     0
 49
-1.27
 74
     0
 49
1.27
 74
     0
 49
-1.27
 74
     0
  0
LTYPE
  5
42
330
5
100
AcDbSymbolTableRecord
100
AcDbLinetypeTableRecord
  2
CENTERX2
 70
     0
  3
Center (2x) ________  __  ________  __  _____
 72
    65
 73
     4
 40
20.32
 49
12.7
 74
     0
 49
-2.54
 74
     0
 49
2.54
 74
     0
 49
-2.54
 74
     0
  0
LTYPE
  5
43
330
5
100
AcDbSymbolTableRecord
100
AcDbLinetypeTableRecord
  2
DOT2
 70
     0
  3
Dot (.5x) ........................................
 72
    65
 73
     2
 40
0.635
 49
0.0
 74
     0
 49
-0.635
 74
     0
  0
ENDTAB
  0
TABLE
  2
LAYER
  5
2
330
0
100
AcDbSymbolTable
 70
     2
  0
LAYER
  5
10
330
2
100
AcDbSymbolTableRecord
100
AcDbLayerTableRecord
  2
0
 70
     0
 62
     7
  6
Continuous
370
    -3
390
F
  0
LAYER
  5
44
330
2
100
AcDbSymbolTableRecord
100
AcDbLayerTableRecord
  2
1
 70
     0
 62
   179
  6
Continuous
370
    -3
390
F
  0
ENDTAB
  0
TABLE
  2
STYLE
  5
3
330
0
100
AcDbSymbolTable
 70
     2
  0
STYLE
  5
11
330
3
100
AcDbSymbolTableRecord
100
AcDbTextStyleTableRecord
  2
Standard
 70
     0
 40
0.0
 41
1.0
 50
0.0
 71
     0
 42
2.5
  3
txt
  4
bigfont
  0
STYLE
  5
D1
330
3
100
AcDbSymbolTableRecord
100
AcDbTextStyleTableRecord
  2
SLDTEXTSTYLE0
 70
     0
 40
0.0
 41
0.7
 50
0.0
 71
     0
 42
0.2
  3
TXT
  4
bigfont
  0
ENDTAB
  0
TABLE
  2
VIEW
  5
6
330
0
100
AcDbSymbolTable
 70
     0
  0
ENDTAB
  0
TABLE
  2
UCS
  5
7
330
0
100
AcDbSymbolTable
 70
     0
  0
ENDTAB
  0
TABLE
  2
APPID
  5
9
330
0
100
AcDbSymbolTable
 70
     1
  0
APPID
  5
12
330
9
100
AcDbSymbolTableRecord
100
AcDbRegAppTableRecord
  2
ACAD
 70
     0
  0
ENDTAB
  0
TABLE
  2
DIMSTYLE
  5
A
330
0
100
AcDbSymbolTable
 70
     5
100
AcDbDimStyleTable
  0
DIMSTYLE
105
27
330
A
100
AcDbSymbolTableRecord
100
AcDbDimStyleTableRecord
  2
ISO-25
 70
     0
 41
2.5
 42
0.625
 43
3.75
 44
1.25
 73
     0
 74
     0
 77
     1
 78
     8
140
2.5
141
2.5
143
0.0393700787
147
0.625
171
     3
172
     1
178
     0
271
     2
272
     2
274
     3
278
    44
283
     0
284
     8
340
11
  0
DIMSTYLE
105
D2
102
{ACAD_REACTORS
330
D0
330
128
102
}
330
A
100
AcDbSymbolTableRecord
100
AcDbDimStyleTableRecord
  2
SLDDIMSTYLE0
 70
     0
 41
2.0
 44
0.0
 45
0.000000001
 73
     0
 74
     0
 77
     3
 78
    12
 79
     3
140
3.0
147
0.75
173
     1
178
     0
271
     3
272
     2
276
     2
284
    12
340
D1
341
D3
343
D3
344
D3
  0
DIMSTYLE
105
E3
102
{ACAD_REACTORS
330
E2
330
EF
102
}
330
A
100
AcDbSymbolTableRecord
100
AcDbDimStyleTableRecord
  2
SLDDIMSTYLE1
 70
     0
 41
2.0
 44
0.0
 45
0.000000001
 73
     0
 74
     0
 77
     3
 78
    12
 79
     3
140
3.0
147
0.75
173
     1
178
     0
271
     1
272
     2
276
     2
284
    12
340
D1
341
D3
343
D3
344
D3
  0
DIMSTYLE
105
FC
102
{ACAD_REACTORS
330
FB
330
11C
102
}
330
A
100
AcDbSymbolTableRecord
100
AcDbDimStyleTableRecord
  2
SLDDIMSTYLE2
 70
     0
 41
2.0
 44
0.0
 45
0.000000001
 73
     0
 74
     0
 77
     3
 78
    12
 79
     3
140
3.0
147
0.75
172
     1
173
     1
178
     0
271
     3
272
     2
276
     2
284
    12
289
     0
340
D1
341
D3
343
D3
344
D3
  0
DIMSTYLE
105
10A
102
{ACAD_REACTORS
330
109
102
}
330
A
100
AcDbSymbolTableRecord
100
AcDbDimStyleTableRecord
  2
SLDDIMSTYLE3
 70
     0
 41
2.0
 44
0.0
 45
0.000000001
 48
0.01
 71
     1
 73
     0
 74
     0
 77
     3
 78
    12
 79
     3
140
3.0
147
0.75
172
     1
173
     1
178
     0
271
     3
272
     2
276
     2
284
     8
289
     0
340
D1
341
D3
343
D3
344
D3
  0
ENDTAB
  0
TABLE
  2
BLOCK_RECORD
  5
1
330
0
100
AcDbSymbolTable
 70
     9
  0
BLOCK_RECORD
  5
1F
330
1
100
AcDbSymbolTableRecord
100
AcDbBlockTableRecord
  2
*Model_Space
340
22
  0
BLOCK_RECORD
  5
1B
330
1
100
AcDbSymbolTableRecord
100
AcDbBlockTableRecord
  2
*Paper_Space
340
1E
  0
BLOCK_RECORD
  5
23
330
1
100
AcDbSymbolTableRecord
100
AcDbBlockTableRecord
  2
*Paper_Space0
340
26
  0
BLOCK_RECORD
  5
D3
330
1
100
AcDbSymbolTableRecord
100
AcDbBlockTableRecord
  2
_OPEN30
340
0
102
{BLKREFS
331
DC
331
DD
331
E9
331
EA
331
F5
331
F6
331
100
331
101
331
10E
331
10F
331
120
331
121
331
12C
331
12D
102
}
  0
BLOCK_RECORD
  5
D9
330
1
100
AcDbSymbolTableRecord
100
AcDbBlockTableRecord
  2
*D2
340
0
  0
BLOCK_RECORD
  5
E4
330
1
100
AcDbSymbolTableRecord
100
AcDbBlockTableRecord
  2
*D3
340
0
  0
BLOCK_RECORD
  5
F0
330
1
100
AcDbSymbolTableRecord
100
AcDbBlockTableRecord
  2
*D4
340
0
  0
BLOCK_RECORD
  5
FD
330
1
100
AcDbSymbolTableRecord
100
AcDbBlockTableRecord
  2
*D5
340
0
  0
BLOCK_RECORD
  5
10B
330
1
100
AcDbSymbolTableRecord
100
AcDbBlockTableRecord
  2
*D6
340
0
  0
BLOCK_RECORD
  5
11D
330
1
100
AcDbSymbolTableRecord
100
AcDbBlockTableRecord
  2
*D7
340
0
  0
BLOCK_RECORD
  5
129
330
1
100
AcDbSymbolTableRecord
100
AcDbBlockTableRecord
  2
*D8
340
0
  0
ENDTAB
  0
ENDSEC
  0
SECTION
  2
BLOCKS
  0
BLOCK
  5
20
330
1F
100
AcDbEntity
  8
0
100
AcDbBlockBegin
  2
*Model_Space
 70
     0
 10
0.0
 20
0.0
 30
0.0
  3
*Model_Space
  1

  0
ENDBLK
  5
21
330
1F
100
AcDbEntity
  8
0
100
AcDbBlockEnd
  0
BLOCK
  5
1C
330
1B
100
AcDbEntity
 67
     1
  8
0
100
AcDbBlockBegin
  2
*Paper_Space
 70
     0
 10
0.0
 20
0.0
 30
0.0
  3
*Paper_Space
  1

  0
ENDBLK
  5
1D
330
1B
100
AcDbEntity
 67
     1
  8
0
100
AcDbBlockEnd
  0
BLOCK
  5
24
330
23
100
AcDbEntity
  8
0
100
AcDbBlockBegin
  2
*Paper_Space0
 70
     0
 10
0.0
 20
0.0
 30
0.0
  3
*Paper_Space0
  1

  0
ENDBLK
  5
25
330
23
100
AcDbEntity
  8
0
100
AcDbBlockEnd
  0
BLOCK
  5
D4
330
D3
100
AcDbEntity
  8
0
100
AcDbBlockBegin
  2
_OPEN30
 70
     0
 10
0.0
 20
0.0
 30
0.0
  3
_OPEN30
  1

  0
LINE
  5
D6
330
D3
100
AcDbEntity
  8
0
  6
ByBlock
 62
     0
370
    -2
100
AcDbLine
 10
-1.0
 20
0.267949
 30
0.0
 11
0.0
 21
0.0
 31
0.0
  0
LINE
  5
D7
330
D3
100
AcDbEntity
  8
0
  6
ByBlock
 62
     0
370
    -2
100
AcDbLine
 10
0.0
 20
0.0
 30
0.0
 11
-1.0
 21
-0.267949
 31
0.0
  0
LINE
  5
D8
330
D3
100
AcDbEntity
  8
0
  6
ByBlock
 62
     0
370
    -2
100
AcDbLine
 10
0.0
 20
0.0
 30
0.0
 11
-1.0
 21
0.0
 31
0.0
  0
ENDBLK
  5
D5
330
D3
100
AcDbEntity
  8
0
100
AcDbBlockEnd
  0
BLOCK
  5
DA
330
D9
100
AcDbEntity
  8
0
100
AcDbBlockBegin
  2
*D2
 70
     1
 10
0.0
 20
0.0
 30
0.0
  3
*D2
  1

  0
INSERT
  5
DC
330
D9
100
AcDbEntity
  8
1
100
AcDbBlockReference
  2
_OPEN30
 10
99.5870079671
 20
82.5202589327
 30
0.1
 41
2.0
 42
2.0
 50
180.0
  0
INSERT
  5
DD
330
D9
100
AcDbEntity
  8
1
100
AcDbBlockReference
  2
_OPEN30
 10
111.0870079671
 20
82.5202589327
 30
0.1
 41
2.0
 42
2.0
 50
0.0
  0
LINE
  5
DE
330
D9
100
AcDbEntity
  8
1
100
AcDbLine
 10
99.5870079671
 20
102.9615998159
 30
0.0
 11
99.5870079671
 21
81.7202589327
 31
0.0
  0
LINE
  5
DF
330
D9
100
AcDbEntity
  8
1
100
AcDbLine
 10
111.0870079671
 20
101.2842495467
 30
0.0
 11
111.0870079671
 21
81.7202589327
 31
0.0
  0
LINE
  5
E0
330
D9
100
AcDbEntity
  8
1
100
AcDbLine
 10
99.5870079671
 20
82.5202589327
 30
0.0
 11
111.0870079671
 21
82.5202589327
 31
0.0
  0
MTEXT
  5
E1
330
D9
100
AcDbEntity
  8
1
100
AcDbMText
 10
101.3140911882
 20
86.3874620938
 30
0.1
 40
3.0
 41
0.0
 71
     1
 72
     1
  1
11.5
  7
SLDTEXTSTYLE0
 73
     1
 44
1.0
  0
ENDBLK
  5
DB
330
D9
100
AcDbEntity
  8
0
100
AcDbBlockEnd
  0
BLOCK
  5
E5
330
E4
100
AcDbEntity
  8
0
100
AcDbBlockBegin
  2
*D3
 70
     1
 10
0.0
 20
0.0
 30
0.0
  3
*D3
  1

  0
ARC
  5
E7
330
E4
100
AcDbEntity
  8
1
100
AcDbCircle
 10
107.3915091501
 20
76.160449867
 30
0.0
 40
3.903801973788706
100
AcDbArc
 50
153.4349488229
 51
206.5650511771
  0
ARC
  5
E8
330
E4
100
AcDbEntity
  8
1
100
AcDbCircle
 10
106.3540092828
 20
76.160449867
 30
0.0
 40
3.903801973788706
100
AcDbArc
 50
333.4349488229
 51
26.5650511771
  0
INSERT
  5
E9
330
E4
100
AcDbEntity
  8
1
100
AcDbBlockReference
  2
_OPEN30
 10
99.5870079671
 20
74.4146165502
 30
0.1
 41
2.0
 42
2.0
 50
180.0
  0
INSERT
  5
EA
330
E4
100
AcDbEntity
  8
1
100
AcDbBlockReference
  2
_OPEN30
 10
114.1585105822
 20
74.4146165502
 30
0.1
 41
2.0
 42
2.0
 50
0.0
  0
LINE
  5
EB
330
E4
100
AcDbEntity
  8
1
100
AcDbLine
 10
99.5870079671
 20
102.9615998159
 30
0.0
 11
99.5870079671
 21
73.6146165502
 31
0.0
  0
LINE
  5
EC
330
E4
100
AcDbEntity
  8
1
100
AcDbLine
 10
114.1585105822
 20
95.6842495467
 30
0.0
 11
114.1585105822
 21
73.6146165502
 31
0.0
  0
LINE
  5
ED
330
E4
100
AcDbEntity
  8
1
100
AcDbLine
 10
99.5870079671
 20
74.4146165502
 30
0.0
 11
114.1585105822
 21
74.4146165502
 31
0.0
  0
MTEXT
  5
EE
330
E4
100
AcDbEntity
  8
1
100
AcDbMText
 10
103.8998425165
 20
78.2818197113
 30
0.1
 40
3.0
 41
0.0
 71
     1
 72
     1
  1
14.6
  7
SLDTEXTSTYLE0
 73
     1
 44
1.0
  0
ENDBLK
  5
E6
330
E4
100
AcDbEntity
  8
0
100
AcDbBlockEnd
  0
BLOCK
  5
F1
330
F0
100
AcDbEntity
  8
0
100
AcDbBlockBegin
  2
*D4
 70
     1
 10
0.0
 20
0.0
 30
0.0
  3
*D4
  1

  0
ARC
  5
F3
330
F0
100
AcDbEntity
  8
1
100
AcDbCircle
 10
150.4087385672
 20
68.3173075043
 30
0.0
 40
3.903801973788706
100
AcDbArc
 50
153.4349488229
 51
206.5650511771
  0
ARC
  5
F4
330
F0
100
AcDbEntity
  8
1
100
AcDbCircle
 10
151.1170717838
 20
68.3173075043
 30
0.0
 40
3.903801973788706
100
AcDbArc
 50
333.4349488229
 51
26.5650511771
  0
INSERT
  5
F5
330
F0
100
AcDbEntity
  8
1
100
AcDbBlockReference
  2
_OPEN30
 10
99.5870079671
 20
66.5714741875
 30
0.1
 41
2.0
 42
2.0
 50
180.0
  0
INSERT
  5
F6
330
F0
100
AcDbEntity
  8
1
100
AcDbBlockReference
  2
_OPEN30
 10
203.9585105822
 20
66.5714741875
 30
0.1
 41
2.0
 42
2.0
 50
0.0
  0
LINE
  5
F7
330
F0
100
AcDbEntity
  8
1
100
AcDbLine
 10
99.5870079671
 20
102.9615998159
 30
0.0
 11
99.5870079671
 21
65.7714741875
 31
0.0
  0
LINE
  5
F8
330
F0
100
AcDbEntity
  8
1
100
AcDbLine
 10
203.9585105822
 20
98.4342495467
 30
0.0
 11
203.9585105822
 21
65.7714741875
 31
0.0
  0
LINE
  5
F9
330
F0
100
AcDbEntity
  8
1
100
AcDbLine
 10
99.5870079671
 20
66.5714741875
 30
0.0
 11
203.9585105822
 21
66.5714741875
 31
0.0
  0
MTEXT
  5
FA
330
F0
100
AcDbEntity
  8
1
100
AcDbMText
 10
146.9170719336
 20
70.4386773486
 30
0.1
 40
3.0
 41
0.0
 71
     1
 72
     1
  1
104.4
  7
SLDTEXTSTYLE0
 73
     1
 44
1.0
  0
ENDBLK
  5
F2
330
F0
100
AcDbEntity
  8
0
100
AcDbBlockEnd
  0
BLOCK
  5
FE
330
FD
100
AcDbEntity
  8
0
100
AcDbBlockBegin
  2
*D5
 70
     1
 10
0.0
 20
0.0
 30
0.0
  3
*D5
  1

  0
INSERT
  5
100
330
FD
100
AcDbEntity
  8
1
100
AcDbBlockReference
  2
_OPEN30
 10
76.5870079671
 20
100.4942495467
 30
0.1
 41
2.0
 42
2.0
 50
90.0
  0
INSERT
  5
101
330
FD
100
AcDbEntity
  8
1
100
AcDbBlockReference
  2
_OPEN30
 10
76.5870079671
 20
112.2942495467
 30
0.1
 41
2.0
 42
2.0
 50
270.0
  0
LINE
  5
102
330
FD
100
AcDbEntity
  8
1
100
AcDbLine
 10
103.1358536939
 20
100.4942495467
 30
0.0
 11
75.7870079671
 21
100.4942495467
 31
0.0
  0
LINE
  5
103
330
FD
100
AcDbEntity
  8
1
100
AcDbLine
 10
103.1358536939
 20
112.2942495467
 30
0.0
 11
75.7870079671
 21
112.2942495467
 31
0.0
  0
LINE
  5
104
330
FD
100
AcDbEntity
  8
1
100
AcDbLine
 10
76.5870079671
 20
100.4942495467
 30
0.0
 11
76.5870079671
 21
97.4942495467
 31
0.0
  0
LINE
  5
105
330
FD
100
AcDbEntity
  8
1
100
AcDbLine
 10
76.5870079671
 20
100.4942495467
 30
0.0
 11
76.5870079671
 21
112.2942495467
 31
0.0
  0
LINE
  5
106
330
FD
100
AcDbEntity
  8
1
100
AcDbLine
 10
76.5870079671
 20
112.2942495467
 30
0.0
 11
76.5870079671
 21
115.2942495467
 31
0.0
  0
MTEXT
  5
107
330
FD
100
AcDbEntity
  8
1
100
AcDbMText
 10
72.719804806
 20
100.7127916174
 30
0.1
 40
3.0
 41
0.0
 71
     1
 72
     1
  1
%%c
  7
SLDTEXTSTYLE0
 11
6.123233995736766E-17
 21
1.0
 31
0.0
 73
     1
 44
1.0
  0
MTEXT
  5
108
330
FD
100
AcDbEntity
  8
1
100
AcDbMText
 10
72.719804806
 20
104.0298748495
 30
0.1
 40
3.0
 41
0.0
 71
     1
 72
     1
  1
11.8
  7
SLDTEXTSTYLE0
 11
6.123233995736766E-17
 21
1.0
 31
0.0
 73
     1
 44
1.0
  0
ENDBLK
  5
FF
330
FD
100
AcDbEntity
  8
0
100
AcDbBlockEnd
  0
BLOCK
  5
10C
330
10B
100
AcDbEntity
  8
0
100
AcDbBlockBegin
  2
*D6
 70
     1
 10
0.0
 20
0.0
 30
0.0
  3
*D6
  1

  0
INSERT
  5
10E
330
10B
100
AcDbEntity
  8
1
100
AcDbBlockReference
  2
_OPEN30
 10
67.4217151227
 20
118.8942495467
 30
0.1
 41
2.0
 42
2.0
 50
270.0
  0
INSERT
  5
10F
330
10B
100
AcDbEntity
  8
1
100
AcDbBlockReference
  2
_OPEN30
 10
67.4217151227
 20
93.8942495467
 30
0.1
 41
2.0
 42
2.0
 50
90.0
  0
LINE
  5
110
330
10B
100
AcDbEntity
  8
1
100
AcDbLine
 10
121.2485105822
 20
118.8942495467
 30
0.0
 11
66.6217151227
 21
118.8942495467
 31
0.0
  0
LINE
  5
111
330
10B
100
AcDbEntity
  8
1
100
AcDbLine
 10
121.2485105822
 20
93.8942495467
 30
0.0
 11
66.6217151227
 21
93.8942495467
 31
0.0
  0
LINE
  5
112
330
10B
100
AcDbEntity
  8
1
100
AcDbLine
 10
67.4217151227
 20
118.8942495467
 30
0.0
 11
67.4217151227
 21
121.8942495467
 31
0.0
  0
LINE
  5
113
330
10B
100
AcDbEntity
  8
1
100
AcDbLine
 10
67.4217151227
 20
118.8942495467
 30
0.0
 11
67.4217151227
 21
93.8942495467
 31
0.0
  0
LINE
  5
114
330
10B
100
AcDbEntity
  8
1
100
AcDbLine
 10
67.4217151227
 20
93.8942495467
 30
0.0
 11
67.4217151227
 21
90.8942495467
 31
0.0
  0
MTEXT
  5
115
330
10B
100
AcDbEntity
  8
1
100
AcDbMText
 10
63.5545119616
 20
98.3319576563
 30
0.1
 40
3.0
 41
0.0
 71
     1
 72
     1
  1
%%c
  7
SLDTEXTSTYLE0
 11
-7.044195017643634E-15
 21
1.0
 31
0.0
 73
     1
 44
1.0
  0
MTEXT
  5
116
330
10B
100
AcDbEntity
  8
1
100
AcDbMText
 10
63.5545119616
 20
101.6490408884
 30
0.1
 40
3.0
 41
0.0
 71
     1
 72
     1
  1
25
  7
SLDTEXTSTYLE0
 11
-7.044195017643634E-15
 21
1.0
 31
0.0
 73
     1
 44
1.0
  0
MTEXT
  5
117
330
10B
100
AcDbEntity
  8
1
100
AcDbMText
 10
63.5545119616
 20
108.2719572144
 30
0.1
 40
3.0
 41
0.0
 71
     1
 72
     1
  1

  7
SLDTEXTSTYLE0
 11
-7.044195017643634E-15
 21
1.0
 31
0.0
 73
     1
 44
1.0
  0
MTEXT
  5
118
330
10B
100
AcDbEntity
  8
1
100
AcDbMText
 10
61.4362860003
 20
109.4015408144
 30
0.1
 40
2.4
 41
0.0
 71
     1
 72
     1
  1

  7
SLDTEXTSTYLE0
 11
-7.044195017643634E-15
 21
1.0
 31
0.0
 73
     1
 44
1.0
  0
MTEXT
  5
119
330
10B
100
AcDbEntity
  8
1
100
AcDbMText
 10
64.2296192606
 20
108.3032075049
 30
0.1
 40
2.4
 41
0.0
 71
     1
 72
     1
  1
-
  7
SLDTEXTSTYLE0
 11
-7.044195017643634E-15
 21
1.0
 31
0.0
 73
     1
 44
1.0
  0
MTEXT
  5
11A
330
10B
100
AcDbEntity
  8
1
100
AcDbMText
 10
61.4362860003
 20
109.6998737858
 30
0.1
 40
2.4
 41
0.0
 71
     1
 72
     1
  1
0
  7
SLDTEXTSTYLE0
 11
-7.044195017643634E-15
 21
1.0
 31
0.0
 73
     1
 44
1.0
  0
MTEXT
  5
11B
330
10B
100
AcDbEntity
  8
1
100
AcDbMText
 10
64.2296192606
 20
109.6998737858
 30
0.1
 40
2.4
 41
0.0
 71
     1
 72
     1
  1
0.01
  7
SLDTEXTSTYLE0
 11
-7.044195017643634E-15
 21
1.0
 31
0.0
 73
     1
 44
1.0
  0
ENDBLK
  5
10D
330
10B
100
AcDbEntity
  8
0
100
AcDbBlockEnd
  0
BLOCK
  5
11E
330
11D
100
AcDbEntity
  8
0
100
AcDbBlockBegin
  2
*D7
 70
     1
 10
0.0
 20
0.0
 30
0.0
  3
*D7
  1

  0
INSERT
  5
120
330
11D
100
AcDbEntity
  8
1
100
AcDbBlockReference
  2
_OPEN30
 10
195.8585105822
 20
74.4146165502
 30
0.1
 41
2.0
 42
2.0
 50
0.0
  0
INSERT
  5
121
330
11D
100
AcDbEntity
  8
1
100
AcDbBlockReference
  2
_OPEN30
 10
203.9585105822
 20
74.4146165502
 30
0.1
 41
2.0
 42
2.0
 50
180.0
  0
LINE
  5
122
330
11D
100
AcDbEntity
  8
1
100
AcDbLine
 10
195.8585105822
 20
95.5342495467
 30
0.0
 11
195.8585105822
 21
73.6146165502
 31
0.0
  0
LINE
  5
123
330
11D
100
AcDbEntity
  8
1
100
AcDbLine
 10
203.9585105822
 20
98.4342495467
 30
0.0
 11
203.9585105822
 21
73.6146165502
 31
0.0
  0
LINE
  5
124
330
11D
100
AcDbEntity
  8
1
100
AcDbLine
 10
195.8585105822
 20
74.4146165502
 30
0.0
 11
192.8585105822
 21
74.4146165502
 31
0.0
  0
LINE
  5
125
330
11D
100
AcDbEntity
  8
1
100
AcDbLine
 10
195.8585105822
 20
74.4146165502
 30
0.0
 11
203.9585105822
 21
74.4146165502
 31
0.0
  0
LINE
  5
126
330
11D
100
AcDbEntity
  8
1
100
AcDbLine
 10
203.9585105822
 20
74.4146165502
 30
0.0
 11
206.9585105822
 21
74.4146165502
 31
0.0
  0
MTEXT
  5
127
330
11D
100
AcDbEntity
  8
1
100
AcDbMText
 10
196.7585103453
 20
78.2818197113
 30
0.1
 40
3.0
 41
0.0
 71
     1
 72
     1
  1
8.1
  7
SLDTEXTSTYLE0
 73
     1
 44
1.0
  0
ENDBLK
  5
11F
330
11D
100
AcDbEntity
  8
0
100
AcDbBlockEnd
  0
BLOCK
  5
12A
330
129
100
AcDbEntity
  8
0
100
AcDbBlockBegin
  2
*D8
 70
     1
 10
0.0
 20
0.0
 30
0.0
  3
*D8
  1

  0
INSERT
  5
12C
330
129
100
AcDbEntity
  8
1
100
AcDbBlockReference
  2
_OPEN30
 10
195.8585105822
 20
74.4146165502
 30
0.1
 41
2.0
 42
2.0
 50
0.0
  0
INSERT
  5
12D
330
129
100
AcDbEntity
  8
1
100
AcDbBlockReference
  2
_OPEN30
 10
114.1585105822
 20
74.4146165502
 30
0.1
 41
2.0
 42
2.0
 50
180.0
  0
LINE
  5
12E
330
129
100
AcDbEntity
  8
1
100
AcDbLine
 10
195.8585105822
 20
95.5342495467
 30
0.0
 11
195.8585105822
 21
73.6146165502
 31
0.0
  0
LINE
  5
12F
330
129
100
AcDbEntity
  8
1
100
AcDbLine
 10
114.1585105822
 20
95.6842495467
 30
0.0
 11
114.1585105822
 21
73.6146165502
 31
0.0
  0
LINE
  5
130
330
129
100
AcDbEntity
  8
1
100
AcDbLine
 10
195.8585105822
 20
74.4146165502
 30
0.0
 11
114.1585105822
 21
74.4146165502
 31
0.0
  0
MTEXT
  5
131
330
129
100
AcDbEntity
  8
1
100
AcDbMText
 10
150.9855938033
 20
78.2818197113
 30
0.1
 40
3.0
 41
0.0
 71
     1
 72
     1
  1
81.7
  7
SLDTEXTSTYLE0
 73
     1
 44
1.0
  0
ENDBLK
  5
12B
330
129
100
AcDbEntity
  8
0
100
AcDbBlockEnd
  0
ENDSEC
  0
SECTION
  2
ENTITIES
  0
LINE
  5
45
330
1F
100
AcDbEntity
  8
0
  6
Continuous
 62
     7
370
    30
100
AcDbLine
 10
121.2585103885
 20
93.8942493604
 30
0.0
 11
178.258512281
 21
93.8942493604
 31
0.0
  0
LINE
  5
46
330
1F
100
AcDbEntity
  8
0
  6
Continuous
 62
     7
370
    30
100
AcDbLine
 10
178.258512281
 20
118.894249733
 30
0.0
 11
121.2585103885
 21
118.894249733
 31
0.0
  0
LINE
  5
47
330
1F
100
AcDbEntity
  8
0
  6
Continuous
 62
     7
370
    30
100
AcDbLine
 10
119.3392662053
 20
93.9042499022
 30
0.0
 11
121.2585103885
 21
93.9042499022
 31
0.0
  0
LINE
  5
48
330
1F
100
AcDbEntity
  8
0
  6
Continuous
 62
     7
370
    30
100
AcDbLine
 10
121.2585103885
 20
118.8842491912
 30
0.0
 11
119.3392662053
 21
118.8842491912
 31
0.0
  0
LINE
  5
49
330
1F
100
AcDbEntity
  8
0
  6
Continuous
 62
     7
370
    30
100
AcDbLine
 10
178.258512281
 20
93.9042499022
 30
0.0
 11
193.2585091517
 21
93.9042499022
 31
0.0
  0
LINE
  5
4A
330
1F
100
AcDbEntity
  8
0
  6
Continuous
 62
     7
370
    30
100
AcDbLine
 10
193.2585091517
 20
118.8842491912
 30
0.0
 11
178.258512281
 21
118.8842491912
 31
0.0
  0
LINE
  5
4B
330
1F
100
AcDbEntity
  8
0
  6
Continuous
 62
     7
370
    30
100
AcDbLine
 10
119.3392662053
 20
118.8842491912
 30
0.0
 11
116.7585105822
 21
117.3942494871
 31
0.0
  0
LINE
  5
4C
330
1F
100
AcDbEntity
  8
0
  6
Continuous
 62
     7
370
    30
100
AcDbLine
 10
116.7585105822
 20
95.3942496063
 30
0.0
 11
119.3392662053
 21
93.9042499022
 31
0.0
  0
LINE
  5
4D
330
1F
100
AcDbEntity
  8
0
  6
Continuous
 62
     7
370
    30
100
AcDbLine
 10
193.2585091517
 20
93.9042499022
 30
0.0
 11
193.55851423
 21
94.2042493926
 31
0.0
  0
LINE
  5
4E
330
1F
100
AcDbEntity
  8
0
  6
Continuous
 62
     7
370
    30
100
AcDbLine
 10
193.55851423
 20
118.5842497008
 30
0.0
 11
193.2585091517
 21
118.8842491912
 31
0.0
  0
LINE
  5
4F
330
1F
100
AcDbEntity
  8
0
  6
Continuous
 62
     7
370
    30
100
AcDbLine
 10
111.0870080256
 20
101.6942496145
 30
0.0
 11
111.4585107379
 21
101.6942496145
 31
0.0
  0
LINE
  5
50
330
1F
100
AcDbEntity
  8
0
  6
Continuous
 62
     7
370
    30
100
AcDbLine
 10
111.4585107379
 20
111.0942494789
 30
0.0
 11
111.0870080256
 21
111.0942494789
 31
0.0
  0
LINE
  5
51
330
1F
100
AcDbEntity
  8
0
  6
Continuous
 62
     7
370
    30
100
AcDbLine
 10
111.4585107379
 20
101.6942496145
 30
0.0
 11
111.5585105681
 21
101.7942494446
 31
0.0
  0
LINE
  5
52
330
1F
100
AcDbEntity
  8
0
  6
Continuous
 62
     7
370
    30
100
AcDbLine
 10
111.5585105681
 20
110.9942496488
 30
0.0
 11
111.4585107379
 21
111.0942494789
 31
0.0
  0
LINE
  5
53
330
1F
100
AcDbEntity
  8
0
  6
Continuous
 62
     7
370
    30
100
AcDbLine
 10
114.0585105122
 20
101.7942494446
 30
0.0
 11
114.1585105751
 21
101.7942494446
 31
0.0
  0
LINE
  5
54
330
1F
100
AcDbEntity
  8
0
  6
Continuous
 62
     7
370
    30
100
AcDbLine
 10
111.5585105681
 20
101.7942494446
 30
0.0
 11
111.6585103982
 21
101.7942494446
 31
0.0
  0
LINE
  5
55
330
1F
100
AcDbEntity
  8
0
  6
Continuous
 62
     7
370
    30
100
AcDbLine
 10
111.6585103982
 20
110.9942496488
 30
0.0
 11
111.5585105681
 21
110.9942496488
 31
0.0
  0
LINE
  5
56
330
1F
100
AcDbEntity
  8
0
  6
Continuous
 62
     7
370
    30
100
AcDbLine
 10
114.1585105751
 20
110.9942496488
 30
0.0
 11
114.0585105122
 21
110.9942496488
 31
0.0
  0
LINE
  5
57
330
1F
100
AcDbEntity
  8
0
  6
Continuous
 62
     7
370
    30
100
AcDbLine
 10
195.5445111916
 20
95.4442495214
 30
0.0
 11
195.7585142181
 21
95.4442495214
 31
0.0
  0
LINE
  5
58
330
1F
100
AcDbEntity
  8
0
  6
Continuous
 62
     7
370
    30
100
AcDbLine
 10
193.6585084722
 20
95.4442495214
 30
0.0
 11
193.8725934551
 21
95.4442495214
 31
0.0
  0
LINE
  5
59
330
1F
100
AcDbEntity
  8
0
  6
Continuous
 62
     7
370
    30
100
AcDbLine
 10
193.8725189493
 20
117.344249572
 30
0.0
 11
193.6585084722
 21
117.344249572
 31
0.0
  0
LINE
  5
5A
330
1F
100
AcDbEntity
  8
0
  6
Continuous
 62
     7
370
    30
100
AcDbLine
 10
195.7585142181
 20
117.344249572
 30
0.0
 11
195.5444739387
 21
117.344249572
 31
0.0
  0
LINE
  5
5B
330
1F
100
AcDbEntity
  8
0
  6
Continuous
 62
     7
370
    30
100
AcDbLine
 10
195.7585142181
 20
95.4442495214
 30
0.0
 11
195.8585084603
 21
95.5442493515
 31
0.0
  0
LINE
  5
5C
330
1F
100
AcDbEntity
  8
0
  6
Continuous
 62
     7
370
    30
100
AcDbLine
 10
195.8585084603
 20
117.2442497419
 30
0.0
 11
195.7585142181
 21
117.344249572
 31
0.0
  0
LINE
  5
5D
330
1F
100
AcDbEntity
  8
0
  6
Continuous
 62
     7
370
    30
100
AcDbLine
 10
193.6585084722
 20
117.344249572
 30
0.0
 11
193.55851423
 21
117.2442497419
 31
0.0
  0
LINE
  5
5E
330
1F
100
AcDbEntity
  8
0
  6
Continuous
 62
     7
370
    30
100
AcDbLine
 10
193.55851423
 20
95.5442493515
 30
0.0
 11
193.6585084722
 21
95.4442495214
 31
0.0
  0
LINE
  5
5F
330
1F
100
AcDbEntity
  8
0
  6
Continuous
 62
     7
370
    30
100
AcDbLine
 10
197.1585081146
 20
97.9442499312
 30
0.0
 11
199.658513181
 21
97.9442499312
 31
0.0
  0
LINE
  5
60
330
1F
100
AcDbEntity
  8
0
  6
Continuous
 62
     7
370
    30
100
AcDbLine
 10
199.658513181
 20
114.8442491623
 30
0.0
 11
197.1585081146
 21
114.8442491623
 31
0.0
  0
LINE
  5
61
330
1F
100
AcDbEntity
  8
0
  6
Continuous
 62
     7
370
    30
100
AcDbLine
 10
199.658513181
 20
97.9442499312
 30
0.0
 11
199.9585108087
 21
98.2442494215
 31
0.0
  0
LINE
  5
62
330
1F
100
AcDbEntity
  8
0
  6
Continuous
 62
     7
370
    30
100
AcDbLine
 10
199.9585108087
 20
114.5442496719
 30
0.0
 11
199.658513181
 21
114.8442491623
 31
0.0
  0
LINE
  5
63
330
1F
100
AcDbEntity
  8
0
  6
Continuous
 62
     7
370
    30
100
AcDbLine
 10
199.9585108087
 20
98.2442494215
 30
0.0
 11
203.7585080788
 21
98.2442494215
 31
0.0
  0
LINE
  5
64
330
1F
100
AcDbEntity
  8
0
  6
Continuous
 62
     7
370
    30
100
AcDbLine
 10
203.7585080788
 20
114.5442496719
 30
0.0
 11
199.9585108087
 21
114.5442496719
 31
0.0
  0
LINE
  5
65
330
1F
100
AcDbEntity
  8
0
  6
Continuous
 62
     7
370
    30
100
AcDbLine
 10
203.7585080788
 20
98.2442494215
 30
0.0
 11
203.9585114644
 21
98.4442490818
 31
0.0
  0
LINE
  5
66
330
1F
100
AcDbEntity
  8
0
  6
Continuous
 62
     7
370
    30
100
AcDbLine
 10
203.9585114644
 20
114.3442500116
 30
0.0
 11
203.7585080788
 21
114.5442496719
 31
0.0
  0
LINE
  5
67
330
1F
100
AcDbEntity
  8
0
  6
Continuous
 62
     7
370
    30
100
AcDbLine
 10
196.8585104869
 20
98.3942491667
 30
0.0
 11
197.1585081146
 21
98.3942491667
 31
0.0
  0
LINE
  5
68
330
1F
100
AcDbEntity
  8
0
  6
Continuous
 62
     7
370
    30
100
AcDbLine
 10
197.1585081146
 20
114.3942499267
 30
0.0
 11
196.8585104869
 21
114.3942499267
 31
0.0
  0
LINE
  5
69
330
1F
100
AcDbEntity
  8
0
  6
Continuous
 62
     7
370
    30
100
AcDbLine
 10
114.3585104682
 20
117.294249657
 30
0.0
 11
114.1585105751
 21
117.0942499967
 31
0.0
  0
LINE
  5
6A
330
1F
100
AcDbEntity
  8
0
  6
Continuous
 62
     7
370
    30
100
AcDbLine
 10
114.1585105751
 20
95.6942490967
 30
0.0
 11
114.3585104682
 21
95.4942494364
 31
0.0
  0
LINE
  5
6B
330
1F
100
AcDbEntity
  8
0
  6
Continuous
 62
     7
370
    30
100
AcDbLine
 10
116.458510568
 20
95.4942494364
 30
0.0
 11
116.5585105873
 21
95.5942492666
 31
0.0
  0
LINE
  5
6C
330
1F
100
AcDbEntity
  8
0
  6
Continuous
 62
     7
370
    30
100
AcDbLine
 10
116.5585105873
 20
117.1942498268
 30
0.0
 11
116.458510568
 21
117.294249657
 31
0.0
  0
LINE
  5
6D
330
1F
100
AcDbEntity
  8
0
  6
Continuous
 62
     7
370
    30
100
AcDbLine
 10
116.2928286021
 20
95.4942494364
 30
0.0
 11
116.458510568
 21
95.4942494364
 31
0.0
  0
LINE
  5
6E
330
1F
100
AcDbEntity
  8
0
  6
Continuous
 62
     7
370
    30
100
AcDbLine
 10
114.3585104682
 20
95.4942494364
 30
0.0
 11
114.4241649845
 21
95.4942494364
 31
0.0
  0
LINE
  5
6F
330
1F
100
AcDbEntity
  8
0
  6
Continuous
 62
     7
370
    30
100
AcDbLine
 10
114.4241649845
 20
117.294249657
 30
0.0
 11
114.3585104682
 21
117.294249657
 31
0.0
  0
LINE
  5
70
330
1F
100
AcDbEntity
  8
0
  6
Continuous
 62
     7
370
    30
100
AcDbLine
 10
116.458510568
 20
117.294249657
 30
0.0
 11
116.2928286021
 21
117.294249657
 31
0.0
  0
LINE
  5
71
330
1F
100
AcDbEntity
  8
0
  6
Continuous
 62
     7
370
    30
100
AcDbLine
 10
116.5585105873
 20
97.4442498492
 30
0.0
 11
116.7585105822
 21
97.4442498492
 31
0.0
  0
LINE
  5
72
330
1F
100
AcDbEntity
  8
0
  6
Continuous
 62
     7
370
    30
100
AcDbLine
 10
116.7585105822
 20
115.3442492442
 30
0.0
 11
116.5585105873
 21
115.3442492442
 31
0.0
  0
LINE
  5
73
330
1F
100
AcDbEntity
  8
0
  6
Continuous
 62
     7
370
    30
100
AcDbLine
 10
89.7870083527
 20
104.8942495337
 30
0.0
 11
99.5870084689
 21
104.8942495337
 31
0.0
  0
LINE
  5
74
330
1F
100
AcDbEntity
  8
0
  6
Continuous
 62
     7
370
    30
100
AcDbLine
 10
99.5870084689
 20
107.8942495597
 30
0.0
 11
89.7870083527
 21
107.8942495597
 31
0.0
  0
ARC
  5
75
330
1F
100
AcDbEntity
  8
0
  6
Continuous
 62
     7
370
    30
100
AcDbCircle
 10
89.7870079671
 20
107.6942495467
 30
0.0
 40
0.2000000000000028
100
AcDbArc
 50
90.0
 51
180.0
  0
ARC
  5
76
330
1F
100
AcDbEntity
  8
0
  6
Continuous
 62
     7
370
    30
100
AcDbCircle
 10
89.7870079671
 20
105.0942495467
 30
0.0
 40
0.2000000000000028
100
AcDbArc
 50
180.0
 51
270.0
  0
LINE
  5
77
330
1F
100
AcDbEntity
  8
0
  6
Continuous
 62
     7
370
    30
100
AcDbLine
 10
103.4374107794
 20
100.4942493247
 30
0.0
 11
103.5870081932
 21
100.6442490699
 31
0.0
  0
LINE
  5
78
330
1F
100
AcDbEntity
  8
0
  6
Continuous
 62
     7
370
    30
100
AcDbLine
 10
103.5870081932
 20
112.1442500235
 30
0.0
 11
103.4374107794
 21
112.2942497687
 31
0.0
  0
ARC
  5
79
330
1F
100
AcDbEntity
  8
0
  6
Continuous
 62
     7
370
    30
100
AcDbCircle
 10
103.1458536939
 20
111.2942495467
 30
0.0
 40
1.000000000000008
100
AcDbArc
 50
90.0
 51
120.0
  0
ARC
  5
7A
330
1F
100
AcDbEntity
  8
0
  6
Continuous
 62
     7
370
    30
100
AcDbCircle
 10
103.1458536939
 20
101.4942495467
 30
0.0
 40
1.0
100
AcDbArc
 50
240.0
 51
270.0
  0
ARC
  5
7B
330
1F
100
AcDbEntity
  8
0
  6
Continuous
 62
     7
370
    30
100
AcDbCircle
 10
110.2870079671
 20
111.4942495467
 30
0.0
 40
0.8000000000000114
100
AcDbArc
 50
0.0
 51
90.0
  0
ARC
  5
7C
330
1F
100
AcDbEntity
  8
0
  6
Continuous
 62
     7
370
    30
100
AcDbCircle
 10
110.2870079671
 20
101.2942495467
 30
0.0
 40
0.8000000000000114
100
AcDbArc
 50
270.0
 51
0.0
  0
LINE
  5
7D
330
1F
100
AcDbEntity
  8
0
  6
Continuous
 62
     7
370
    30
100
AcDbLine
 10
106.7374107615
 20
100.4942493247
 30
0.0
 11
110.2870079876
 21
100.4942493247
 31
0.0
  0
LINE
  5
7E
330
1F
100
AcDbEntity
  8
0
  6
Continuous
 62
     7
370
    30
100
AcDbLine
 10
110.2870079876
 20
112.2942497687
 30
0.0
 11
106.7374107615
 21
112.2942497687
 31
0.0
  0
LINE
  5
7F
330
1F
100
AcDbEntity
  8
0
  6
Continuous
 62
     7
370
    30
100
AcDbLine
 10
103.1458537281
 20
100.4942493247
 30
0.0
 11
103.4374107794
 21
100.4942493247
 31
0.0
  0
LINE
  5
80
330
1F
100
AcDbEntity
  8
0
  6
Continuous
 62
     7
370
    30
100
AcDbLine
 10
103.4374107794
 20
112.2942497687
 30
0.0
 11
103.1458537281
 21
112.2942497687
 31
0.0
  0
LINE
  5
81
330
1F
100
AcDbEntity
  8
0
  6
Continuous
 62
     7
370
    30
100
AcDbLine
 10
106.7374107615
 20
112.2942497687
 30
0.0
 11
106.5870077536
 21
112.1442500235
 31
0.0
  0
LINE
  5
82
330
1F
100
AcDbEntity
  8
0
  6
Continuous
 62
     7
370
    30
100
AcDbLine
 10
106.5870077536
 20
100.6442490699
 30
0.0
 11
106.7374107615
 21
100.4942493247
 31
0.0
  0
LINE
  5
83
330
1F
100
AcDbEntity
  8
0
  6
Continuous
 62
     7
370
    30
100
AcDbLine
 10
102.6458536462
 20
112.1602748254
 30
0.0
 11
100.0870076195
 21
110.6829248102
 31
0.0
  0
LINE
  5
84
330
1F
100
AcDbEntity
  8
0
  6
Continuous
 62
     7
370
    30
100
AcDbLine
 10
100.0870076195
 20
102.1055742832
 30
0.0
 11
102.6458536462
 21
100.628224268
 31
0.0
  0
ARC
  5
85
330
1F
100
AcDbEntity
  8
0
  6
Continuous
 62
     7
370
    30
100
AcDbCircle
 10
100.5870079671
 20
102.9715998159
 30
0.0
 40
1.000000000000008
100
AcDbArc
 50
180.0
 51
240.0
  0
ARC
  5
86
330
1F
100
AcDbEntity
  8
0
  6
Continuous
 62
     7
370
    30
100
AcDbCircle
 10
100.5870079671
 20
109.8168992775
 30
0.0
 40
1.0
100
AcDbArc
 50
120.0
 51
180.0
  0
ARC
  5
87
330
1F
100
AcDbEntity
  8
0
  6
Continuous
 62
     7
370
    30
100
AcDbCircle
 10
196.3585105822
 20
114.8942495467
 30
0.0
 40
0.5
100
AcDbArc
 50
0.0
 51
180.0
  0
ARC
  5
88
330
1F
100
AcDbEntity
  8
0
  6
Continuous
 62
     7
370
    30
100
AcDbCircle
 10
196.3585105822
 20
97.8942495467
 30
0.0
 40
0.5
100
AcDbArc
 50
180.0
 51
0.0
  0
LINE
  5
89
330
1F
100
AcDbEntity
  8
0
  6
Continuous
 62
     7
370
    30
100
AcDbLine
 10
196.8585104869
 20
97.8942490848
 30
0.0
 11
196.8585104869
 21
114.8942500086
 31
0.0
  0
LINE
  5
8A
330
1F
100
AcDbEntity
  8
0
  6
Continuous
 62
     7
370
    30
100
AcDbLine
 10
121.2585103885
 20
106.3942495467
 30
0.0
 11
121.2585103885
 21
118.894249733
 31
0.0
  0
LINE
  5
8B
330
1F
100
AcDbEntity
  8
0
  6
Continuous
 62
     7
370
    30
100
AcDbLine
 10
121.2585103885
 20
93.8942493604
 30
0.0
 11
121.2585103885
 21
106.3942495467
 31
0.0
  0
LINE
  5
8C
330
1F
100
AcDbEntity
  8
0
  6
Continuous
 62
     7
370
    30
100
AcDbLine
 10
178.258512281
 20
106.3942495467
 30
0.0
 11
178.258512281
 21
118.894249733
 31
0.0
  0
LINE
  5
8D
330
1F
100
AcDbEntity
  8
0
  6
Continuous
 62
     7
370
    30
100
AcDbLine
 10
178.258512281
 20
93.8942493604
 30
0.0
 11
178.258512281
 21
106.3942495467
 31
0.0
  0
LINE
  5
8E
330
1F
100
AcDbEntity
  8
0
  6
Continuous
 62
     7
370
    30
100
AcDbLine
 10
119.3392662053
 20
106.3942495467
 30
0.0
 11
119.3392662053
 21
118.8842491912
 31
0.0
  0
LINE
  5
8F
330
1F
100
AcDbEntity
  8
0
  6
Continuous
 62
     7
370
    30
100
AcDbLine
 10
119.3392662053
 20
93.9042499022
 30
0.0
 11
119.3392662053
 21
106.3942495467
 31
0.0
  0
LINE
  5
90
330
1F
100
AcDbEntity
  8
0
  6
Continuous
 62
     7
370
    30
100
AcDbLine
 10
116.7585105822
 20
106.3942495467
 30
0.0
 11
116.7585105822
 21
117.3942494871
 31
0.0
  0
LINE
  5
91
330
1F
100
AcDbEntity
  8
0
  6
Continuous
 62
     7
370
    30
100
AcDbLine
 10
116.7585105822
 20
95.3942496063
 30
0.0
 11
116.7585105822
 21
106.3942495467
 31
0.0
  0
LINE
  5
92
330
1F
100
AcDbEntity
  8
0
  6
Continuous
 62
     7
370
    30
100
AcDbLine
 10
193.55851423
 20
106.3942495467
 30
0.0
 11
193.55851423
 21
94.2042493926
 31
0.0
  0
LINE
  5
93
330
1F
100
AcDbEntity
  8
0
  6
Continuous
 62
     7
370
    30
100
AcDbLine
 10
193.55851423
 20
118.5842497008
 30
0.0
 11
193.55851423
 21
106.3942495467
 31
0.0
  0
LINE
  5
94
330
1F
100
AcDbEntity
  8
0
  6
Continuous
 62
     7
370
    30
100
AcDbLine
 10
111.5585105681
 20
101.7942494446
 30
0.0
 11
111.5585105681
 21
110.9942496488
 31
0.0
  0
LINE
  5
95
330
1F
100
AcDbEntity
  8
0
  6
Continuous
 62
     7
370
    30
100
AcDbLine
 10
111.6585103982
 20
110.9942496488
 30
0.0
 11
111.6585103982
 21
110.3942497367
 31
0.0
  0
LINE
  5
96
330
1F
100
AcDbEntity
  8
0
  6
Continuous
 62
     7
370
    30
100
AcDbLine
 10
114.0585105122
 20
110.3942497367
 30
0.0
 11
111.6585103982
 21
110.3942497367
 31
0.0
  0
LINE
  5
97
330
1F
100
AcDbEntity
  8
0
  6
Continuous
 62
     7
370
    30
100
AcDbLine
 10
114.0585105122
 20
110.9942496488
 30
0.0
 11
114.0585105122
 21
110.3942497367
 31
0.0
  0
LINE
  5
98
330
1F
100
AcDbEntity
  8
0
  6
Continuous
 62
     7
370
    30
100
AcDbLine
 10
111.6585103982
 20
102.3942493567
 30
0.0
 11
111.6585103982
 21
101.7942494446
 31
0.0
  0
LINE
  5
99
330
1F
100
AcDbEntity
  8
0
  6
Continuous
 62
     7
370
    30
100
AcDbLine
 10
114.0585105122
 20
102.3942493567
 30
0.0
 11
114.0585105122
 21
101.7942494446
 31
0.0
  0
LINE
  5
9A
330
1F
100
AcDbEntity
  8
0
  6
Continuous
 62
     7
370
    30
100
AcDbLine
 10
114.0585105122
 20
102.3942493567
 30
0.0
 11
111.6585103982
 21
102.3942493567
 31
0.0
  0
SPLINE
  5
9B
330
1F
100
AcDbEntity
  8
0
  6
Continuous
 62
     7
370
    30
100
AcDbSpline
210
0.0
220
0.0
230
1.0
 70
     8
 71
     3
 72
    13
 73
     9
 74
     0
 42
0.00000001
 43
0.00000001
 40
0.0
 40
0.0
 40
0.0
 40
0.0
 40
0.1244857972657279
 40
0.2458363395563742
 40
0.4987345265929527
 40
0.7522683528134516
 40
0.8744988922274354
 40
1.0
 40
1.0
 40
1.0
 40
1.0
 10
194.7085113451633
 20
117.3117361696321
 30
0.0
 10
194.6540423439778
 20
117.311969013651
 30
0.0
 10
194.5464761784807
 20
117.3124288373622
 30
0.0
 10
194.3369850476765
 20
117.3174877071231
 30
0.0
 10
194.1093157551428
 20
117.3285074715466
 30
0.0
 10
193.9475571311456
 20
117.3386383400864
 30
0.0
 10
193.8811525718653
 20
117.3435315008593
 30
0.0
 10
193.8754220417484
 20
117.3440074993739
 30
0.0
 10
193.8725189492854
 20
117.3442486407119
 30
0.0
  0
LINE
  5
9C
330
1F
100
AcDbEntity
  8
0
  6
Continuous
 62
     7
370
    30
100
AcDbLine
 10
194.621555619
 20
117.3123899581
 30
0.0
 11
194.7089658306
 21
117.3117389636
 31
0.0
  0
SPLINE
  5
9D
330
1F
100
AcDbEntity
  8
0
  6
Continuous
 62
     7
370
    30
100
AcDbSpline
210
0.0
220
0.0
230
1.0
 70
     8
 71
     3
 72
    14
 73
    10
 74
     0
 42
0.00000001
 43
0.00000001
 40
0.0
 40
0.0
 40
0.0
 40
0.0
 40
0.0003058903889491
 40
0.125693070988423
 40
0.2478201754974984
 40
0.5015029669499094
 40
0.7544365978610217
 40
0.8756720412791277
 40
1.0
 40
1.0
 40
1.0
 40
1.0
 10
195.5444739387187
 20
117.3442467780667
 30
0.0
 10
195.5444863836835
 20
117.344247711528
 30
0.0
 10
195.5496001300064
 20
117.3446312790236
 30
0.0
 10
195.5323873771911
 20
117.3432516301213
 30
0.0
 10
195.4714516041508
 20
117.3387934167684
 30
0.0
 10
195.3068528245677
 20
117.3284350916661
 30
0.0
 10
195.0800426647379
 20
117.3174512569847
 30
0.0
 10
194.8704064471258
 20
117.3123969690083
 30
0.0
 10
194.762927559446
 20
117.3119582776515
 30
0.0
 10
194.7085113451633
 20
117.3117361696321
 30
0.0
  0
LWPOLYLINE
  5
9E
330
1F
100
AcDbEntity
  8
0
  6
Continuous
 62
     7
370
    30
100
AcDbPolyline
 90
       15
 70
   128
 43
0.0
 10
193.8725934551
 20
95.4442560406
 10
193.8725114987
 20
95.4442495214
 10
193.8881726191
 20
95.4454872491
 10
193.9351708815
 20
95.4488586368
 10
194.1231713817
 20
95.4602412613
 10
194.3945513294
 20
95.4720839592
 10
194.5463494585
 20
95.4755559297
 10
194.7088913248
 20
95.4767629238
 10
194.8709265516
 20
95.4755605863
 10
195.0225160644
 20
95.4720765086
 10
195.2943728492
 20
95.4601863133
 10
195.4820231722
 20
95.4488325598
 10
195.5289171264
 20
95.4454742106
 10
195.5445111916
 20
95.4442495214
 10
195.5445111916
 20
95.4442495214
  0
LINE
  5
9F
330
1F
100
AcDbEntity
  8
0
  6
Continuous
 62
     7
370
    30
100
AcDbLine
 10
195.8585084603
 20
117.2442497419
 30
0.0
 11
195.8585084603
 21
95.5442493515
 31
0.0
  0
LINE
  5
A0
330
1F
100
AcDbEntity
  8
0
  6
Continuous
 62
     7
370
    30
100
AcDbLine
 10
197.1585081146
 20
97.9442499312
 30
0.0
 11
197.1585081146
 21
114.8442491623
 31
0.0
  0
LINE
  5
A1
330
1F
100
AcDbEntity
  8
0
  6
Continuous
 62
     7
370
    30
100
AcDbLine
 10
199.9585108087
 20
98.2442494215
 30
0.0
 11
199.9585108087
 21
114.5442496719
 31
0.0
  0
LINE
  5
A2
330
1F
100
AcDbEntity
  8
0
  6
Continuous
 62
     7
370
    30
100
AcDbLine
 10
203.9585114644
 20
114.3442500116
 30
0.0
 11
203.9585114644
 21
98.4442490818
 31
0.0
  0
LINE
  5
A3
330
1F
100
AcDbEntity
  8
0
  6
Continuous
 62
     7
370
    30
100
AcDbLine
 10
114.1585105751
 20
95.6942490967
 30
0.0
 11
114.1585105751
 21
117.0942499967
 31
0.0
  0
LINE
  5
A4
330
1F
100
AcDbEntity
  8
0
  6
Continuous
 62
     7
370
    30
100
AcDbLine
 10
116.5585105873
 20
106.3942495467
 30
0.0
 11
116.5585105873
 21
95.5942492666
 31
0.0
  0
LINE
  5
A5
330
1F
100
AcDbEntity
  8
0
  6
Continuous
 62
     7
370
    30
100
AcDbLine
 10
116.5585105873
 20
117.1942498268
 30
0.0
 11
116.5585105873
 21
106.3942495467
 31
0.0
  0
SPLINE
  5
A6
330
1F
100
AcDbEntity
  8
0
  6
Continuous
 62
     7
370
    30
100
AcDbSpline
210
0.0
220
0.0
230
1.0
 70
     8
 71
     3
 72
    13
 73
     9
 74
     0
 42
0.00000001
 43
0.00000001
 40
0.0
 40
0.0
 40
0.0
 40
0.0
 40
0.1244653550356887
 40
0.245809224789732
 40
0.4987428073884419
 40
0.7522948400849584
 40
0.8745196146155793
 40
0.9999999999999999
 40
0.9999999999999999
 40
0.9999999999999999
 40
0.9999999999999999
 10
115.3585106321427
 20
117.2534353764611
 30
0.0
 10
115.2976365302159
 20
117.2537275873937
 30
0.0
 10
115.1774149970823
 20
117.2543046808571
 30
0.0
 10
114.9432545333318
 20
117.2606547853724
 30
0.0
 10
114.6888014294242
 20
117.274492454668
 30
0.0
 10
114.5080176939126
 20
117.2872081210972
 30
0.0
 10
114.4337983697169
 20
117.2933480384712
 30
0.0
 10
114.4274041262417
 20
117.2939452592658
 30
0.0
 10
114.42416498445
 20
117.2942477943259
 30
0.0
  0
LINE
  5
A7
330
1F
100
AcDbEntity
  8
0
  6
Continuous
 62
     7
370
    30
100
AcDbLine
 10
115.2623501793
 20
117.2542474897
 30
0.0
 11
115.3590241401
 21
117.2534400331
 31
0.0
  0
SPLINE
  5
A8
330
1F
100
AcDbEntity
  8
0
  6
Continuous
 62
     7
370
    30
100
AcDbSpline
210
0.0
220
0.0
230
1.0
 70
     8
 71
     3
 72
    14
 73
    10
 74
     0
 42
0.00000001
 43
0.00000001
 40
0.0
 40
0.0
 40
0.0
 40
0.0
 40
0.0003166272551922
 40
0.1257105386935987
 40
0.247840757736404
 40
0.5015082189178595
 40
0.754451229276242
 40
0.875678060167663
 40
1.0
 40
1.0
 40
1.0
 40
1.0
 10
116.2928286020926
 20
117.2942459316808
 30
0.0
 10
116.2928432647349
 20
117.2942471763667
 30
0.0
 10
116.2986647744917
 20
117.294741354106
 30
0.0
 10
116.2792662460408
 20
117.292990888165
 30
0.0
 10
116.2112402670131
 20
117.2874034746388
 30
0.0
 10
116.0272492824111
 20
117.2743968101888
 30
0.0
 10
115.7737705720148
 20
117.2606120702132
 30
0.0
 10
115.5394601044682
 20
117.2542673505599
 30
0.0
 10
115.4193318563411
 20
117.2537150218369
 30
0.0
 10
115.3585106321427
 20
117.2534353764611
 30
0.0
  0
LINE
  5
A9
330
1F
100
AcDbEntity
  8
0
  6
Continuous
 62
     7
370
    30
100
AcDbLine
 10
115.3585106321
 20
95.5350637169
 30
0.0
 11
115.2623501793
 21
95.5342516037
 31
0.0
  0
SPLINE
  5
AA
330
1F
100
AcDbEntity
  8
0
  6
Continuous
 62
     7
370
    30
100
AcDbSpline
210
0.0
220
0.0
230
1.0
 70
     8
 71
     3
 72
    20
 73
    16
 74
     0
 42
0.00000001
 43
0.00000001
 40
0.0
 40
0.0
 40
0.0
 40
0.0
 40
0.0000585391143796
 40
0.0627653612333327
 40
0.1238428022865813
 40
0.2507211002951354
 40
0.3771613052799587
 40
0.4378991058727125
 40
0.5002621636498255
 40
0.5624523530966197
 40
0.6230955604856185
 40
0.7496258157894933
 40
0.8762309646922859
 40
0.9373327343436522
 40
1.0
 40
1.0
 40
1.0
 40
1.0
 10
114.42416498445
 20
95.49425129907904
 30
0.0
 10
114.4241595471933
 20
95.49425067771108
 30
0.0
 10
114.4183297463424
 20
95.49358444993985
 30
0.0
 10
114.4377322457284
 20
95.49557865880665
 30
0.0
 10
114.505753952854
 20
95.50104501730877
 30
0.0
 10
114.689758696611
 20
95.51408378317444
 30
0.0
 10
114.9434954041557
 20
95.52793933558361
 30
0.0
 10
115.1780845670414
 20
95.53408437717708
 30
0.0
 10
115.3593485888849
 20
95.53555807131029
 30
0.0
 10
115.5405727915353
 20
95.53409080905392
 30
0.0
 10
115.774801652581
 20
95.5279391081667
 30
0.0
 10
116.0290498083458
 20
95.51397721318429
 30
0.0
 10
116.2094061865526
 20
95.50128537102954
 30
0.0
 10
116.2832768410606
 20
95.49514863599603
 30
0.0
 10
116.2896179465337
 20
95.49455415956523
 30
0.0
 10
116.2928286020926
 20
95.49425316172419
 30
0.0
  0
LINE
  5
AB
330
1F
100
AcDbEntity
  8
0
  6
Continuous
 62
     7
370
    30
100
AcDbLine
 10
89.5870086924
 20
105.0942495432
 30
0.0
 11
89.5870086924
 21
107.6942495502
 31
0.0
  0
LINE
  5
AC
330
1F
100
AcDbEntity
  8
0
  6
Continuous
 62
     7
370
    30
100
AcDbLine
 10
103.5870081932
 20
108.0713023631
 30
0.0
 11
103.5870081932
 21
111.8942495169
 31
0.0
  0
LINE
  5
AD
330
1F
100
AcDbEntity
  8
0
  6
Continuous
 62
     7
370
    30
100
AcDbLine
 10
103.5870081932
 20
104.7171967303
 30
0.0
 11
103.5870081932
 21
108.0713023631
 31
0.0
  0
LINE
  5
AE
330
1F
100
AcDbEntity
  8
0
  6
Continuous
 62
     7
370
    30
100
AcDbLine
 10
103.5870081932
 20
100.8942495765
 30
0.0
 11
103.5870081932
 21
104.7171967303
 31
0.0
  0
LINE
  5
AF
330
1F
100
AcDbEntity
  8
0
  6
Continuous
 62
     7
370
    30
100
AcDbLine
 10
103.5870081932
 20
100.6442490699
 30
0.0
 11
103.5870081932
 21
100.8942495765
 31
0.0
  0
LINE
  5
B0
330
1F
100
AcDbEntity
  8
0
  6
Continuous
 62
     7
370
    30
100
AcDbLine
 10
103.5870081932
 20
111.8942495169
 30
0.0
 11
103.5870081932
 21
112.1442500235
 31
0.0
  0
LINE
  5
B1
330
1F
100
AcDbEntity
  8
0
  6
Continuous
 62
     7
370
    30
100
AcDbLine
 10
111.0870080256
 20
111.4942497307
 30
0.0
 11
111.0870080256
 21
101.2942493627
 31
0.0
  0
LINE
  5
B2
330
1F
100
AcDbEntity
  8
0
  6
Continuous
 62
     7
370
    30
100
AcDbLine
 10
106.5870077536
 20
100.6442490699
 30
0.0
 11
106.5870077536
 21
100.8942495765
 31
0.0
  0
LINE
  5
B3
330
1F
100
AcDbEntity
  8
0
  6
Continuous
 62
     7
370
    30
100
AcDbLine
 10
106.5870077536
 20
100.8942495765
 30
0.0
 11
106.5870077536
 21
104.7171967303
 31
0.0
  0
LINE
  5
B4
330
1F
100
AcDbEntity
  8
0
  6
Continuous
 62
     7
370
    30
100
AcDbLine
 10
106.5870077536
 20
104.7171967303
 30
0.0
 11
106.5870077536
 21
108.0713023631
 31
0.0
  0
LINE
  5
B5
330
1F
100
AcDbEntity
  8
0
  6
Continuous
 62
     7
370
    30
100
AcDbLine
 10
106.5870077536
 20
108.0713023631
 30
0.0
 11
106.5870077536
 21
111.8942495169
 31
0.0
  0
LINE
  5
B6
330
1F
100
AcDbEntity
  8
0
  6
Continuous
 62
     7
370
    30
100
AcDbLine
 10
106.5870077536
 20
111.8942495169
 30
0.0
 11
106.5870077536
 21
112.1442500235
 31
0.0
  0
LINE
  5
B7
330
1F
100
AcDbEntity
  8
0
  6
Continuous
 62
     7
370
    30
100
AcDbLine
 10
103.5870081932
 20
111.8942495169
 30
0.0
 11
103.7374102698
 21
111.8942495169
 31
0.0
  0
LINE
  5
B8
330
1F
100
AcDbEntity
  8
0
  6
Continuous
 62
     7
370
    30
100
AcDbLine
 10
103.7374102698
 20
108.5296651082
 30
0.0
 11
103.7374102698
 21
111.8942495169
 31
0.0
  0
LINE
  5
B9
330
1F
100
AcDbEntity
  8
0
  6
Continuous
 62
     7
370
    30
100
AcDbLine
 10
103.7374102698
 20
108.5296651082
 30
0.0
 11
103.5870081932
 21
108.0713023631
 31
0.0
  0
LINE
  5
BA
330
1F
100
AcDbEntity
  8
0
  6
Continuous
 62
     7
370
    30
100
AcDbLine
 10
106.4374103398
 20
108.5296651082
 30
0.0
 11
106.4374103398
 21
111.8942495169
 31
0.0
  0
LINE
  5
BB
330
1F
100
AcDbEntity
  8
0
  6
Continuous
 62
     7
370
    30
100
AcDbLine
 10
106.4374103398
 20
111.8942495169
 30
0.0
 11
106.5870077536
 21
111.8942495169
 31
0.0
  0
LINE
  5
BC
330
1F
100
AcDbEntity
  8
0
  6
Continuous
 62
     7
370
    30
100
AcDbLine
 10
106.5870077536
 20
108.0713023631
 30
0.0
 11
106.4374103398
 21
108.5296651082
 31
0.0
  0
LINE
  5
BD
330
1F
100
AcDbEntity
  8
0
  6
Continuous
 62
     7
370
    30
100
AcDbLine
 10
103.7374102698
 20
100.8942495765
 30
0.0
 11
103.7374102698
 21
104.2588339852
 31
0.0
  0
LINE
  5
BE
330
1F
100
AcDbEntity
  8
0
  6
Continuous
 62
     7
370
    30
100
AcDbLine
 10
103.7374102698
 20
100.8942495765
 30
0.0
 11
103.5870081932
 21
100.8942495765
 31
0.0
  0
LINE
  5
BF
330
1F
100
AcDbEntity
  8
0
  6
Continuous
 62
     7
370
    30
100
AcDbLine
 10
103.5870081932
 20
104.7171967303
 30
0.0
 11
103.7374102698
 21
104.2588339852
 31
0.0
  0
LINE
  5
C0
330
1F
100
AcDbEntity
  8
0
  6
Continuous
 62
     7
370
    30
100
AcDbLine
 10
106.5870077536
 20
100.8942495765
 30
0.0
 11
106.4374103398
 21
100.8942495765
 31
0.0
  0
LINE
  5
C1
330
1F
100
AcDbEntity
  8
0
  6
Continuous
 62
     7
370
    30
100
AcDbLine
 10
106.4374103398
 20
100.8942495765
 30
0.0
 11
106.4374103398
 21
104.2588339852
 31
0.0
  0
LINE
  5
C2
330
1F
100
AcDbEntity
  8
0
  6
Continuous
 62
     7
370
    30
100
AcDbLine
 10
106.4374103398
 20
104.2588339852
 30
0.0
 11
106.5870077536
 21
104.7171967303
 31
0.0
  0
LINE
  5
C3
330
1F
100
AcDbEntity
  8
0
  6
Continuous
 62
     7
370
    30
100
AcDbLine
 10
103.7374102698
 20
104.2588339852
 30
0.0
 11
106.4374103398
 21
104.2588339852
 31
0.0
  0
LINE
  5
C4
330
1F
100
AcDbEntity
  8
0
  6
Continuous
 62
     7
370
    30
100
AcDbLine
 10
106.4374103398
 20
108.5296651082
 30
0.0
 11
103.7374102698
 21
108.5296651082
 31
0.0
  0
LINE
  5
C5
330
1F
100
AcDbEntity
  8
0
  6
Continuous
 62
     7
370
    30
100
AcDbLine
 10
103.7374102698
 20
111.8942495169
 30
0.0
 11
106.4374103398
 21
111.8942495169
 31
0.0
  0
LINE
  5
C6
330
1F
100
AcDbEntity
  8
0
  6
Continuous
 62
     7
370
    30
100
AcDbLine
 10
106.4374103398
 20
100.8942495765
 30
0.0
 11
103.7374102698
 21
100.8942495765
 31
0.0
  0
LINE
  5
C7
330
1F
100
AcDbEntity
  8
0
  6
Continuous
 62
     7
370
    30
100
AcDbLine
 10
99.5870084689
 20
106.3942495467
 30
0.0
 11
99.5870084689
 21
109.8168993568
 31
0.0
  0
LINE
  5
C8
330
1F
100
AcDbEntity
  8
0
  6
Continuous
 62
     7
370
    30
100
AcDbLine
 10
99.5870084689
 20
102.9715997366
 30
0.0
 11
99.5870084689
 21
106.3942495467
 31
0.0
  0
LINE
  5
C9
330
1F
100
AcDbEntity
  8
0
  6
Continuous
 62
     8
370
    30
100
AcDbLine
 10
102.6458536462
 20
106.3942495467
 30
0.0
 11
102.6458536462
 21
112.1602748254
 31
0.0
  0
LINE
  5
CA
330
1F
100
AcDbEntity
  8
0
  6
Continuous
 62
     8
370
    30
100
AcDbLine
 10
102.6458536462
 20
100.628224268
 30
0.0
 11
102.6458536462
 21
106.3942495467
 31
0.0
  0
LINE
  5
CB
330
1F
100
AcDbEntity
  8
0
  6
Continuous
 62
     8
370
    30
100
AcDbLine
 10
103.1458537281
 20
112.2942497687
 30
0.0
 11
103.1458537281
 21
100.4942493247
 31
0.0
  0
LINE
  5
CC
330
1F
100
AcDbEntity
  8
0
  6
Continuous
 62
     8
370
    30
100
AcDbLine
 10
110.2870079876
 20
100.4942493247
 30
0.0
 11
110.2870079876
 21
112.2942497687
 31
0.0
  0
LINE
  5
CD
330
1F
100
AcDbEntity
  8
0
  6
Continuous
 62
     8
370
    30
100
AcDbLine
 10
100.0870076195
 20
106.3942495467
 30
0.0
 11
100.0870076195
 21
102.1055742832
 31
0.0
  0
LINE
  5
CE
330
1F
100
AcDbEntity
  8
0
  6
Continuous
 62
     8
370
    30
100
AcDbLine
 10
100.0870076195
 20
110.6829248102
 30
0.0
 11
100.0870076195
 21
106.3942495467
 31
0.0
  0
LINE
  5
CF
330
1F
100
AcDbEntity
  8
1
370
     0
100
AcDbLine
 10
87.1956929711
 20
106.3942495467
 30
0.0
 11
206.6423034807
 21
106.3942495467
 31
0.0
  0
DIMENSION
  5
D0
330
1F
100
AcDbEntity
  8
1
100
AcDbDimension
  2
*D2
 10
111.0870079671
 20
82.5202589327
 30
0.0
 11
105.3370079671
 21
82.5202589327
 31
0.0
 70
   160
 71
     2
 42
-1.0
  3
SLDDIMSTYLE0
100
AcDbAlignedDimension
 13
99.5870079671
 23
102.9715998159
 33
0.0
 14
111.0870079671
 24
101.2942495467
 34
0.0
100
AcDbRotatedDimension
  0
DIMENSION
  5
E2
330
1F
100
AcDbEntity
  8
1
100
AcDbDimension
  2
*D3
 10
114.1585105822
 20
74.4146165502
 30
0.0
 11
106.8727592747
 21
74.4146165502
 31
0.0
 70
   160
  1
(<>)
 71
     2
 42
-1.0
  3
SLDDIMSTYLE1
100
AcDbAlignedDimension
 13
99.5870079671
 23
102.9715998159
 33
0.0
 14
114.1585105822
 24
95.6942495467
 34
0.0
100
AcDbRotatedDimension
  0
DIMENSION
  5
EF
330
1F
100
AcDbEntity
  8
1
100
AcDbDimension
  2
*D4
 10
203.9585105822
 20
66.5714741875
 30
0.0
 11
150.7629052337
 21
66.5714741875
 31
0.0
 70
   160
  1
(<>)
 71
     2
 42
-1.0
  3
SLDDIMSTYLE1
100
AcDbAlignedDimension
 13
99.5870079671
 23
102.9715998159
 33
0.0
 14
203.9585105822
 24
98.4442495467
 34
0.0
100
AcDbRotatedDimension
  0
DIMENSION
  5
FB
330
1F
100
AcDbEntity
  8
1
100
AcDbDimension
  2
*D5
 10
76.5870079671
 20
112.2942495467
 30
0.0
 11
76.5870079671
 21
106.3942495467
 31
0.0
 70
   160
  1
%%c<>
 71
     2
 42
-1.0
  3
SLDDIMSTYLE2
100
AcDbAlignedDimension
 13
103.1458536939
 23
100.4942495467
 33
0.0
 14
103.1458536939
 24
112.2942495467
 34
0.0
 50
90.0
100
AcDbRotatedDimension
  0
DIMENSION
  5
109
330
1F
100
AcDbEntity
  8
1
100
AcDbDimension
  2
*D6
 10
67.4217151227
 20
93.8942495467
 30
0.0
 11
67.4217151227
 21
106.3942495467
 31
0.0
 70
   160
  1
%%c<>
 71
     2
 42
-1.0
  3
SLDDIMSTYLE3
100
AcDbAlignedDimension
 13
121.2585105822
 23
118.8942495467
 33
0.0
 14
121.2585105822
 24
93.8942495467
 34
0.0
 50
90.0
100
AcDbRotatedDimension
  0
DIMENSION
  5
11C
330
1F
100
AcDbEntity
  8
1
100
AcDbDimension
  2
*D7
 10
203.9585105822
 20
74.4146165502
 30
0.0
 11
199.9085105822
 21
74.4146165502
 31
0.0
 70
   160
 71
     2
 42
-1.0
  3
SLDDIMSTYLE2
100
AcDbAlignedDimension
 13
195.8585105822
 23
95.5442495467
 33
0.0
 14
203.9585105822
 24
98.4442495467
 34
0.0
100
AcDbRotatedDimension
  0
DIMENSION
  5
128
330
1F
100
AcDbEntity
  8
1
100
AcDbDimension
  2
*D8
 10
114.1585105822
 20
74.4146165502
 30
0.0
 11
155.0085105822
 21
74.4146165502
 31
0.0
 70
   160
 71
     2
 42
-1.0
  3
SLDDIMSTYLE0
100
AcDbAlignedDimension
 13
195.8585105822
 23
95.5442495467
 33
0.0
 14
114.1585105822
 24
95.6942495467
 34
0.0
100
AcDbRotatedDimension
  0
ENDSEC
  0
SECTION
  2
OBJECTS
  0
DICTIONARY
  5
C
330
0
100
AcDbDictionary
281
     1
  3
ACAD_GROUP
350
D
  3
ACAD_LAYOUT
350
1A
  3
ACAD_MLINESTYLE
350
17
  3
ACAD_PLOTSETTINGS
350
19
  3
ACAD_PLOTSTYLENAME
350
E
  0
DICTIONARY
  5
D
102
{ACAD_REACTORS
330
C
102
}
330
C
100
AcDbDictionary
281
     1
  0
DICTIONARY
  5
1A
102
{ACAD_REACTORS
330
C
102
}
330
C
100
AcDbDictionary
281
     1
  3
Layout1
350
1E
  3
Layout2
350
26
  3
Model
350
22
  0
DICTIONARY
  5
17
102
{ACAD_REACTORS
330
C
102
}
330
C
100
AcDbDictionary
281
     1
  3
Standard
350
18
  0
DICTIONARY
  5
19
102
{ACAD_REACTORS
330
C
102
}
330
C
100
AcDbDictionary
281
     1
  0
ACDBDICTIONARYWDFLT
  5
E
102
{ACAD_REACTORS
330
C
102
}
330
C
100
AcDbDictionary
281
     1
  3
Normal
350
F
100
AcDbDictionaryWithDefault
340
F
  0
LAYOUT
  5
1E
102
{ACAD_REACTORS
330
1A
102
}
330
1A
100
AcDbPlotSettings
  1

  2
none_device
  4

  6

 40
0.0
 41
0.0
 42
0.0
 43
0.0
 44
0.0
 45
0.0
 46
0.0
 47
0.0
 48
0.0
 49
0.0
140
0.0
141
0.0
142
1.0
143
1.0
 70
   688
 72
     0
 73
     0
 74
     5
  7

 75
    16
147
1.0
148
0.0
149
0.0
100
AcDbLayout
  1
Layout1
 70
     1
 71
     1
 10
0.0
 20
0.0
 11
420.0
 21
297.0
 12
0.0
 22
0.0
 32
0.0
 14
1.0000000000E+20
 24
1.0000000000E+20
 34
1.0000000000E+20
 15
-1.0000000000E+20
 25
-1.0000000000E+20
 35
-1.0000000000E+20
146
0.0
 13
0.0
 23
0.0
 33
0.0
 16
1.0
 26
0.0
 36
0.0
 17
0.0
 27
1.0
 37
0.0
 76
     0
330
1B
  0
LAYOUT
  5
26
102
{ACAD_REACTORS
330
1A
102
}
330
1A
100
AcDbPlotSettings
  1

  2
none_device
  4

  6

 40
0.0
 41
0.0
 42
0.0
 43
0.0
 44
0.0
 45
0.0
 46
0.0
 47
0.0
 48
0.0
 49
0.0
140
0.0
141
0.0
142
1.0
143
1.0
 70
   688
 72
     0
 73
     0
 74
     5
  7

 75
    16
147
1.0
148
0.0
149
0.0
100
AcDbLayout
  1
Layout2
 70
     1
 71
     2
 10
0.0
 20
0.0
 11
0.0
 21
0.0
 12
0.0
 22
0.0
 32
0.0
 14
0.0
 24
0.0
 34
0.0
 15
0.0
 25
0.0
 35
0.0
146
0.0
 13
0.0
 23
0.0
 33
0.0
 16
1.0
 26
0.0
 36
0.0
 17
0.0
 27
1.0
 37
0.0
 76
     0
330
23
  0
LAYOUT
  5
22
102
{ACAD_REACTORS
330
1A
102
}
330
1A
100
AcDbPlotSettings
  1

  2
none_device
  4

  6

 40
0.0
 41
0.0
 42
0.0
 43
0.0
 44
0.0
 45
0.0
 46
0.0
 47
0.0
 48
0.0
 49
0.0
140
0.0
141
0.0
142
1.0
143
1.0
 70
  1712
 72
     0
 73
     0
 74
     0
  7

 75
     0
147
1.0
148
0.0
149
0.0
100
AcDbLayout
  1
Model
 70
     1
 71
     0
 10
0.0
 20
0.0
 11
297.0
 21
210.0
 12
0.0
 22
0.0
 32
0.0
 14
0.0
 24
0.0
 34
0.0
 15
297.0
 25
210.0
 35
0.0
146
0.0
 13
0.0
 23
0.0
 33
0.0
 16
1.0
 26
0.0
 36
0.0
 17
0.0
 27
1.0
 37
0.0
 76
     0
330
1F
331
29
  0
MLINESTYLE
  5
18
102
{ACAD_REACTORS
330
17
102
}
330
17
100
AcDbMlineStyle
  2
Standard
 70
     0
  3

 62
   256
 51
90.0
 52
90.0
 71
     2
 49
0.5
 62
   256
  6
BYLAYER
 49
-0.5
 62
   256
  6
BYLAYER
  0
ACDBPLACEHOLDER
  5
F
102
{ACAD_REACTORS
330
E
102
}
330
E
  0
ENDSEC
  0
EOF
