  0
SECTION
  2
HEADER
  9
$ACADVER
  1
AC1009
  9
$INSBASE
 10
-48.610366585
 20
72.233104628
  9
$EXTMIN
 10
-66.128768906
 20
-23.230979239
  9
$EXTMAX
 10
242.429616026
 20
255.540771633
  9
$LIMMIN
 10
-66.128768906
 20
-23.230979239
  9
$LIMMAX
 10
242.429616026
 20
255.540771633
  9
$SNAPBASE
 10
0.000000000
 20
0.000000000
  9
$SNAPANG
 50
0.000000000
  9
$SNAPSTYLE
 70
0
  9
$GRIDMODE
 70
0
  9
$GRIDUNIT
 10
0.000000000
 20
0.000000000
  9
$DIMEXO
 40
0.000000000
  9
$DIMDLI
 40
8.000000000
  9
$DIMDLE
 40
0.000000000
  9
$DIMEXE
 40
1.000000000
  9
$DIMTIH
 70
1
  9
$DIMTOH
 70
1
  9
$DIMTAD
 70
2
  9
$DIMZIN
 70
0
  9
$FILLETRAD
 40
1.000000000
  9
$CHAMFERA
 40
1.000000000
  9
$CHAMFERB
 40
1.000000000
  9
$TDCREATE
 40
2454152.701053241
  9
$TDUPDATE
 40
2454152.701053241
  9
$ANGBASE
 50
0.000000000
  9
$ANGDIR
 70
0
  0
ENDSEC
  0
SECTION
  2
TABLES
  0
TABLE
  2
LTYPE
 70
3
  0
LTYPE
  2
CENTER
 70
64
  3
___ _ ___ _ __
 72
65
 73
4
 40
13.000000000
 49
8.500000000
 49
-1.500000000
 49
1.500000000
 49
-1.500000000
  0
LTYPE
  2
CONTINUOUS
 70
64
  3
______________
 72
65
 73
0
 40
0.000000000
  0
LTYPE
  2
DIVIDE
 70
64
  3
___ . . ___ . 
 72
65
 73
6
 40
12.999999523
 49
5.199999809
 49
-2.599999905
 49
0.000000000
 49
-2.599999905
 49
0.000000000
 49
-2.599999905
  0
ENDTAB
  0
TABLE
  2
LAYER
 70
3
  0
LAYER
  2
1
 70
0
 62
7
  6
CONTINUOUS
999
Comment001
  0
LAYER
  2
2
 70
0
 62
7
  6
CONTINUOUS
999
Comment
  0
LAYER
  2
4
 70
0
 62
7
  6
CONTINUOUS
999
Comment
  0
LAYER
  2
_CONSTR
 70
0
 62
5
  6
CONTINUOUS
  0
ENDTAB
  0
TABLE
  2
STYLE
 70
1
  0
STYLE
  2
STANDARD
 70
64
 40
0.000000000
 41
1.000000000
 50
0.000000000
 71
0
 42
3.200000000
  3
TXT
  4
EXTFONT
  0
ENDTAB
  0
TABLE
  2
VIEW
 70
0
  0
ENDTAB
  0
ENDSEC
  0
SECTION
  2
BLOCKS
  0
BLOCK
  8
0
  2
*D1
 70
65
 10
0.000000000
 20
0.000000000
  3
*D
  0
TEXT
  8
1
 62
4
  6
CONTINUOUS
 72
5
 10
115.364457026
 20
230.192349034
 40
2.800000000
  1
(
 41
1.800001800
 11
117.044457026
 21
230.192349034
  0
TEXT
  8
1
 62
4
  6
CONTINUOUS
 72
5
 10
117.884457026
 20
230.192349034
 40
2.800000000
  1
11.2
 41
1.414284098
 11
127.124457026
 21
230.192349034
  0
TEXT
  8
1
 62
4
  6
CONTINUOUS
 72
5
 10
127.964457026
 20
230.192349034
 40
2.800000000
  1
)
 41
1.800001800
 11
129.644457026
 21
230.192349034
  0
LINE
  8
1
 62
4
  6
CONTINUOUS
 10
116.896057026
 20
219.137349034
 11
116.896057026
 21
229.987349034
  0
POLYLINE
  8
1
 62
4
  6
CONTINUOUS
 66
1
  0
VERTEX
  8
1
 10
118.896057026
 20
228.287349034
  0
VERTEX
  8
1
 10
116.896057026
 20
227.987349034
  0
VERTEX
  8
1
 10
118.896057026
 20
227.687349034
  0
SEQEND
  8
1
  0
LINE
  8
1
 62
4
  6
CONTINUOUS
 10
116.896057026
 20
227.987349034
 11
128.096057026
 21
227.987349034
  0
POLYLINE
  8
1
 62
4
  6
CONTINUOUS
 66
1
  0
VERTEX
  8
1
 10
126.096057026
 20
227.687349034
  0
VERTEX
  8
1
 10
128.096057026
 20
227.987349034
  0
VERTEX
  8
1
 10
126.096057026
 20
228.287349034
  0
SEQEND
  8
1
  0
LINE
  8
1
 62
4
  6
CONTINUOUS
 10
128.096057026
 20
219.987349034
 11
128.096057026
 21
229.987349034
  0
ENDBLK
  8
0
  0
BLOCK
  8
0
  2
blk52
 70
64
 10
0.000000000
 20
0.000000000
  3
blk52
  0
ARC
  8
1
 62
4
  6
CONTINUOUS
 10
0.000000000
 20
0.000000000
 40
1.000000000
 50
299.320656565
 51
405.580886176
  0
ENDBLK
  8
0
  0
BLOCK
  8
0
  2
blk111
 70
64
 10
0.000000000
 20
0.000000000
  3
blk111
  0
ARC
  8
1
 62
4
  6
CONTINUOUS
 10
0.000000000
 20
0.000000000
 40
1.000000000
 50
169.021432633
 51
275.281637559
  0
ENDBLK
  8
0
  0
BLOCK
  8
0
  2
blk113
 70
64
 10
0.000000000
 20
0.000000000
  3
blk113
  0
ARC
  8
1
 62
4
  6
CONTINUOUS
 10
0.000000000
 20
0.000000000
 40
1.000000000
 50
349.021432633
 51
455.281637559
  0
ENDBLK
  8
0
  0
BLOCK
  8
0
  2
blk114
 70
64
 10
0.000000000
 20
0.000000000
  3
blk114
  0
ARC
  8
1
 62
4
  6
CONTINUOUS
 10
0.000000000
 20
0.000000000
 40
1.000000000
 50
169.021432633
 51
275.281637559
  0
ENDBLK
  8
0
  0
BLOCK
  8
0
  2
blk206
 70
64
 10
0.000000000
 20
0.000000000
  3
blk206
  0
ARC
  8
1
 62
4
  6
CONTINUOUS
 10
0.000000000
 20
0.000000000
 40
1.000000000
 50
299.320656565
 51
405.580886176
  0
ENDBLK
  8
0
  0
BLOCK
  8
0
  2
blk207
 70
64
 10
0.000000000
 20
0.000000000
  3
blk207
  0
ARC
  8
1
 62
4
  6
CONTINUOUS
 10
0.000000000
 20
0.000000000
 40
1.000000000
 50
119.320656565
 51
225.580886176
  0
ENDBLK
  8
0
  0
BLOCK
  8
0
  2
*D216
 70
65
 10
0.000000000
 20
0.000000000
  3
*D
  0
TEXT
  8
1
 62
4
  6
CONTINUOUS
 72
5
 10
130.064457026
 20
181.692349034
 40
2.800000000
  1
(
 41
1.800001800
 11
131.744457026
 21
181.692349034
  0
TEXT
  8
1
 62
4
  6
CONTINUOUS
 72
5
 10
132.584457026
 20
181.692349034
 40
2.800000000
  1
40.6
 41
1.164705197
 11
141.824457026
 21
181.692349034
  0
TEXT
  8
1
 62
4
  6
CONTINUOUS
 72
5
 10
142.664457026
 20
181.692349034
 40
2.800000000
  1
)
 41
1.800001800
 11
144.344457026
 21
181.692349034
  0
POLYLINE
  8
1
 62
4
  6
CONTINUOUS
 66
1
  0
VERTEX
  8
1
 10
118.896057026
 20
179.787349034
  0
VERTEX
  8
1
 10
116.896057026
 20
179.487349034
  0
VERTEX
  8
1
 10
118.896057026
 20
179.187349034
  0
SEQEND
  8
1
  0
LINE
  8
1
 62
4
  6
CONTINUOUS
 10
116.896057026
 20
179.487349034
 11
157.496057026
 21
179.487349034
  0
POLYLINE
  8
1
 62
4
  6
CONTINUOUS
 66
1
  0
VERTEX
  8
1
 10
155.496057026
 20
179.187349034
  0
VERTEX
  8
1
 10
157.496057026
 20
179.487349034
  0
VERTEX
  8
1
 10
155.496057026
 20
179.787349034
  0
SEQEND
  8
1
  0
LINE
  8
1
 62
4
  6
CONTINUOUS
 10
157.496057026
 20
203.687349034
 11
157.496057026
 21
177.487349034
  0
ENDBLK
  8
0
  0
BLOCK
  8
0
  2
*D236
 70
65
 10
0.000000000
 20
0.000000000
  3
*D
  0
TEXT
  8
1
 62
4
  6
CONTINUOUS
 72
5
 10
55.324457026
 20
181.692349034
 40
2.800000000
  1
111.4
 41
1.399998600
 11
67.084457026
 21
181.692349034
  0
LINE
  8
1
 62
4
  6
CONTINUOUS
 10
5.496057026
 20
194.537349034
 11
5.496057026
 21
177.487349034
  0
POLYLINE
  8
1
 62
4
  6
CONTINUOUS
 66
1
  0
VERTEX
  8
1
 10
7.496057026
 20
179.787349034
  0
VERTEX
  8
1
 10
5.496057026
 20
179.487349034
  0
VERTEX
  8
1
 10
7.496057026
 20
179.187349034
  0
SEQEND
  8
1
  0
LINE
  8
1
 62
4
  6
CONTINUOUS
 10
5.496057026
 20
179.487349034
 11
116.896057026
 21
179.487349034
  0
POLYLINE
  8
1
 62
4
  6
CONTINUOUS
 66
1
  0
VERTEX
  8
1
 10
114.896057026
 20
179.187349034
  0
VERTEX
  8
1
 10
116.896057026
 20
179.487349034
  0
VERTEX
  8
1
 10
114.896057026
 20
179.787349034
  0
SEQEND
  8
1
  0
LINE
  8
1
 62
4
  6
CONTINUOUS
 10
116.896057026
 20
194.837349034
 11
116.896057026
 21
177.487349034
  0
ENDBLK
  8
0
  0
BLOCK
  8
0
  2
*D237
 70
65
 10
0.000000000
 20
0.000000000
  3
*D
  0
TEXT
  8
1
 62
4
  6
CONTINUOUS
 72
5
 10
-6.708942974
 20
199.024149034
 40
2.800000000
  1
φ
 41
1.270648030
 50
90.000000000
 11
-6.708942974
 21
202.384149034
  0
TEXT
  8
1
 62
4
  6
CONTINUOUS
 72
5
 10
-6.708942974
 20
204.064149034
 40
2.800000000
  1
25
 41
0.899998740
 50
90.000000000
 11
-6.708942974
 21
208.264149034
  0
TEXT
  8
1
 62
4
  6
CONTINUOUS
 72
5
 10
-8.472942974
 20
209.104149034
 40
1.400000000
  1
-0.02
 41
1.554544889
 50
90.000000000
 11
-8.472942974
 21
217.084149034
  0
TEXT
  8
1
 62
4
  6
CONTINUOUS
 72
5
 10
-6.330942974
 20
209.104149034
 40
1.400000000
  1
-0.03
 41
1.554544889
 50
90.000000000
 11
-6.330942974
 21
217.084149034
  0
LINE
  8
1
 62
4
  6
CONTINUOUS
 10
5.546057026
 20
219.487349034
 11
-6.503942974
 21
219.487349034
  0
POLYLINE
  8
1
 62
4
  6
CONTINUOUS
 66
1
  0
VERTEX
  8
1
 10
-4.203942974
 20
217.487349034
  0
VERTEX
  8
1
 10
-4.503942974
 20
219.487349034
  0
VERTEX
  8
1
 10
-4.803942974
 20
217.487349034
  0
SEQEND
  8
1
  0
LINE
  8
1
 62
4
  6
CONTINUOUS
 10
-4.503942974
 20
219.487349034
 11
-4.503942974
 21
194.487349034
  0
POLYLINE
  8
1
 62
4
  6
CONTINUOUS
 66
1
  0
VERTEX
  8
1
 10
-4.803942974
 20
196.487349034
  0
VERTEX
  8
1
 10
-4.503942974
 20
194.487349034
  0
VERTEX
  8
1
 10
-4.203942974
 20
196.487349034
  0
SEQEND
  8
1
  0
LINE
  8
1
 62
4
  6
CONTINUOUS
 10
5.546057026
 20
194.487349034
 11
-6.503942974
 21
194.487349034
  0
ENDBLK
  8
0
  0
ENDSEC
  0
SECTION
  2
ENTITIES
  0
DIMENSION
  8
1
 62
4
  6
CONTINUOUS
  2
*D1
 70
0
 10
128.096057026
 20
227.987349034
 11
122.496057026
 21
227.987349034
 14
128.096057026
 24
219.987349034
 13
116.896057026
 23
219.137349034
 50
0.000000000
  0
LINE
  8
1
 62
7
  6
CONTINUOUS
 10
117.096057026
 20
219.087349034
 11
117.096057026
 21
212.887349034
  0
LINE
  8
1
 62
7
  6
CONTINUOUS
 10
126.596057026
 20
211.987349034
 11
128.096057026
 21
211.987349034
  0
LINE
  8
1
 62
7
  6
CONTINUOUS
 10
117.996057026
 20
219.987349034
 11
117.096057026
 21
219.087349034
  0
LINE
  8
1
 62
7
  6
CONTINUOUS
 10
125.996057026
 20
219.987349034
 11
125.996057026
 21
211.987349034
  0
LINE
  8
1
 62
7
  6
CONTINUOUS
 10
117.996057026
 20
219.987349034
 11
117.996057026
 21
211.987349034
  0
LINE
  8
1
 62
7
  6
CONTINUOUS
 10
117.096057026
 20
213.237349034
 11
116.896057026
 21
213.237349034
  0
LINE
  8
1
 62
1
  6
CENTER
 10
3.496057026
 20
206.987349034
 11
182.705630208
 21
206.987349034
  0
LINE
  8
1
 62
7
  6
CONTINUOUS
 10
117.096057026
 20
218.737349034
 11
116.896057026
 21
218.737349034
  0
LINE
  8
1
 62
7
  6
CONTINUOUS
 10
116.596057026
 20
194.537349034
 11
116.896057026
 21
194.837349034
  0
LINE
  8
1
 62
7
  6
CONTINUOUS
 10
116.896057026
 20
219.137349034
 11
116.596057026
 21
219.437349034
  0
LINE
  8
1
 62
7
  6
CONTINUOUS
 10
116.896057026
 20
219.137349034
 11
116.896057026
 21
194.837349034
  0
LINE
  8
1
 62
7
  6
CONTINUOUS
 10
116.596057026
 20
194.537349034
 11
97.396057026
 21
194.537349034
  0
LINE
  8
1
 62
7
  6
CONTINUOUS
 10
97.396057026
 20
194.537349034
 11
97.396057026
 21
219.437349034
  0
LINE
  8
1
 62
7
  6
CONTINUOUS
 10
97.396057026
 20
219.437349034
 11
116.596057026
 21
219.437349034
  0
ARC
  8
1
 62
7
  6
CONTINUOUS
 10
137.981342495
 20
206.987349034
 40
25.322443360
 50
165.226196770
 51
194.773803230
  0
LINE
  8
1
 62
7
  6
CONTINUOUS
 10
116.896057026
 20
213.444665287
 11
113.496057026
 21
213.444665287
  0
LINE
  8
1
 62
7
  6
CONTINUOUS
 10
116.896057026
 20
200.530032781
 11
113.496057026
 21
200.530032781
  0
LINE
  8
1
 62
7
  6
CONTINUOUS
 10
117.996057026
 20
211.987349034
 11
125.996057026
 21
211.987349034
  0
LINE
  8
1
 62
7
  6
CONTINUOUS
 10
125.996057026
 20
213.487349034
 11
126.596057026
 21
213.487349034
  0
LINE
  8
1
 62
7
  6
CONTINUOUS
 10
157.496057026
 20
203.687349034
 11
157.496057026
 21
210.287349034
  0
LINE
  8
1
 62
7
  6
CONTINUOUS
 10
125.096057026
 20
219.987349034
 11
125.096057026
 21
211.987349034
  0
LINE
  8
1
 62
7
  6
CONTINUOUS
 10
128.096057026
 20
219.987349034
 11
128.096057026
 21
211.987349034
  0
LINE
  8
1
 62
7
  6
CONTINUOUS
 10
126.596057026
 20
219.987349034
 11
126.596057026
 21
211.987349034
  0
LINE
  8
2
 62
7
  6
CONTINUOUS
 10
128.096257026
 20
213.987349033
 11
168.096057026
 21
213.987349033
  0
LINE
  8
2
 62
7
  6
CONTINUOUS
 10
128.096257026
 20
217.987349033
 11
168.096057026
 21
217.987349033
  0
LINE
  8
4
 62
1
  6
CENTER
 10
114.896057026
 20
215.987349034
 11
170.096057026
 21
215.987349033
  0
LINE
  8
1
 62
7
  6
CONTINUOUS
 10
126.596057026
 20
219.987349034
 11
128.096057026
 21
219.987349034
  0
LINE
  8
1
 62
7
  6
CONTINUOUS
 10
117.717767415
 20
201.593199891
 11
123.855557467
 21
202.493409099
  0
LINE
  8
1
 62
7
  6
CONTINUOUS
 10
125.143322457
 20
202.597925266
 11
154.786090139
 21
203.087349034
  0
LINE
  8
1
 62
7
  6
CONTINUOUS
 10
154.786090139
 20
210.387349034
 11
154.786090139
 21
203.587349034
  0
ARC
  8
1
 62
7
  6
CONTINUOUS
 10
154.786090139
 20
202.087349034
 40
1.000000000
 50
46.658241773
 51
90.000000000
  0
ARC
  8
1
 62
7
  6
CONTINUOUS
 10
156.296057026
 20
203.687349034
 40
1.200000000
 50
226.658241773
 51
0.000000000
  0
ARC
  8
1
 62
7
  6
CONTINUOUS
 10
154.786090139
 20
211.887349034
 40
1.000000000
 50
270.000000000
 51
313.341758227
  0
ARC
  8
1
 62
7
  6
CONTINUOUS
 10
156.296057026
 20
210.287349034
 40
1.200000000
 50
0.000000000
 51
133.341758227
  0
LINE
  8
1
 62
7
  6
CONTINUOUS
 10
125.143322457
 20
211.376772801
 11
154.786090139
 21
210.887349034
  0
LINE
  8
1
 62
7
  6
CONTINUOUS
 10
120.405147935
 20
211.987349034
 11
123.855557467
 21
211.481288969
  0
ARC
  8
1
 62
7
  6
CONTINUOUS
 10
116.266625541
 20
202.487349034
 40
10.000000000
 50
82.435257549
 51
86.391237674
  0
ARC
  8
1
 62
7
  6
CONTINUOUS
 10
125.306699342
 20
221.375438112
 40
10.000000000
 50
261.656108416
 51
269.063877759
  0
LINE
  8
2
 62
7
  6
CONTINUOUS
 10
182.705630208
 20
203.887349034
 11
157.496057026
 21
203.887349034
  0
ARC
  8
1
 62
7
  6
CONTINUOUS
 10
116.266625541
 20
211.487349034
 40
10.000000000
 50
273.608762326
 51
278.343891584
  0
ARC
  8
1
 62
7
  6
CONTINUOUS
 10
125.306699342
 20
192.599259956
 40
10.000000000
 50
90.936122241
 51
98.343891584
  0
LINE
  8
1
 62
7
  6
CONTINUOUS
 10
117.996057026
 20
219.987349034
 11
125.996057026
 21
219.987349034
  0
ARC
  8
1
 62
4
  6
CONTINUOUS
 10
167.346057026
 20
216.987349033
 40
1.250000000
 50
306.869897646
 51
53.130102354
  0
ARC
  8
1
 62
4
  6
CONTINUOUS
 10
168.846057026
 20
216.987349033
 40
1.250000000
 50
126.869897646
 51
233.130102354
  0
ARC
  8
1
 62
4
  6
CONTINUOUS
 10
167.346057026
 20
214.987349033
 40
1.250000000
 50
306.869897646
 51
53.130102354
  0
LINE
  8
1
 62
7
  6
CONTINUOUS
 10
125.996057026
 20
218.487349034
 11
126.596057026
 21
218.487349034
  0
LINE
  8
1
 62
7
  6
CONTINUOUS
 10
117.996057026
 20
211.987349034
 11
117.096057026
 21
212.887349034
  0
LINE
  8
2
 62
7
  6
CONTINUOUS
 10
157.496057026
 20
210.087349034
 11
182.705630208
 21
210.087349034
  0
LINE
  8
1
 62
7
  6
CONTINUOUS
 10
-0.965570162
 20
154.095901665
 11
-0.965570162
 21
139.878796403
  0
LINE
  8
1
 62
7
  6
CONTINUOUS
 10
-0.465570162
 20
154.076164823
 11
-0.465570162
 21
139.898533245
  0
INSERT
  8
1
 62
4
  6
CONTINUOUS
  2
blk52
 10
211.235050496
 20
178.500304157
 41
2.405313965
 42
1.928269180
 50
105.304247900
  0
LINE
  8
1
 62
7
  6
CONTINUOUS
 10
119.998076068
 20
154.787349034
 11
126.998076068
 21
154.787349034
  0
LINE
  8
1
 62
7
  6
CONTINUOUS
 10
127.498076068
 20
154.287349034
 11
127.498076068
 21
139.687349034
  0
LINE
  8
1
 62
7
  6
CONTINUOUS
 10
126.998076068
 20
139.187349034
 11
119.998076068
 21
139.187349034
  0
LINE
  8
1
 62
7
  6
CONTINUOUS
 10
119.498076068
 20
139.687349034
 11
119.498076068
 21
154.287349034
  0
LINE
  8
1
 62
4
  6
CONTINUOUS
 10
119.998076068
 20
147.987349034
 11
126.998076068
 21
147.987349034
  0
LINE
  8
1
 62
4
  6
CONTINUOUS
 10
126.998076068
 20
145.987349034
 11
119.998076068
 21
145.987349034
  0
LINE
  8
1
 62
4
  6
CONTINUOUS
 10
119.998076068
 20
146.987349034
 11
126.998076068
 21
146.987349034
  0
LINE
  8
1
 62
4
  6
CONTINUOUS
 10
126.998076068
 20
144.987349034
 11
119.998076068
 21
144.987349034
  0
LINE
  8
1
 62
7
  6
CONTINUOUS
 10
118.498076068
 20
153.737349034
 11
117.998076068
 21
153.737349034
  0
LINE
  8
1
 62
4
  6
CONTINUOUS
 10
126.998076068
 20
143.987349034
 11
119.998076068
 21
143.987349034
  0
LINE
  8
1
 62
4
  6
CONTINUOUS
 10
126.998076068
 20
142.987349034
 11
119.998076068
 21
142.987349034
  0
LINE
  8
1
 62
7
  6
CONTINUOUS
 10
117.998076068
 20
153.737349034
 11
117.248076068
 21
154.487349034
  0
LINE
  8
1
 62
7
  6
CONTINUOUS
 10
117.248076068
 20
154.487349034
 11
111.548076068
 21
154.487349034
  0
LINE
  8
1
 62
7
  6
CONTINUOUS
 10
117.248076068
 20
139.487349034
 11
111.548076068
 21
139.487349034
  0
LINE
  8
1
 62
7
  6
CONTINUOUS
 10
117.998076068
 20
140.237349034
 11
117.248076068
 21
139.487349034
  0
LINE
  8
1
 62
7
  6
CONTINUOUS
 10
118.498076068
 20
140.237349034
 11
117.998076068
 21
140.237349034
  0
LINE
  8
1
 62
7
  6
CONTINUOUS
 10
111.548076068
 20
154.487349034
 11
111.548076068
 21
150.528184034
  0
LINE
  8
1
 62
7
  6
CONTINUOUS
 10
117.248076068
 20
139.487349034
 11
117.248076068
 21
143.446514034
  0
LINE
  8
1
 62
7
  6
CONTINUOUS
 10
117.998076068
 20
153.737349034
 11
117.998076068
 21
140.237349034
  0
LINE
  8
1
 62
7
  6
CONTINUOUS
 10
118.498076068
 20
140.237349034
 11
118.498076068
 21
153.737349034
  0
LINE
  8
1
 62
4
  6
CONTINUOUS
 10
126.998076068
 20
141.987349034
 11
119.998076068
 21
141.987349034
  0
LINE
  8
1
 62
4
  6
CONTINUOUS
 10
126.998076068
 20
140.987349034
 11
119.998076068
 21
140.987349034
  0
LINE
  8
1
 62
7
  6
CONTINUOUS
 10
118.498076068
 20
152.987349034
 11
119.498076068
 21
152.987349034
  0
LINE
  8
1
 62
7
  6
CONTINUOUS
 10
119.498076068
 20
140.987349034
 11
118.498076068
 21
140.987349034
  0
LINE
  8
1
 62
4
  6
CONTINUOUS
 10
126.998076068
 20
140.187349034
 11
119.998076068
 21
140.187349034
  0
LINE
  8
1
 62
7
  6
CONTINUOUS
 10
128.758191031
 20
153.987349034
 11
128.758191031
 21
139.987349034
  0
LINE
  8
1
 62
7
  6
CONTINUOUS
 10
129.758191031
 20
139.237349034
 11
129.758191031
 21
154.737349034
  0
LINE
  8
1
 62
1
  6
CONTINUOUS
 10
127.498076068
 20
153.487349034
 11
128.758191031
 21
153.487349034
  0
LINE
  8
1
 62
7
  6
CONTINUOUS
 10
131.258191031
 20
139.237349034
 11
131.258191031
 21
154.737349034
  0
LINE
  8
1
 62
7
  6
CONTINUOUS
 10
138.008191031
 20
154.487349034
 11
138.008191031
 21
150.528184034
  0
LINE
  8
1
 62
7
  6
CONTINUOUS
 10
129.758191031
 20
139.237349034
 11
131.258191031
 21
139.237349034
  0
LINE
  8
1
 62
1
  6
CONTINUOUS
 10
128.758191031
 20
140.487349034
 11
127.498076068
 21
140.487349034
  0
LINE
  8
1
 62
7
  6
CONTINUOUS
 10
131.258191031
 20
139.487349034
 11
138.008191031
 21
139.487349034
  0
LINE
  8
1
 62
7
  6
CONTINUOUS
 10
131.258191031
 20
154.487349034
 11
138.008191031
 21
154.487349034
  0
LINE
  8
1
 62
7
  6
CONTINUOUS
 10
129.758191031
 20
154.737349034
 11
131.258191031
 21
154.737349034
  0
LINE
  8
1
 62
1
  6
CONTINUOUS
 10
128.758191031
 20
140.487349034
 11
129.624216435
 21
139.987349034
  0
LINE
  8
1
 62
1
  6
CONTINUOUS
 10
129.624216435
 20
153.987349034
 11
128.758191031
 21
153.487349034
  0
LINE
  8
1
 62
7
  6
CONTINUOUS
 10
127.498076068
 20
153.987349034
 11
129.758191031
 21
153.987349034
  0
LINE
  8
1
 62
7
  6
CONTINUOUS
 10
129.758191031
 20
139.987349034
 11
127.498076068
 21
139.987349034
  0
LINE
  8
1
 62
7
  6
CONTINUOUS
 10
138.008191031
 20
143.446514034
 11
138.008191031
 21
139.487349034
  0
LINE
  8
1
 62
7
  6
CONTINUOUS
 10
158.758191031
 20
141.987349034
 11
159.558191031
 21
141.987349034
  0
LINE
  8
1
 62
7
  6
CONTINUOUS
 10
159.558191031
 20
151.987349034
 11
158.758191031
 21
151.987349034
  0
LINE
  8
1
 62
7
  6
CONTINUOUS
 10
131.258191031
 20
143.446514034
 11
138.008191031
 21
143.446514034
  0
LINE
  8
1
 62
7
  6
CONTINUOUS
 10
138.008191031
 20
150.528184034
 11
131.258191031
 21
150.528184034
  0
LINE
  8
1
 62
7
  6
CONTINUOUS
 10
138.008191031
 20
154.487349034
 11
158.758191031
 21
154.487349034
  0
LINE
  8
1
 62
7
  6
CONTINUOUS
 10
158.758191031
 20
139.487349034
 11
158.758191031
 21
154.487349034
  0
LINE
  8
1
 62
7
  6
CONTINUOUS
 10
138.008191031
 20
139.487349034
 11
158.758191031
 21
139.487349034
  0
ARC
  8
1
 62
7
  6
CONTINUOUS
 10
126.885452397
 20
146.987349034
 40
11.672738634
 50
342.341541512
 51
17.658458488
  0
LINE
  8
1
 62
7
  6
CONTINUOUS
 10
159.558191031
 20
150.174824034
 11
162.058191031
 21
150.174824034
  0
LINE
  8
1
 62
7
  6
CONTINUOUS
 10
162.058191031
 20
143.799874034
 11
159.558191031
 21
143.799874034
  0
LINE
  8
1
 62
7
  6
CONTINUOUS
 10
162.058191031
 20
139.487349034
 11
162.058191031
 21
154.487349034
  0
LINE
  8
1
 62
7
  6
CONTINUOUS
 10
159.558191031
 20
139.487349034
 11
162.058191031
 21
139.487349034
  0
LINE
  8
1
 62
7
  6
CONTINUOUS
 10
159.558191031
 20
154.487349034
 11
159.558191031
 21
139.487349034
  0
LINE
  8
1
 62
7
  6
CONTINUOUS
 10
162.058191031
 20
154.487349034
 11
159.558191031
 21
154.487349034
  0
LINE
  8
1
 62
7
  6
CONTINUOUS
 10
182.705630208
 20
143.887349034
 11
162.058191031
 21
143.887349034
  0
LINE
  8
1
 62
7
  6
CONTINUOUS
 10
-15.215570162
 20
138.887349034
 11
-15.215570162
 21
155.087349034
  0
LINE
  8
1
 62
7
  6
CONTINUOUS
 10
-15.215570162
 20
139.387349034
 11
-13.415570162
 21
139.387349034
  0
LINE
  8
1
 62
7
  6
CONTINUOUS
 10
58.848768976
 20
150.087349034
 11
26.884429838
 21
150.087349034
  0
INSERT
  8
1
 62
4
  6
CONTINUOUS
  2
blk111
 10
210.286807255
 20
184.329285015
 41
1.998909783
 42
1.885690988
 50
58.744665057
  0
LINE
  8
1
 62
7
  6
CONTINUOUS
 10
87.498076068
 20
150.087349034
 11
61.948768976
 21
150.087349034
  0
INSERT
  8
1
 62
4
  6
CONTINUOUS
  2
blk113
 10
213.688076448
 20
182.695394947
 41
1.998909783
 42
1.885690988
 50
58.744665057
  0
INSERT
  8
1
 62
4
  6
CONTINUOUS
  2
blk114
 10
213.312594458
 20
185.003534080
 41
1.998909783
 42
1.885690988
 50
58.744665057
  0
TEXT
  8
1
 62
3
  6
CONTINUOUS
 72
5
 10
57.696057026
 20
120.003349034
 40
4.000000000
  1
ＥＭ２５－５０００－Ｊ４
 41
0.834252425
 11
104.896057026
 21
120.003349034
  0
LINE
  8
1
 62
7
  6
CONTINUOUS
 10
87.498076068
 20
143.887349034
 11
61.948768976
 21
143.887349034
  0
LINE
  8
1
 62
7
  6
CONTINUOUS
 10
162.058191031
 20
150.087349034
 11
182.705630208
 21
150.087349034
  0
LINE
  8
1
 62
1
  6
CENTER
 10
-40.415570162
 20
146.987349034
 11
182.705630208
 21
146.987349034
  0
LINE
  8
1
 62
4
  6
CONTINUOUS
 10
126.998076068
 20
148.987349034
 11
119.998076068
 21
148.987349034
  0
LINE
  8
1
 62
4
  6
CONTINUOUS
 10
119.998076068
 20
149.987349034
 11
126.998076068
 21
149.987349034
  0
LINE
  8
1
 62
4
  6
CONTINUOUS
 10
126.998076068
 20
150.987349034
 11
119.998076068
 21
150.987349034
  0
LINE
  8
1
 62
4
  6
CONTINUOUS
 10
119.998076068
 20
151.987349034
 11
126.998076068
 21
151.987349034
  0
LINE
  8
1
 62
4
  6
CONTINUOUS
 10
126.998076068
 20
152.987349034
 11
119.998076068
 21
152.987349034
  0
LINE
  8
1
 62
4
  6
CONTINUOUS
 10
119.998076068
 20
153.787349034
 11
126.998076068
 21
153.787349034
  0
LINE
  8
1
 62
7
  6
CONTINUOUS
 10
117.248076068
 20
150.528184034
 11
117.248076068
 21
154.487349034
  0
LINE
  8
1
 62
7
  6
CONTINUOUS
 10
111.548076068
 20
143.446514034
 11
111.548076068
 21
139.487349034
  0
LINE
  8
1
 62
7
  6
CONTINUOUS
 10
90.798076068
 20
141.987349034
 11
89.998076068
 21
141.987349034
  0
LINE
  8
1
 62
7
  6
CONTINUOUS
 10
89.998076068
 20
151.987349034
 11
90.798076068
 21
151.987349034
  0
LINE
  8
1
 62
7
  6
CONTINUOUS
 10
117.248076068
 20
143.446514034
 11
111.548076068
 21
143.446514034
  0
LINE
  8
1
 62
7
  6
CONTINUOUS
 10
111.548076068
 20
150.528184034
 11
117.248076068
 21
150.528184034
  0
LINE
  8
1
 62
7
  6
CONTINUOUS
 10
111.548076068
 20
139.487349034
 11
90.798076068
 21
139.487349034
  0
LINE
  8
1
 62
7
  6
CONTINUOUS
 10
90.798076068
 20
139.487349034
 11
90.798076068
 21
154.487349034
  0
LINE
  8
1
 62
7
  6
CONTINUOUS
 10
111.548076068
 20
154.487349034
 11
90.798076068
 21
154.487349034
  0
ARC
  8
1
 62
7
  6
CONTINUOUS
 10
122.670814702
 20
146.987349034
 40
11.672738634
 50
162.341541512
 51
197.658458488
  0
ARC
  8
1
 62
7
  6
CONTINUOUS
 10
106.125337434
 20
146.987349034
 40
11.672738634
 50
342.341541512
 51
17.658458488
  0
LINE
  8
1
 62
7
  6
CONTINUOUS
 10
89.998076068
 20
150.174824034
 11
87.498076068
 21
150.174824034
  0
LINE
  8
1
 62
7
  6
CONTINUOUS
 10
87.498076068
 20
143.799874034
 11
89.998076068
 21
143.799874034
  0
LINE
  8
1
 62
7
  6
CONTINUOUS
 10
87.498076068
 20
139.487349034
 11
87.498076068
 21
154.487349034
  0
LINE
  8
1
 62
7
  6
CONTINUOUS
 10
89.998076068
 20
139.487349034
 11
87.498076068
 21
139.487349034
  0
LINE
  8
1
 62
7
  6
CONTINUOUS
 10
89.998076068
 20
154.487349034
 11
89.998076068
 21
139.487349034
  0
LINE
  8
1
 62
7
  6
CONTINUOUS
 10
119.498076068
 20
154.287349034
 11
119.998076068
 21
154.787349034
  0
LINE
  8
1
 62
7
  6
CONTINUOUS
 10
126.998076068
 20
154.787349034
 11
126.998076068
 21
139.187349034
  0
LINE
  8
1
 62
7
  6
CONTINUOUS
 10
119.998076068
 20
154.787349034
 11
119.998076068
 21
139.187349034
  0
LINE
  8
1
 62
7
  6
CONTINUOUS
 10
126.998076068
 20
154.787349034
 11
127.498076068
 21
154.287349034
  0
LINE
  8
1
 62
7
  6
CONTINUOUS
 10
119.998076068
 20
139.187349034
 11
119.498076068
 21
139.687349034
  0
LINE
  8
1
 62
7
  6
CONTINUOUS
 10
87.498076068
 20
154.487349034
 11
89.998076068
 21
154.487349034
  0
LINE
  8
1
 62
7
  6
CONTINUOUS
 10
127.498076068
 20
139.687349034
 11
126.998076068
 21
139.187349034
  0
LINE
  8
1
 62
7
  6
CONTINUOUS
 10
0.234429838
 20
154.048533244
 11
0.234429838
 21
139.926164824
  0
ARC
  8
1
 62
7
  6
CONTINUOUS
 10
182.705630208
 20
176.987349034
 40
33.100000000
 50
270.000000000
 51
5.917352917
  0
ARC
  8
1
 62
7
  6
CONTINUOUS
 10
182.705630208
 20
176.987349034
 40
26.900000000
 50
270.000000000
 51
5.917352917
  0
ARC
  8
1
 62
1
  6
CENTER
 10
182.705630208
 20
176.987349034
 40
30.000000000
 50
270.000000000
 51
90.000000000
  0
ARC
  8
1
 62
7
  6
CONTINUOUS
 10
182.705630208
 20
176.987349034
 40
33.100000000
 50
12.562220557
 51
90.000000000
  0
LINE
  8
1
 62
7
  6
CONTINUOUS
 10
-1.665570162
 20
154.123533244
 11
-1.665570162
 21
139.851164824
  0
LINE
  8
1
 62
7
  6
CONTINUOUS
 10
-2.165570162
 20
154.143270086
 11
-2.165570162
 21
139.831427982
  0
LINE
  8
1
 62
7
  6
CONTINUOUS
 10
-2.865570162
 20
154.170901665
 11
-2.865570162
 21
139.803796403
  0
LINE
  8
1
 62
7
  6
CONTINUOUS
 10
0.234429838
 20
139.926164824
 11
1.784429838
 21
139.987349034
  0
ARC
  8
1
 62
7
  6
CONTINUOUS
 10
-2.493230039
 20
139.251662407
 40
0.665949786
 50
60.526635804
 51
123.994368018
  0
ARC
  8
1
 62
7
  6
CONTINUOUS
 10
-0.093230039
 20
139.346399249
 40
0.665949786
 50
60.526635804
 51
123.994368018
  0
LINE
  8
1
 62
7
  6
CONTINUOUS
 10
-1.665570162
 20
139.851164824
 11
-2.165570162
 21
139.831427982
  0
LINE
  8
1
 62
7
  6
CONTINUOUS
 10
-0.465570162
 20
139.898533245
 11
-0.965570162
 21
139.878796403
  0
ARC
  8
1
 62
7
  6
CONTINUOUS
 10
-2.493230039
 20
154.723035662
 40
0.665949786
 50
236.005631982
 51
299.473364196
  0
ARC
  8
1
 62
7
  6
CONTINUOUS
 10
-0.093230039
 20
154.628298820
 40
0.665949786
 50
236.005631982
 51
299.473364196
  0
LINE
  8
1
 62
7
  6
CONTINUOUS
 10
-2.865570162
 20
154.170901665
 11
-13.415570162
 21
154.587349034
  0
ARC
  8
1
 62
7
  6
CONTINUOUS
 10
-1.293230039
 20
139.299030828
 40
0.665949786
 50
60.526635804
 51
123.994368018
  0
LINE
  8
1
 62
7
  6
CONTINUOUS
 10
-1.665570162
 20
154.123533244
 11
-2.165570162
 21
154.143270086
  0
LINE
  8
1
 62
7
  6
CONTINUOUS
 10
-0.465570162
 20
154.076164823
 11
-0.965570162
 21
154.095901665
  0
LINE
  8
1
 62
7
  6
CONTINUOUS
 10
26.884429838
 20
151.287349034
 11
4.884429838
 21
152.137349034
  0
LINE
  8
1
 62
7
  6
CONTINUOUS
 10
-33.415570162
 20
139.087349034
 11
-31.115570162
 21
139.087349034
  0
LINE
  8
1
 62
7
  6
CONTINUOUS
 10
-28.115570162
 20
155.087349034
 11
-30.415570162
 21
155.087349034
  0
LINE
  8
1
 62
7
  6
CONTINUOUS
 10
-17.615570162
 20
155.587349034
 11
-28.115570162
 21
155.587349034
  0
LINE
  8
1
 62
7
  6
CONTINUOUS
 10
-33.415570162
 20
154.887349034
 11
-31.115570162
 21
154.887349034
  0
LINE
  8
1
 62
7
  6
CONTINUOUS
 10
-15.215570162
 20
155.087349034
 11
-17.615570162
 21
155.087349034
  0
LINE
  8
1
 62
1
  6
CONTINUOUS
 10
-33.415570162
 20
154.387349034
 11
-31.115570162
 21
154.387349034
  0
LINE
  8
1
 62
7
  6
CONTINUOUS
 10
-13.415570162
 20
154.587349034
 11
-15.215570162
 21
154.587349034
  0
LINE
  8
1
 62
7
  6
CONTINUOUS
 10
1.784429838
 20
153.987349034
 11
0.234429838
 21
154.048533244
  0
LINE
  8
1
 62
7
  6
CONTINUOUS
 10
4.884429838
 20
153.387349034
 11
1.784429838
 21
153.987349034
  0
LINE
  8
1
 62
7
  6
CONTINUOUS
 10
4.884429838
 20
140.587349034
 11
4.884429838
 21
153.387349034
  0
LINE
  8
1
 62
7
  6
CONTINUOUS
 10
1.784429838
 20
139.987349034
 11
4.884429838
 21
140.587349034
  0
LINE
  8
1
 62
7
  6
CONTINUOUS
 10
-31.115570162
 20
154.887349034
 11
-31.115570162
 21
139.087349034
  0
ARC
  8
1
 62
7
  6
CONTINUOUS
 10
-1.293230039
 20
154.675667241
 40
0.665949786
 50
236.005631982
 51
299.473364196
  0
LINE
  8
1
 62
1
  6
CONTINUOUS
 10
-33.415570162
 20
139.587349034
 11
-31.115570162
 21
139.587349034
  0
LINE
  8
1
 62
7
  6
CONTINUOUS
 10
-31.115570162
 20
154.387349034
 11
-30.415570162
 21
154.387349034
  0
LINE
  8
1
 62
7
  6
CONTINUOUS
 10
-31.115570162
 20
139.587349034
 11
-30.415570162
 21
139.587349034
  0
LINE
  8
1
 62
7
  6
CONTINUOUS
 10
-17.615570162
 20
138.887349034
 11
-15.215570162
 21
138.887349034
  0
LINE
  8
1
 62
7
  6
CONTINUOUS
 10
-17.615570162
 20
138.387349034
 11
-17.615570162
 21
155.587349034
  0
LINE
  8
1
 62
7
  6
CONTINUOUS
 10
-28.115570162
 20
138.387349034
 11
-17.615570162
 21
138.387349034
  0
LINE
  8
1
 62
7
  6
CONTINUOUS
 10
-28.115570162
 20
155.587349034
 11
-28.115570162
 21
138.387349034
  0
LINE
  8
1
 62
7
  6
CONTINUOUS
 10
-30.415570162
 20
138.887349034
 11
-28.115570162
 21
138.887349034
  0
LINE
  8
1
 62
7
  6
CONTINUOUS
 10
-30.415570162
 20
155.087349034
 11
-30.415570162
 21
138.887349034
  0
LINE
  8
1
 62
7
  6
CONTINUOUS
 10
-13.415570162
 20
139.387349034
 11
-2.865570162
 21
139.803796403
  0
LINE
  8
1
 62
7
  6
CONTINUOUS
 10
-13.415570162
 20
139.387349034
 11
-13.415570162
 21
154.587349034
  0
LINE
  8
1
 62
7
  6
CONTINUOUS
 10
1.784429838
 20
139.987349034
 11
1.784429838
 21
153.987349034
  0
LINE
  8
1
 62
7
  6
CONTINUOUS
 10
26.884429838
 20
142.687349034
 11
4.884429838
 21
141.837349034
  0
LINE
  8
1
 62
7
  6
CONTINUOUS
 10
26.884429838
 20
151.287349034
 11
26.884429838
 21
142.687349034
  0
LINE
  8
1
 62
7
  6
CONTINUOUS
 10
-33.415570162
 20
153.637349034
 11
-38.415570162
 21
153.637349034
  0
LINE
  8
1
 62
7
  6
CONTINUOUS
 10
-33.415570162
 20
139.087349034
 11
-33.415570162
 21
154.887349034
  0
LINE
  8
1
 62
7
  6
CONTINUOUS
 10
-38.415570162
 20
153.637349034
 11
-38.415570162
 21
140.337349034
  0
LINE
  8
1
 62
7
  6
CONTINUOUS
 10
-38.415570162
 20
140.337349034
 11
-33.415570162
 21
140.337349034
  0
LINE
  8
1
 62
7
  6
CONTINUOUS
 10
58.848768976
 20
143.887349034
 11
26.884429838
 21
143.887349034
  0
ARC
  8
1
 62
4
  6
CONTINUOUS
 10
63.111268976
 20
148.537349034
 40
1.937500000
 50
126.869897646
 51
233.130102354
  0
ARC
  8
1
 62
4
  6
CONTINUOUS
 10
60.786268976
 20
145.437349034
 40
1.937500000
 50
306.869897646
 51
53.130102354
  0
ARC
  8
1
 62
4
  6
CONTINUOUS
 10
63.111268976
 20
145.437349034
 40
1.937500000
 50
126.869897646
 51
233.130102354
  0
ARC
  8
1
 62
4
  6
CONTINUOUS
 10
57.686268976
 20
145.437349034
 40
1.937500000
 50
306.869897646
 51
53.130102354
  0
ARC
  8
1
 62
4
  6
CONTINUOUS
 10
60.011268976
 20
148.537349034
 40
1.937500000
 50
126.869897646
 51
233.130102354
  0
ARC
  8
1
 62
4
  6
CONTINUOUS
 10
57.686268976
 20
148.537349034
 40
1.937500000
 50
306.869897646
 51
53.130102354
  0
INSERT
  8
1
 62
4
  6
CONTINUOUS
  2
blk206
 10
214.318532578
 20
178.819894916
 41
2.405313965
 42
1.928269180
 50
105.304247900
  0
INSERT
  8
1
 62
4
  6
CONTINUOUS
  2
blk207
 10
210.773026189
 20
181.340430748
 41
2.405313965
 42
1.928269180
 50
105.304247900
  0
LINE
  8
1
 62
7
  6
CONTINUOUS
 10
20.896057026
 20
219.437349034
 11
20.896057026
 21
194.537349034
  0
LINE
  8
1
 62
7
  6
CONTINUOUS
 10
20.946057026
 20
194.487349034
 11
97.346057026
 21
194.487349034
  0
LINE
  8
1
 62
7
  6
CONTINUOUS
 10
97.396057026
 20
194.537349034
 11
97.396057026
 21
219.437349034
  0
LINE
  8
1
 62
7
  6
CONTINUOUS
 10
97.346057026
 20
219.487349034
 11
20.946057026
 21
219.487349034
  0
LINE
  8
1
 62
7
  6
CONTINUOUS
 10
20.896057026
 20
219.437349034
 11
20.946057026
 21
219.487349034
  0
LINE
  8
1
 62
7
  6
CONTINUOUS
 10
20.946057026
 20
194.487349034
 11
20.896057026
 21
194.537349034
  0
LINE
  8
1
 62
7
  6
CONTINUOUS
 10
97.346057026
 20
219.487349034
 11
97.396057026
 21
219.437349034
  0
LINE
  8
1
 62
7
  6
CONTINUOUS
 10
97.396057026
 20
194.537349034
 11
97.346057026
 21
194.487349034
  0
DIMENSION
  8
1
 62
4
  6
CONTINUOUS
  2
*D216
 70
0
 10
157.496057026
 20
179.487349034
 11
137.196057026
 21
179.487349034
 14
157.496057026
 24
203.687349034
 13
116.896057026
 23
194.837349034
 50
0.000000000
  0
LINE
  8
1
 62
7
  6
CONTINUOUS
 10
113.496057026
 20
213.444665287
 11
113.496057026
 21
200.530032781
  0
LINE
  8
1
 62
4
  6
CONTINUOUS
 10
113.496057026
 20
200.530032781
 11
116.896057026
 21
213.444665287
  0
LINE
  8
1
 62
4
  6
CONTINUOUS
 10
113.496057026
 20
213.444665287
 11
116.896057026
 21
200.530032781
  0
LINE
  8
1
 62
7
  6
CONTINUOUS
 10
26.396057026
 20
212.924520077
 11
28.396057026
 21
212.924520077
  0
LINE
  8
1
 62
7
  6
CONTINUOUS
 10
26.396057026
 20
201.050177990
 11
28.396057026
 21
201.050177990
  0
LINE
  8
1
 62
7
  6
CONTINUOUS
 10
26.396057026
 20
212.924520077
 11
26.396057026
 21
201.050177990
  0
LINE
  8
1
 62
7
  6
CONTINUOUS
 10
28.396057026
 20
212.924520077
 11
28.396057026
 21
201.050177990
  0
LINE
  8
1
 62
4
  6
CONTINUOUS
 10
26.396057026
 20
212.924520077
 11
28.396057026
 21
201.050177990
  0
LINE
  8
1
 62
4
  6
CONTINUOUS
 10
28.396057026
 20
212.924520077
 11
26.396057026
 21
201.050177990
  0
ARC
  8
1
 62
7
  6
CONTINUOUS
 10
8.477472739
 20
206.987349034
 40
20.784609691
 50
343.402157864
 51
16.597842136
  0
ARC
  8
1
 62
7
  6
CONTINUOUS
 10
46.314641313
 20
206.987349034
 40
20.784609691
 50
163.402157864
 51
196.597842136
  0
LINE
  8
1
 62
7
  6
CONTINUOUS
 10
5.496057026
 20
219.437349034
 11
5.496057026
 21
194.537349034
  0
LINE
  8
1
 62
7
  6
CONTINUOUS
 10
5.546057026
 20
194.487349034
 11
20.846057026
 21
194.487349034
  0
LINE
  8
1
 62
7
  6
CONTINUOUS
 10
20.896057026
 20
194.537349034
 11
20.896057026
 21
219.437349034
  0
LINE
  8
1
 62
7
  6
CONTINUOUS
 10
20.846057026
 20
219.487349034
 11
5.546057026
 21
219.487349034
  0
LINE
  8
1
 62
7
  6
CONTINUOUS
 10
5.496057026
 20
219.437349034
 11
5.546057026
 21
219.487349034
  0
LINE
  8
1
 62
7
  6
CONTINUOUS
 10
20.846057026
 20
219.487349034
 11
20.896057026
 21
219.437349034
  0
LINE
  8
1
 62
7
  6
CONTINUOUS
 10
5.546057026
 20
194.487349034
 11
5.496057026
 21
194.537349034
  0
LINE
  8
1
 62
7
  6
CONTINUOUS
 10
20.896057026
 20
194.537349034
 11
20.846057026
 21
194.487349034
  0
DIMENSION
  8
1
 62
4
  6
CONTINUOUS
  2
*D236
 70
0
 10
116.896057026
 20
179.487349034
 11
61.196057026
 21
179.487349034
 14
116.896057026
 24
194.837349034
 13
5.496057026
 23
194.537349034
 50
0.000000000
  0
DIMENSION
  8
1
 62
4
  6
CONTINUOUS
  2
*D237
 70
1
 10
-4.503942974
 20
194.487349034
 11
-4.503942974
 21
206.987349034
 14
5.546057026
 24
194.487349034
 13
5.546057026
 23
219.487349034
 50
90.000000000
  0
LINE
  8
1
 62
7
  6
CONTINUOUS
 10
15.596057026
 20
212.924520077
 11
18.996057026
 21
212.924520077
  0
LINE
  8
1
 62
7
  6
CONTINUOUS
 10
15.596057026
 20
201.050177990
 11
18.996057026
 21
201.050177990
  0
LINE
  8
1
 62
7
  6
CONTINUOUS
 10
15.596057026
 20
212.924520077
 11
15.596057026
 21
201.050177990
  0
LINE
  8
1
 62
7
  6
CONTINUOUS
 10
18.996057026
 20
212.924520077
 11
18.996057026
 21
201.050177990
  0
LINE
  8
1
 62
4
  6
CONTINUOUS
 10
15.596057026
 20
212.924520077
 11
18.996057026
 21
201.050177990
  0
LINE
  8
1
 62
4
  6
CONTINUOUS
 10
18.996057026
 20
212.924520077
 11
15.596057026
 21
201.050177990
  0
ARC
  8
1
 62
7
  6
CONTINUOUS
 10
-0.922527261
 20
206.987349034
 40
20.784609691
 50
343.402157864
 51
16.597842136
  0
ARC
  8
1
 62
7
  6
CONTINUOUS
 10
35.514641313
 20
206.987349034
 40
20.784609691
 50
163.402157864
 51
196.597842136
  0
ARC
  8
1
 62
7
  6
CONTINUOUS
 10
182.705630208
 20
176.987349034
 40
26.900000000
 50
12.562220557
 51
90.000000000
  0
ENDSEC
  0
EOF
