  0
SECTION
  2
HEADER
  9
$ACADVER
  1
AC1009
  9
$INSBASE
 10
-3.019602240
 20
3.107346444
  9
$EXTMIN
 10
-25.511831757
 20
-19.082515253
  9
$EXTMAX
 10
280.630149325
 20
209.907667788
  9
$LIMMIN
 10
-25.511831757
 20
-19.082515253
  9
$LIMMAX
 10
280.630149325
 20
209.907667788
  9
$SNAPBASE
 10
0.000000000
 20
0.000000000
  9
$SNAPANG
 50
0.000000000
  9
$SNAPSTYLE
 70
0
  9
$GRIDMODE
 70
0
  9
$GRIDUNIT
 10
0.000000000
 20
0.000000000
  9
$DIMEXO
 40
0.000000000
  9
$DIMDLI
 40
8.000000000
  9
$DIMDLE
 40
0.000000000
  9
$DIMEXE
 40
1.000000000
  9
$DIMTIH
 70
1
  9
$DIMTOH
 70
1
  9
$DIMTAD
 70
2
  9
$DIMZIN
 70
0
  9
$FILLETRAD
 40
1.000000000
  9
$CHAMFERA
 40
1.000000000
  9
$CHAMFERB
 40
1.000000000
  9
$TDCREATE
 40
2454600.586863426
  9
$TDUPDATE
 40
2454600.586863426
  9
$ANGBASE
 50
0.000000000
  9
$ANGDIR
 70
0
  0
ENDSEC
  0
SECTION
  2
TABLES
  0
TABLE
  2
LTYPE
 70
3
  0
LTYPE
  2
CENTER
 70
64
  3
___ _ ___ _ __
 72
65
 73
4
 40
13.000000000
 49
8.500000000
 49
-1.500000000
 49
1.500000000
 49
-1.500000000
  0
LTYPE
  2
CONTINUOUS
 70
64
  3
______________
 72
65
 73
0
 40
0.000000000
  0
LTYPE
  2
DIVIDE
 70
64
  3
___ . . ___ . 
 72
65
 73
6
 40
12.999999523
 49
5.199999809
 49
-2.599999905
 49
0.000000000
 49
-2.599999905
 49
0.000000000
 49
-2.599999905
  0
ENDTAB
  0
TABLE
  2
LAYER
 70
2
  0
LAYER
  2
1
 70
0
 62
7
  6
CONTINUOUS
  0
LAYER
  2
5
 70
0
 62
7
  6
CONTINUOUS
999
Comment
  0
LAYER
  2
_CONSTR
 70
0
 62
5
  6
CONTINUOUS
  0
ENDTAB
  0
TABLE
  2
STYLE
 70
1
  0
STYLE
  2
STANDARD
 70
64
 40
0.000000000
 41
1.000000000
 50
0.000000000
 71
0
 42
3.200000000
  3
TXT
  4
EXTFONT
  0
ENDTAB
  0
TABLE
  2
VIEW
 70
0
  0
ENDTAB
  0
ENDSEC
  0
SECTION
  2
BLOCKS
  0
BLOCK
  8
0
  2
*D31
 70
65
 10
0.000000000
 20
0.000000000
  3
*D
  0
TEXT
  8
1
 62
4
  6
CONTINUOUS
 72
5
 10
121.342142323
 20
145.603337998
 40
2.800000000
  1
40
 41
1.000000667
 50
90.000000000
 11
121.342142323
 21
149.803337998
  0
LINE
  8
1
 62
4
  6
CONTINUOUS
 10
70.516603781
 20
127.694937998
 11
125.547142323
 21
127.694937998
  0
POLYLINE
  8
1
 62
4
  6
CONTINUOUS
 66
1
  0
VERTEX
  8
1
 10
123.247142323
 20
129.694937998
  0
VERTEX
  8
1
 10
123.547142323
 20
127.694937998
  0
VERTEX
  8
1
 10
123.847142323
 20
129.694937998
  0
SEQEND
  8
1
  0
LINE
  8
1
 62
4
  6
CONTINUOUS
 10
123.547142323
 20
127.694937998
 11
123.547142323
 21
167.694937998
  0
POLYLINE
  8
1
 62
4
  6
CONTINUOUS
 66
1
  0
VERTEX
  8
1
 10
123.847142323
 20
165.694937998
  0
VERTEX
  8
1
 10
123.547142323
 20
167.694937998
  0
VERTEX
  8
1
 10
123.247142323
 20
165.694937998
  0
SEQEND
  8
1
  0
LINE
  8
1
 62
4
  6
CONTINUOUS
 10
55.966603781
 20
167.694937998
 11
125.547142323
 21
167.694937998
  0
ENDBLK
  8
0
  0
BLOCK
  8
0
  2
*D41
 70
65
 10
0.000000000
 20
0.000000000
  3
*D
  0
TEXT
  8
1
 62
4
  6
CONTINUOUS
 72
5
 10
192.927061891
 20
139.228093547
 40
2.800000000
  1
φ
 41
1.270648030
 50
347.636485391
 11
196.209139531
 21
138.508672697
  0
TEXT
  8
1
 62
4
  6
CONTINUOUS
 72
5
 10
197.850178352
 20
138.148962272
 40
2.800000000
  1
38
 41
0.899998740
 50
347.636485391
 11
201.952775403
 21
137.249686209
  0
POLYLINE
  8
1
 62
4
  6
CONTINUOUS
 66
1
  0
VERTEX
  8
1
 10
220.244942674
 20
130.675628890
  0
VERTEX
  8
1
 10
222.262794321
 20
130.540444840
  0
VERTEX
  8
1
 10
220.373410683
 20
131.261714183
  0
SEQEND
  8
1
  0
LINE
  8
1
 62
4
  6
CONTINUOUS
 10
222.262794321
 20
130.540444840
 11
185.144059098
 21
138.676752077
  0
POLYLINE
  8
1
 62
4
  6
CONTINUOUS
 66
1
  0
VERTEX
  8
1
 10
187.161910746
 20
138.541568027
  0
VERTEX
  8
1
 10
185.144059098
 20
138.676752077
  0
VERTEX
  8
1
 10
187.033442737
 20
137.955482734
  0
SEQEND
  8
1
  0
ENDBLK
  8
0
  0
BLOCK
  8
0
  2
blk56
 70
64
 10
0.000000000
 20
0.000000000
  3
blk56
  0
ARC
  8
1
 62
5
  6
CONTINUOUS
 10
0.000000000
 20
0.000000000
 40
1.000000000
 50
180.000000000
 51
360.000000000
  0
ENDBLK
  8
0
  0
BLOCK
  8
0
  2
*D84
 70
65
 10
0.000000000
 20
0.000000000
  3
*D
  0
TEXT
  8
1
 62
4
  6
CONTINUOUS
 72
5
 10
42.915003781
 20
181.666534596
 40
2.800000000
  1
φ
 41
1.270648030
 11
46.275003781
 21
181.666534596
  0
TEXT
  8
1
 62
4
  6
CONTINUOUS
 72
5
 10
47.955003781
 20
181.666534596
 40
2.800000000
  1
D
 41
0.899996850
 11
49.635003781
 21
181.666534596
  0
LINE
  8
1
 62
4
  6
CONTINUOUS
 10
56.266603781
 20
167.394937998
 11
56.266603781
 21
181.461534596
  0
POLYLINE
  8
1
 62
4
  6
CONTINUOUS
 66
1
  0
VERTEX
  8
1
 10
54.266603781
 20
179.161534596
  0
VERTEX
  8
1
 10
56.266603781
 20
179.461534596
  0
VERTEX
  8
1
 10
54.266603781
 20
179.761534596
  0
SEQEND
  8
1
  0
LINE
  8
1
 62
4
  6
CONTINUOUS
 10
56.266603781
 20
179.461534596
 11
36.266603781
 21
179.461534596
  0
POLYLINE
  8
1
 62
4
  6
CONTINUOUS
 66
1
  0
VERTEX
  8
1
 10
38.266603781
 20
179.761534596
  0
VERTEX
  8
1
 10
36.266603781
 20
179.461534596
  0
VERTEX
  8
1
 10
38.266603781
 20
179.161534596
  0
SEQEND
  8
1
  0
LINE
  8
1
 62
4
  6
CONTINUOUS
 10
36.266603781
 20
167.394937998
 11
36.266603781
 21
181.461534596
  0
ENDBLK
  8
0
  0
BLOCK
  8
0
  2
*D85
 70
65
 10
0.000000000
 20
0.000000000
  3
*D
  0
TEXT
  8
1
 62
4
  6
CONTINUOUS
 72
5
 10
41.655003781
 20
27.692160513
 40
2.800000000
  1
φ
 41
1.270648030
 11
45.015003781
 21
27.692160513
  0
TEXT
  8
1
 62
4
  6
CONTINUOUS
 72
5
 10
46.695003781
 20
27.692160513
 40
2.800000000
  1
28
 41
0.899998740
 11
50.895003781
 21
27.692160513
  0
LINE
  8
1
 62
4
  6
CONTINUOUS
 10
32.266603781
 20
70.716154127
 11
32.266603781
 21
23.487160513
  0
POLYLINE
  8
1
 62
4
  6
CONTINUOUS
 66
1
  0
VERTEX
  8
1
 10
34.266603781
 20
25.787160513
  0
VERTEX
  8
1
 10
32.266603781
 20
25.487160513
  0
VERTEX
  8
1
 10
34.266603781
 20
25.187160513
  0
SEQEND
  8
1
  0
LINE
  8
1
 62
4
  6
CONTINUOUS
 10
32.266603781
 20
25.487160513
 11
60.266603781
 21
25.487160513
  0
POLYLINE
  8
1
 62
4
  6
CONTINUOUS
 66
1
  0
VERTEX
  8
1
 10
58.266603781
 20
25.187160513
  0
VERTEX
  8
1
 10
60.266603781
 20
25.487160513
  0
VERTEX
  8
1
 10
58.266603781
 20
25.787160513
  0
SEQEND
  8
1
  0
LINE
  8
1
 62
4
  6
CONTINUOUS
 10
60.266603781
 20
70.716154127
 11
60.266603781
 21
23.487160513
  0
ENDBLK
  8
0
  0
BLOCK
  8
0
  2
blk113
 70
64
 10
0.000000000
 20
0.000000000
  3
blk113
  0
CIRCLE
  8
1
 62
5
  6
CONTINUOUS
 10
0.000000000
 20
0.000000000
 40
1.000000000
  0
ENDBLK
  8
0
  0
BLOCK
  8
0
  2
blk114
 70
64
 10
0.000000000
 20
0.000000000
  3
blk114
  0
CIRCLE
  8
1
 62
5
  6
CONTINUOUS
 10
0.000000000
 20
0.000000000
 40
1.000000000
  0
ENDBLK
  8
0
  0
BLOCK
  8
0
  2
blk115
 70
64
 10
0.000000000
 20
0.000000000
  3
blk115
  0
ARC
  8
1
 62
5
  6
CONTINUOUS
 10
0.000000000
 20
0.000000000
 40
1.000000000
 50
359.999797693
 51
540.000000000
  0
ENDBLK
  8
0
  0
BLOCK
  8
0
  2
blk116
 70
64
 10
0.000000000
 20
0.000000000
  3
blk116
  0
ARC
  8
1
 62
5
  6
CONTINUOUS
 10
0.000000000
 20
0.000000000
 40
1.000000000
 50
338.960488397
 51
559.774831578
  0
ENDBLK
  8
0
  0
BLOCK
  8
0
  2
blk117
 70
64
 10
0.000000000
 20
0.000000000
  3
blk117
  0
ARC
  8
1
 62
5
  6
CONTINUOUS
 10
0.000000000
 20
0.000000000
 40
1.000000000
 50
359.999797693
 51
540.000000000
  0
ENDBLK
  8
0
  0
BLOCK
  8
0
  2
blk122
 70
64
 10
0.000000000
 20
0.000000000
  3
blk122
  0
ARC
  8
1
 62
5
  6
CONTINUOUS
 10
0.000000000
 20
0.000000000
 40
1.000000000
 50
30.548918413
 51
149.451062449
  0
ENDBLK
  8
0
  0
BLOCK
  8
0
  2
blk123
 70
64
 10
0.000000000
 20
0.000000000
  3
blk123
  0
ARC
  8
1
 62
5
  6
CONTINUOUS
 10
0.000000000
 20
0.000000000
 40
1.000000000
 50
30.548898204
 51
30.548918413
  0
ENDBLK
  8
0
  0
BLOCK
  8
0
  2
blk125
 70
64
 10
0.000000000
 20
0.000000000
  3
blk125
  0
ARC
  8
1
 62
5
  6
CONTINUOUS
 10
0.000000000
 20
0.000000000
 40
1.000000000
 50
323.468077595
 51
349.785808649
  0
ENDBLK
  8
0
  0
BLOCK
  8
0
  2
blk126
 70
64
 10
0.000000000
 20
0.000000000
  3
blk126
  0
ARC
  8
1
 62
5
  6
CONTINUOUS
 10
0.000000000
 20
0.000000000
 40
1.000000000
 50
190.214087364
 51
216.531852667
  0
ENDBLK
  8
0
  0
BLOCK
  8
0
  2
blk129
 70
64
 10
0.000000000
 20
0.000000000
  3
blk129
  0
ARC
  8
1
 62
5
  6
CONTINUOUS
 10
0.000000000
 20
0.000000000
 40
1.000000000
 50
359.999797693
 51
540.000000000
  0
ENDBLK
  8
0
  0
BLOCK
  8
0
  2
blk147
 70
64
 10
0.000000000
 20
0.000000000
  3
blk147
  0
ARC
  8
1
 62
5
  6
CONTINUOUS
 10
0.000000000
 20
0.000000000
 40
1.000000000
 50
0.000000000
 51
180.000000000
  0
ENDBLK
  8
0
  0
BLOCK
  8
0
  2
*D157
 70
65
 10
0.000000000
 20
0.000000000
  3
*D
  0
TEXT
  8
1
 62
4
  6
CONTINUOUS
 72
5
 10
121.290213072
 20
81.152964690
 40
2.800000000
  1
(
 41
1.800001800
 50
90.000000000
 11
121.290213072
 21
82.832964690
  0
TEXT
  8
1
 62
4
  6
CONTINUOUS
 72
5
 10
121.290213072
 20
83.672964690
 40
2.800000000
  1
78.7
 41
1.099999267
 50
90.000000000
 11
121.290213072
 21
92.912964690
  0
TEXT
  8
1
 62
4
  6
CONTINUOUS
 72
5
 10
121.290213072
 20
93.752964690
 40
2.800000000
  1
)
 41
1.800001800
 50
90.000000000
 11
121.290213072
 21
95.432964690
  0
LINE
  8
1
 62
4
  6
CONTINUOUS
 10
70.516603781
 20
127.694937998
 11
125.547142323
 21
127.694937998
  0
POLYLINE
  8
1
 62
4
  6
CONTINUOUS
 66
1
  0
VERTEX
  8
1
 10
123.847142323
 20
125.694937998
  0
VERTEX
  8
1
 10
123.547142323
 20
127.694937998
  0
VERTEX
  8
1
 10
123.247142323
 20
125.694937998
  0
SEQEND
  8
1
  0
LINE
  8
1
 62
4
  6
CONTINUOUS
 10
123.547142323
 20
127.694937998
 11
123.547142323
 21
49.023435383
  0
POLYLINE
  8
1
 62
4
  6
CONTINUOUS
 66
1
  0
VERTEX
  8
1
 10
123.247142323
 20
51.023435383
  0
VERTEX
  8
1
 10
123.547142323
 20
49.023435383
  0
VERTEX
  8
1
 10
123.847142323
 20
51.023435383
  0
SEQEND
  8
1
  0
LINE
  8
1
 62
4
  6
CONTINUOUS
 10
102.797864292
 20
49.023435383
 11
125.547142323
 21
49.023435383
  0
ENDBLK
  8
0
  0
BLOCK
  8
0
  2
*D158
 70
65
 10
0.000000000
 20
0.000000000
  3
*D
  0
TEXT
  8
1
 62
4
  6
CONTINUOUS
 72
5
 10
112.645501441
 20
49.179211809
 40
2.800000000
  1
(
 41
1.800001800
 50
90.000000000
 11
112.645501441
 21
50.859211809
  0
TEXT
  8
1
 62
4
  6
CONTINUOUS
 72
5
 10
112.645501441
 20
51.699211809
 40
2.800000000
  1
14.7
 41
1.237498917
 50
90.000000000
 11
112.645501441
 21
60.939211809
  0
TEXT
  8
1
 62
4
  6
CONTINUOUS
 72
5
 10
112.645501441
 20
61.779211809
 40
2.800000000
  1
)
 41
1.800001800
 50
90.000000000
 11
112.645501441
 21
63.459211809
  0
POLYLINE
  8
1
 62
4
  6
CONTINUOUS
 66
1
  0
VERTEX
  8
1
 10
115.228418931
 20
61.694937998
  0
VERTEX
  8
1
 10
114.928418931
 20
63.694937998
  0
VERTEX
  8
1
 10
114.628418931
 20
61.694937998
  0
SEQEND
  8
1
  0
LINE
  8
1
 62
4
  6
CONTINUOUS
 10
114.928418931
 20
63.694937998
 11
114.928418931
 21
49.023435383
  0
POLYLINE
  8
1
 62
4
  6
CONTINUOUS
 66
1
  0
VERTEX
  8
1
 10
114.628418931
 20
51.023435383
  0
VERTEX
  8
1
 10
114.928418931
 20
49.023435383
  0
VERTEX
  8
1
 10
115.228418931
 20
51.023435383
  0
SEQEND
  8
1
  0
LINE
  8
1
 62
4
  6
CONTINUOUS
 10
49.689253512
 20
49.023435383
 11
116.928418931
 21
49.023435383
  0
ENDBLK
  8
0
  0
BLOCK
  8
0
  2
*D160
 70
65
 10
0.000000000
 20
0.000000000
  3
*D
  0
TEXT
  8
1
 62
4
  6
CONTINUOUS
 72
5
 10
105.019575973
 20
113.603337998
 40
2.800000000
  1
24
 41
0.899998740
 50
90.000000000
 11
105.019575973
 21
117.803337998
  0
POLYLINE
  8
1
 62
4
  6
CONTINUOUS
 66
1
  0
VERTEX
  8
1
 10
107.524575973
 20
125.694937998
  0
VERTEX
  8
1
 10
107.224575973
 20
127.694937998
  0
VERTEX
  8
1
 10
106.924575973
 20
125.694937998
  0
SEQEND
  8
1
  0
LINE
  8
1
 62
4
  6
CONTINUOUS
 10
107.224575973
 20
127.694937998
 11
107.224575973
 21
103.694937998
  0
POLYLINE
  8
1
 62
4
  6
CONTINUOUS
 66
1
  0
VERTEX
  8
1
 10
106.924575973
 20
105.694937998
  0
VERTEX
  8
1
 10
107.224575973
 20
103.694937998
  0
VERTEX
  8
1
 10
107.524575973
 20
105.694937998
  0
SEQEND
  8
1
  0
LINE
  8
1
 62
4
  6
CONTINUOUS
 10
70.516603781
 20
103.694937998
 11
109.224575973
 21
103.694937998
  0
ENDBLK
  8
0
  0
BLOCK
  8
0
  2
*D161
 70
65
 10
0.000000000
 20
0.000000000
  3
*D
  0
TEXT
  8
1
 62
4
  6
CONTINUOUS
 72
5
 10
39.135003781
 20
193.030152534
 40
2.800000000
  1
φ
 41
1.270648030
 11
42.495003781
 21
193.030152534
  0
TEXT
  8
1
 62
4
  6
CONTINUOUS
 72
5
 10
44.175003781
 20
193.030152534
 40
2.800000000
  1
49.5
 41
1.099999267
 11
53.415003781
 21
193.030152534
  0
LINE
  8
1
 62
4
  6
CONTINUOUS
 10
71.016603781
 20
127.194937998
 11
71.016603781
 21
192.825152534
  0
POLYLINE
  8
1
 62
4
  6
CONTINUOUS
 66
1
  0
VERTEX
  8
1
 10
69.016603781
 20
190.525152534
  0
VERTEX
  8
1
 10
71.016603781
 20
190.825152534
  0
VERTEX
  8
1
 10
69.016603781
 20
191.125152534
  0
SEQEND
  8
1
  0
LINE
  8
1
 62
4
  6
CONTINUOUS
 10
71.016603781
 20
190.825152534
 11
21.516603781
 21
190.825152534
  0
POLYLINE
  8
1
 62
4
  6
CONTINUOUS
 66
1
  0
VERTEX
  8
1
 10
23.516603781
 20
191.125152534
  0
VERTEX
  8
1
 10
21.516603781
 20
190.825152534
  0
VERTEX
  8
1
 10
23.516603781
 20
190.525152534
  0
SEQEND
  8
1
  0
LINE
  8
1
 62
4
  6
CONTINUOUS
 10
21.516603781
 20
127.194937998
 11
21.516603781
 21
192.825152534
  0
ENDBLK
  8
0
  0
BLOCK
  8
0
  2
*D162
 70
65
 10
0.000000000
 20
0.000000000
  3
*D
  0
TEXT
  8
1
 62
4
  6
CONTINUOUS
 72
5
 10
111.990733652
 20
93.546041440
 40
2.800000000
  1
64
 41
0.899998740
 50
90.000000000
 11
111.990733652
 21
97.746041440
  0
LINE
  8
1
 62
4
  6
CONTINUOUS
 10
58.616603781
 20
63.694937998
 11
116.928418931
 21
63.694937998
  0
POLYLINE
  8
1
 62
4
  6
CONTINUOUS
 66
1
  0
VERTEX
  8
1
 10
114.628418931
 20
65.694937998
  0
VERTEX
  8
1
 10
114.928418931
 20
63.694937998
  0
VERTEX
  8
1
 10
115.228418931
 20
65.694937998
  0
SEQEND
  8
1
  0
LINE
  8
1
 62
4
  6
CONTINUOUS
 10
114.928418931
 20
63.694937998
 11
114.928418931
 21
127.694937998
  0
POLYLINE
  8
1
 62
4
  6
CONTINUOUS
 66
1
  0
VERTEX
  8
1
 10
115.228418931
 20
125.694937998
  0
VERTEX
  8
1
 10
114.928418931
 20
127.694937998
  0
VERTEX
  8
1
 10
114.628418931
 20
125.694937998
  0
SEQEND
  8
1
  0
LINE
  8
1
 62
4
  6
CONTINUOUS
 10
70.516603781
 20
127.694937998
 11
116.928418931
 21
127.694937998
  0
ENDBLK
  8
0
  0
BLOCK
  8
0
  2
*D171
 70
65
 10
0.000000000
 20
0.000000000
  3
*D
  0
TEXT
  8
1
 62
4
  6
CONTINUOUS
 72
5
 10
129.383666471
 20
99.967586690
 40
2.800000000
  1
(
 41
1.800001800
 50
90.000000000
 11
129.383666471
 21
101.647586690
  0
TEXT
  8
1
 62
4
  6
CONTINUOUS
 72
5
 10
129.383666471
 20
102.487586690
 40
2.800000000
  1
118.7
 41
1.259998992
 50
90.000000000
 11
129.383666471
 21
114.247586690
  0
TEXT
  8
1
 62
4
  6
CONTINUOUS
 72
5
 10
129.383666471
 20
115.087586690
 40
2.800000000
  1
)
 41
1.800001800
 50
90.000000000
 11
129.383666471
 21
116.767586690
  0
LINE
  8
1
 62
4
  6
CONTINUOUS
 10
123.547142323
 20
49.023435383
 11
133.588666471
 21
49.023435383
  0
POLYLINE
  8
1
 62
4
  6
CONTINUOUS
 66
1
  0
VERTEX
  8
1
 10
131.288666471
 20
51.023435383
  0
VERTEX
  8
1
 10
131.588666471
 20
49.023435383
  0
VERTEX
  8
1
 10
131.888666471
 20
51.023435383
  0
SEQEND
  8
1
  0
LINE
  8
1
 62
4
  6
CONTINUOUS
 10
131.588666471
 20
49.023435383
 11
131.588666471
 21
167.694937998
  0
POLYLINE
  8
1
 62
4
  6
CONTINUOUS
 66
1
  0
VERTEX
  8
1
 10
131.888666471
 20
165.694937998
  0
VERTEX
  8
1
 10
131.588666471
 20
167.694937998
  0
VERTEX
  8
1
 10
131.288666471
 20
165.694937998
  0
SEQEND
  8
1
  0
LINE
  8
1
 62
4
  6
CONTINUOUS
 10
123.547142323
 20
167.694937998
 11
133.588666471
 21
167.694937998
  0
ENDBLK
  8
0
  0
BLOCK
  8
0
  2
blk173
 70
64
 10
0.000000000
 20
0.000000000
  3
blk173
  0
ARC
  8
1
 62
5
  6
CONTINUOUS
 10
0.000000000
 20
0.000000000
 40
1.000000000
 50
335.139691923
 51
564.860203111
  0
ENDBLK
  8
0
  0
BLOCK
  8
0
  2
*D187
 70
65
 10
0.000000000
 20
0.000000000
  3
*D
  0
TEXT
  8
1
 62
4
  6
CONTINUOUS
 72
5
 10
248.566839945
 20
131.256998458
 40
2.800000000
  1
60
 41
1.000000667
 50
90.000000000
 11
248.566839945
 21
135.456998458
  0
TEXT
  8
1
 62
4
  6
CONTINUOUS
 72
5
 10
248.566839945
 20
136.296998458
 40
2.800000000
  1
°
 41
1.270648030
 50
90.000000000
 11
248.566839945
 21
139.656998458
  0
LINE
  8
1
 62
4
  6
CONTINUOUS
 10
241.533607260
 20
156.449863383
 11
246.197919095
 21
159.142805076
  0
POLYLINE
  8
1
 62
4
  6
CONTINUOUS
 66
1
  0
VERTEX
  8
1
 10
245.725675909
 20
156.560754269
  0
VERTEX
  8
1
 10
244.465868288
 20
158.142805076
  0
VERTEX
  8
1
 10
245.206060667
 20
156.260754269
  0
SEQEND
  8
1
  0
ARC
  8
1
 62
4
  6
CONTINUOUS
 10
203.703426710
 20
134.608598459
 40
47.068413235
 50
330.000000000
 51
30.000000000
  0
POLYLINE
  8
1
 62
4
  6
CONTINUOUS
 66
1
  0
VERTEX
  8
1
 10
245.206060667
 20
112.956442648
  0
VERTEX
  8
1
 10
244.465868288
 20
111.074391841
  0
VERTEX
  8
1
 10
245.725675909
 20
112.656442648
  0
SEQEND
  8
1
  0
LINE
  8
1
 62
4
  6
CONTINUOUS
 10
244.070427394
 20
111.302699747
 11
246.197919096
 21
110.074391841
  0
ENDBLK
  8
0
  0
ENDSEC
  0
SECTION
  2
ENTITIES
  0
TEXT
  8
1
 62
2
  6
CONTINUOUS
 72
5
 10
73.938793181
 20
18.263535492
 40
3.200000000
  1
ＳＭＳ４０１　ストレートシャンク
 41
0.834679378
 11
124.538793181
 21
18.263535492
  0
CIRCLE
  8
1
 62
5
  6
CONTINUOUS
 10
203.703426710
 20
134.608598459
 40
12.500000000
  0
LINE
  8
1
 62
5
  6
CONTINUOUS
 10
32.266603781
 20
70.716154127
 11
60.266603781
 21
70.716154127
  0
LINE
  8
1
 62
5
  6
CONTINUOUS
 10
247.118317566
 20
100.305395229
 11
219.986963754
 21
115.969689656
  0
LINE
  8
1
 62
5
  6
CONTINUOUS
 10
255.118317568
 20
114.161801688
 11
247.118317566
 21
100.305395229
  0
LINE
  8
1
 62
5
  6
CONTINUOUS
 10
227.986963754
 20
129.826096117
 11
255.118317568
 21
114.161801688
  0
LINE
  8
1
 62
1
  6
CENTER
 10
216.241744121
 20
127.369597526
 11
253.481792279
 21
105.869045697
  0
LINE
  8
1
 62
1
  6
CENTER
 10
216.241744121
 20
141.847599391
 11
241.533607260
 21
156.449863383
  0
CIRCLE
  8
1
 62
5
  6
CONTINUOUS
 10
194.203426710
 20
151.063081130
 40
2.250000000
  0
CIRCLE
  8
1
 62
5
  6
CONTINUOUS
 10
213.203426710
 20
151.063081130
 40
2.250000000
  0
CIRCLE
  8
1
 62
5
  6
CONTINUOUS
 10
222.703426710
 20
134.608598458
 40
2.250000000
  0
CIRCLE
  8
1
 62
5
  6
CONTINUOUS
 10
213.203426710
 20
118.154115787
 40
2.250000000
  0
CIRCLE
  8
1
 62
5
  6
CONTINUOUS
 10
194.203426710
 20
118.154115787
 40
2.250000000
  0
CIRCLE
  8
1
 62
5
  6
CONTINUOUS
 10
184.703426710
 20
134.608598459
 40
2.250000000
  0
CIRCLE
  8
1
 62
1
  6
CENTER
 10
203.703426710
 20
134.608598459
 40
19.000000000
  0
LINE
  8
1
 62
1
  6
CENTER
 10
191.514644625
 20
113.497008605
 11
196.464425778
 21
122.070281048
  0
LINE
  8
1
 62
1
  6
CENTER
 10
191.368045313
 20
155.974105769
 11
196.176138487
 21
147.646244104
  0
LINE
  8
1
 62
1
  6
CENTER
 10
216.174225005
 20
156.208654716
 11
210.941480534
 21
147.145275429
  0
LINE
  8
1
 62
1
  6
CENTER
 10
210.942341676
 20
122.070429946
 11
215.889045304
 21
113.502487932
  0
LINE
  8
1
 62
1
  6
CENTER
 10
231.594208415
 20
134.608598458
 11
177.000290800
 21
134.608598459
  0
LINE
  8
1
 62
1
  6
CENTER
 10
203.703426710
 20
162.416426759
 11
203.703426710
 21
107.388279114
  0
LINE
  8
1
 62
5
  6
CONTINUOUS
 10
40.766603781
 20
53.173435383
 11
44.131188131
 21
53.173435383
  0
LINE
  8
1
 62
5
  6
CONTINUOUS
 10
40.766603781
 20
55.873435383
 11
44.131188131
 21
55.873435383
  0
LINE
  8
1
 62
5
  6
CONTINUOUS
 10
52.016603781
 20
56.023435383
 11
52.166603781
 21
56.173435383
  0
LINE
  8
1
 62
5
  6
CONTINUOUS
 10
48.402019432
 20
53.023435383
 11
52.016603781
 21
53.023435383
  0
LINE
  8
1
 62
5
  6
CONTINUOUS
 10
52.166603781
 20
52.873435383
 11
52.166603781
 21
52.582281109
  0
ARC
  8
1
 62
5
  6
CONTINUOUS
 10
51.166603781
 20
52.582281109
 40
1.000000000
 50
330.000000000
 51
0.000000000
  0
LINE
  8
1
 62
5
  6
CONTINUOUS
 10
48.402019432
 20
56.023435383
 11
52.016603781
 21
56.023435383
  0
LINE
  8
1
 62
5
  6
CONTINUOUS
 10
50.555278916
 20
49.523435383
 11
52.032629185
 21
52.082281109
  0
LINE
  8
1
 62
5
  6
CONTINUOUS
 10
40.366603781
 20
59.723435383
 11
40.366603781
 21
56.173435383
  0
DIMENSION
  8
1
 62
4
  6
CONTINUOUS
  2
*D31
 70
0
 10
123.547142323
 20
167.694937998
 11
123.547142323
 21
147.694937998
 14
55.966603781
 24
167.694937998
 13
70.516603781
 23
127.694937998
 50
90.000000000
  0
LINE
  8
1
 62
5
  6
CONTINUOUS
 10
46.266603781
 20
60.523435383
 11
51.366603781
 21
60.523435383
  0
LINE
  8
1
 62
5
  6
CONTINUOUS
 10
40.766603781
 20
53.023435383
 11
40.766603781
 21
56.023435383
  0
LINE
  8
1
 62
5
  6
CONTINUOUS
 10
40.366603781
 20
52.873435383
 11
40.516603781
 21
53.023435383
  0
ARC
  8
1
 62
5
  6
CONTINUOUS
 10
51.366603781
 20
59.723435383
 40
0.800000000
 50
0.000000000
 51
90.000000000
  0
ARC
  8
1
 62
5
  6
CONTINUOUS
 10
49.689253512
 20
50.023435383
 40
1.000000000
 50
270.000000000
 51
330.000000000
  0
ARC
  8
1
 62
5
  6
CONTINUOUS
 10
42.843954050
 20
50.023435383
 40
1.000000000
 50
210.000000000
 51
270.000000000
  0
ARC
  8
1
 62
5
  6
CONTINUOUS
 10
41.166603781
 20
59.723435383
 40
0.800000000
 50
90.000000000
 51
180.000000000
  0
LINE
  8
1
 62
5
  6
CONTINUOUS
 10
46.266603781
 20
60.523435383
 11
41.166603781
 21
60.523435383
  0
LINE
  8
1
 62
5
  6
CONTINUOUS
 10
52.166603781
 20
52.873435383
 11
52.016603781
 21
53.023435383
  0
DIMENSION
  8
1
 62
4
  6
CONTINUOUS
  2
*D41
 70
3
 10
222.262794321
 20
130.540444840
 11
196.959593520
 21
136.086824978
 15
185.144059098
 25
138.676752077
  0
CIRCLE
  8
1
 62
5
  6
CONTINUOUS
 10
184.703426710
 20
134.608598459
 40
3.800000000
  0
CIRCLE
  8
1
 62
5
  6
CONTINUOUS
 10
194.203426710
 20
151.063081130
 40
3.800000000
  0
CIRCLE
  8
1
 62
5
  6
CONTINUOUS
 10
213.203426710
 20
151.063081130
 40
3.800000000
  0
CIRCLE
  8
1
 62
5
  6
CONTINUOUS
 10
222.703426710
 20
134.608598458
 40
3.800000000
  0
CIRCLE
  8
1
 62
5
  6
CONTINUOUS
 10
213.203426710
 20
118.154115787
 40
3.800000000
  0
CIRCLE
  8
1
 62
5
  6
CONTINUOUS
 10
194.203426710
 20
118.154115787
 40
3.800000000
  0
LINE
  8
1
 62
5
  6
CONTINUOUS
 10
41.977928647
 20
49.523435383
 11
40.500578377
 21
52.082281109
  0
LINE
  8
1
 62
5
  6
CONTINUOUS
 10
44.131188131
 20
56.023435383
 11
40.516603781
 21
56.023435383
  0
LINE
  8
1
 62
5
  6
CONTINUOUS
 10
51.766603781
 20
53.023435383
 11
51.766603781
 21
56.023435383
  0
LINE
  8
1
 62
1
  6
CENTER
 10
61.346184519
 20
118.894937998
 11
99.580612768
 21
118.894937998
  0
LINE
  8
1
 62
5
  6
CONTINUOUS
 10
93.681494638
 20
126.894937998
 11
71.016603781
 21
126.894937998
  0
LINE
  8
1
 62
5
  6
CONTINUOUS
 10
52.166603781
 20
59.723435383
 11
52.166603781
 21
56.173435383
  0
LINE
  8
1
 62
5
  6
CONTINUOUS
 10
93.681494638
 20
110.894937998
 11
85.106263365
 21
110.894937998
  0
ARC
  8
1
 62
5
  6
CONTINUOUS
 10
41.366603781
 20
52.582281109
 40
1.000000000
 50
180.000000000
 51
210.000000000
  0
INSERT
  8
1
 62
5
  6
CONTINUOUS
  2
blk56
 10
93.681494638
 20
118.894937998
 41
8.000000000
 42
4.000000000
 50
90.000000000
  0
LINE
  8
1
 62
5
  6
CONTINUOUS
 10
40.366603781
 20
52.873435383
 11
40.366603781
 21
52.582281109
  0
LINE
  8
1
 62
5
  6
CONTINUOUS
 10
44.131188131
 20
53.023435383
 11
40.516603781
 21
53.023435383
  0
LINE
  8
1
 62
5
  6
CONTINUOUS
 10
241.652455563
 20
149.878952387
 11
235.902455563
 21
159.838244530
  0
LINE
  8
1
 62
5
  6
CONTINUOUS
 10
40.516603781
 20
56.023435383
 11
40.366603781
 21
56.173435383
  0
LINE
  8
1
 62
5
  6
CONTINUOUS
 10
42.843954050
 20
49.023435383
 11
49.689253512
 21
49.023435383
  0
LINE
  8
1
 62
5
  6
CONTINUOUS
 10
58.616603781
 20
63.694937998
 11
46.266603781
 21
63.694937998
  0
LINE
  8
1
 62
5
  6
CONTINUOUS
 10
229.684087208
 20
141.608774461
 11
222.756087208
 21
153.608422456
  0
LINE
  8
1
 62
5
  6
CONTINUOUS
 10
222.995474390
 20
150.693791695
 11
222.987555454
 21
150.707507695
  0
LINE
  8
1
 62
5
  6
CONTINUOUS
 10
235.573059954
 20
145.008774461
 11
228.645059954
 21
157.008422456
  0
LINE
  8
1
 62
5
  6
CONTINUOUS
 10
229.684087208
 20
141.608774461
 11
235.573059954
 21
145.008774461
  0
LINE
  8
1
 62
5
  6
CONTINUOUS
 10
222.756087208
 20
153.608422456
 11
228.645059954
 21
157.008422456
  0
LINE
  8
1
 62
5
  6
CONTINUOUS
 10
229.159059954
 20
156.118148341
 11
231.324123464
 21
157.368148341
  0
LINE
  8
1
 62
5
  6
CONTINUOUS
 10
235.059059954
 20
145.899048576
 11
237.224123464
 21
147.149048576
  0
LINE
  8
1
 62
5
  6
CONTINUOUS
 10
235.902455563
 20
159.838244530
 11
234.603417458
 21
159.088244530
  0
LINE
  8
1
 62
5
  6
CONTINUOUS
 10
241.652455563
 20
149.878952387
 11
240.353417458
 21
149.128952387
  0
LINE
  8
1
 62
5
  6
CONTINUOUS
 10
240.353417458
 20
149.128952387
 11
234.603417458
 21
159.088244530
  0
LINE
  8
1
 62
5
  6
CONTINUOUS
 10
235.728417458
 20
157.139687372
 11
234.169571731
 21
156.239687372
  0
LINE
  8
1
 62
5
  6
CONTINUOUS
 10
239.228417458
 20
151.077509545
 11
237.669571731
 21
150.177509545
  0
LINE
  8
1
 62
5
  6
CONTINUOUS
 10
232.919571731
 20
158.404750881
 11
231.274123464
 21
157.454750881
  0
LINE
  8
1
 62
5
  6
CONTINUOUS
 10
238.919571731
 20
148.012446036
 11
237.274123464
 21
147.062446036
  0
LINE
  8
1
 62
5
  6
CONTINUOUS
 10
238.919571731
 20
148.012446036
 11
232.919571731
 21
158.404750881
  0
LINE
  8
1
 62
5
  6
CONTINUOUS
 10
237.274123464
 20
147.062446036
 11
231.274123464
 21
157.454750881
  0
LINE
  8
1
 62
5
  6
CONTINUOUS
 10
227.184659371
 20
142.431271451
 11
228.703078605
 21
143.307931205
  0
LINE
  8
1
 62
5
  6
CONTINUOUS
 10
222.218676577
 20
151.032605959
 11
223.737095812
 21
151.909265712
  0
LINE
  8
1
 62
1
  6
CONTINUOUS
 10
228.037494256
 20
142.923655901
 11
227.014847081
 21
142.923655901
  0
LINE
  8
1
 62
1
  6
CONTINUOUS
 10
223.071511462
 20
151.524990409
 11
222.560187875
 21
150.639351977
  0
CIRCLE
  8
1
 62
5
  6
CONTINUOUS
 10
203.703426710
 20
134.608598459
 40
24.750000000
  0
DIMENSION
  8
1
 62
4
  6
CONTINUOUS
  2
*D84
 70
1
 10
36.266603781
 20
179.461534596
 11
46.266603781
 21
179.461534596
 14
36.266603781
 24
167.394937998
 13
56.266603781
 23
167.394937998
 50
360.000000000
  0
DIMENSION
  8
1
 62
4
  6
CONTINUOUS
  2
*D85
 70
1
 10
60.266603781
 20
25.487160513
 11
46.266603781
 21
25.487160513
 14
60.266603781
 24
70.716154127
 13
32.266603781
 23
70.716154127
 50
0.000000000
  0
LINE
  8
1
 62
5
  6
CONTINUOUS
 10
50.966603781
 20
60.523435383
 11
50.966603781
 21
63.694937998
  0
LINE
  8
1
 62
5
  6
CONTINUOUS
 10
41.566603781
 20
60.523435383
 11
41.566603781
 21
63.694937998
  0
LINE
  8
1
 62
4
  6
CONTINUOUS
 10
43.798811245
 20
63.694937998
 11
43.798811245
 21
61.194937998
  0
LINE
  8
1
 62
5
  6
CONTINUOUS
 10
60.266603781
 20
103.694937998
 11
60.266603781
 21
70.716154127
  0
LINE
  8
1
 62
5
  6
CONTINUOUS
 10
33.916603781
 20
63.694937998
 11
46.266603781
 21
63.694937998
  0
LINE
  8
1
 62
5
  6
CONTINUOUS
 10
33.916603781
 20
66.394937998
 11
33.816603781
 21
66.294937998
  0
LINE
  8
1
 62
5
  6
CONTINUOUS
 10
32.266603781
 20
70.716154127
 11
33.766603781
 21
66.594937998
  0
LINE
  8
1
 62
5
  6
CONTINUOUS
 10
22.016603781
 20
103.694937998
 11
21.516603781
 21
104.194937998
  0
LINE
  8
1
 62
5
  6
CONTINUOUS
 10
56.266603781
 20
167.394937998
 11
56.266603781
 21
127.694937998
  0
LINE
  8
1
 62
5
  6
CONTINUOUS
 10
36.266603781
 20
167.394937998
 11
36.266603781
 21
127.694937998
  0
LINE
  8
1
 62
5
  6
CONTINUOUS
 10
72.825278044
 20
116.958633134
 11
75.825278044
 21
120.422937998
  0
LINE
  8
5
 62
5
  6
CONTINUOUS
 10
55.966603781
 20
167.694937998
 11
46.266603781
 21
167.694937998
  0
LINE
  8
5
 62
5
  6
CONTINUOUS
 10
36.566603781
 20
167.694937998
 11
46.266603781
 21
167.694937998
  0
LINE
  8
5
 62
5
  6
CONTINUOUS
 10
36.266603781
 20
167.394937998
 11
36.566603781
 21
167.694937998
  0
LINE
  8
1
 62
5
  6
CONTINUOUS
 10
43.798811245
 20
61.194937998
 11
48.734396317
 21
61.194937998
  0
LINE
  8
5
 62
5
  6
CONTINUOUS
 10
55.966603781
 20
167.694937998
 11
56.266603781
 21
167.394937998
  0
LINE
  8
1
 62
5
  6
CONTINUOUS
 10
32.266603781
 20
103.694937998
 11
32.266603781
 21
70.716154127
  0
LINE
  8
1
 62
5
  6
CONTINUOUS
 10
40.366603781
 20
56.173435383
 11
52.166603781
 21
56.173435383
  0
LINE
  8
1
 62
5
  6
CONTINUOUS
 10
33.816603781
 20
66.294937998
 11
33.816603781
 21
63.794937998
  0
LINE
  8
1
 62
5
  6
CONTINUOUS
 10
40.366603781
 20
52.873435383
 11
52.166603781
 21
52.873435383
  0
LINE
  8
1
 62
5
  6
CONTINUOUS
 10
60.266603781
 20
70.716154127
 11
58.766603781
 21
66.594937998
  0
LINE
  8
1
 62
5
  6
CONTINUOUS
 10
33.916603781
 20
63.694937998
 11
33.816603781
 21
63.794937998
  0
LINE
  8
1
 62
5
  6
CONTINUOUS
 10
58.716603781
 20
66.294937998
 11
58.716603781
 21
63.794937998
  0
LINE
  8
1
 62
5
  6
CONTINUOUS
 10
58.616603781
 20
66.394937998
 11
58.716603781
 21
66.294937998
  0
LINE
  8
1
 62
5
  6
CONTINUOUS
 10
46.266603781
 20
66.594937998
 11
33.766603781
 21
66.594937998
  0
LINE
  8
1
 62
5
  6
CONTINUOUS
 10
46.266603781
 20
66.394937998
 11
33.916603781
 21
66.394937998
  0
LINE
  8
1
 62
5
  6
CONTINUOUS
 10
21.516603781
 20
127.194937998
 11
22.016603781
 21
127.694937998
  0
INSERT
  8
1
 62
5
  6
CONTINUOUS
  2
blk113
 10
82.493673653
 20
113.494937998
 41
3.000000000
 42
1.500000000
 50
90.000000000
  0
INSERT
  8
1
 62
5
  6
CONTINUOUS
  2
blk114
 10
82.493673653
 20
113.494937998
 41
5.750000000
 42
2.875000000
 50
90.000000000
  0
INSERT
  8
1
 62
5
  6
CONTINUOUS
  2
blk115
 10
81.194635548
 20
113.494937998
 41
5.750000000
 42
2.875000000
 50
90.000000000
  0
INSERT
  8
1
 62
5
  6
CONTINUOUS
  2
blk116
 10
79.635789821
 20
113.494937998
 41
6.000000000
 42
3.000000000
 50
90.000000000
  0
INSERT
  8
1
 62
5
  6
CONTINUOUS
  2
blk117
 10
77.990341554
 20
113.494937998
 41
6.000000000
 42
3.000000000
 50
90.000000000
  0
LINE
  8
1
 62
5
  6
CONTINUOUS
 10
75.825278044
 20
107.494937998
 11
79.635778788
 21
107.494937998
  0
LINE
  8
1
 62
5
  6
CONTINUOUS
 10
79.635800655
 20
119.494937998
 11
75.825288637
 21
119.494937998
  0
LINE
  8
1
 62
5
  6
CONTINUOUS
 10
82.493684036
 20
119.244937998
 11
81.194645931
 21
119.244937998
  0
LINE
  8
1
 62
5
  6
CONTINUOUS
 10
81.194624974
 20
107.744937998
 11
82.493663080
 21
107.744937998
  0
INSERT
  8
1
 62
5
  6
CONTINUOUS
  2
blk122
 10
79.635789821
 20
113.494937998
 41
3.500000000
 42
1.750000000
 50
90.000000000
  0
INSERT
  8
1
 62
5
  6
CONTINUOUS
  2
blk123
 10
79.635789821
 20
113.494937998
 41
3.500000000
 42
1.750000000
 50
90.000000000
  0
LINE
  8
1
 62
5
  6
CONTINUOUS
 10
67.441305298
 20
108.504937998
 11
68.034697460
 21
108.504937998
  0
INSERT
  8
1
 62
5
  6
CONTINUOUS
  2
blk125
 10
66.472203683
 20
113.494937998
 41
6.928000000
 42
3.464000000
 50
90.000000000
  0
INSERT
  8
1
 62
5
  6
CONTINUOUS
  2
blk126
 10
66.472203683
 20
113.494937998
 41
6.928000000
 42
3.464000000
 50
90.000000000
  0
LINE
  8
1
 62
5
  6
CONTINUOUS
 10
69.712949098
 20
106.566937998
 11
75.825265305
 21
106.566937998
  0
LINE
  8
1
 62
5
  6
CONTINUOUS
 10
75.825290555
 20
120.422937998
 11
69.712974348
 21
120.422937998
  0
INSERT
  8
1
 62
5
  6
CONTINUOUS
  2
blk129
 10
75.825278044
 20
113.494937998
 41
6.000000000
 42
3.000000000
 50
90.000000000
  0
LINE
  8
1
 62
5
  6
CONTINUOUS
 10
67.441305298
 20
118.484937998
 11
68.034703073
 21
118.484937998
  0
LINE
  8
1
 62
5
  6
CONTINUOUS
 10
72.825278044
 20
110.031242861
 11
75.825265305
 21
106.566937998
  0
LINE
  8
1
 62
5
  6
CONTINUOUS
 10
72.825278044
 20
116.958633134
 11
66.712961837
 21
116.958633134
  0
LINE
  8
1
 62
5
  6
CONTINUOUS
 10
66.712961837
 20
110.031242861
 11
72.825278044
 21
110.031242861
  0
LINE
  8
1
 62
5
  6
CONTINUOUS
 10
72.825278044
 20
110.031242861
 11
72.825278044
 21
116.958633134
  0
LINE
  8
1
 62
5
  6
CONTINUOUS
 10
66.712961837
 20
110.031242861
 11
66.712961837
 21
116.958633134
  0
LINE
  8
1
 62
5
  6
CONTINUOUS
 10
66.712961837
 20
110.031242861
 11
69.712949098
 21
106.566937998
  0
LINE
  8
1
 62
5
  6
CONTINUOUS
 10
66.712961837
 20
116.958633134
 11
69.712961838
 21
120.422937998
  0
LINE
  8
1
 62
5
  6
CONTINUOUS
 10
76.628886316
 20
107.494937998
 11
75.825265305
 21
106.566937998
  0
LINE
  8
1
 62
5
  6
CONTINUOUS
 10
76.628911566
 20
119.494937998
 11
75.825290555
 21
120.422937998
  0
LINE
  8
1
 62
5
  6
CONTINUOUS
 10
71.016603781
 20
106.566937998
 11
71.016603781
 21
104.194937998
  0
LINE
  8
1
 62
1
  6
CENTER
 10
61.326229590
 20
113.494937998
 11
87.337323479
 21
113.494937998
  0
LINE
  8
1
 62
5
  6
CONTINUOUS
 10
22.016603781
 20
103.694937998
 11
46.266603781
 21
103.694937998
  0
LINE
  8
1
 62
5
  6
CONTINUOUS
 10
46.266603781
 20
103.694937998
 11
70.516603781
 21
103.694937998
  0
LINE
  8
1
 62
5
  6
CONTINUOUS
 10
46.266603781
 20
127.694937998
 11
70.516603781
 21
127.694937998
  0
LINE
  8
1
 62
5
  6
CONTINUOUS
 10
22.016603781
 20
127.694937998
 11
46.266603781
 21
127.694937998
  0
LINE
  8
1
 62
5
  6
CONTINUOUS
 10
71.016603781
 20
127.194937998
 11
71.016603781
 21
120.422937998
  0
INSERT
  8
1
 62
5
  6
CONTINUOUS
  2
blk147
 10
67.441305298
 20
113.494937998
 41
4.990000000
 42
2.495000000
 50
90.000000000
  0
LINE
  8
1
 62
5
  6
CONTINUOUS
 10
21.516603781
 20
104.194937998
 11
21.516603781
 21
127.194937998
  0
LINE
  8
1
 62
5
  6
CONTINUOUS
 10
71.016603781
 20
104.194937998
 11
70.516603781
 21
103.694937998
  0
LINE
  8
1
 62
4
  6
CONTINUOUS
 10
228.826057483
 20
59.991895055
 11
183.826057483
 21
59.991895055
  0
LINE
  8
1
 62
5
  6
CONTINUOUS
 10
48.402019432
 20
53.173435383
 11
51.766603781
 21
53.173435383
  0
LINE
  8
1
 62
5
  6
CONTINUOUS
 10
70.516603781
 20
127.694937998
 11
71.016603781
 21
127.194937998
  0
TEXT
  8
1
 62
4
  6
CONTINUOUS
 72
5
 10
216.938557483
 20
56.506895055
 40
3.000000000
  1
２５．４
 41
0.627145498
 11
225.488557483
 21
56.506895055
  0
TEXT
  8
1
 62
4
  6
CONTINUOUS
 72
5
 10
184.313557483
 20
56.506895055
 40
3.000000000
  1
ＳＭＳ－４００  Ｈ２５４０
 41
0.642381093
 11
213.113557483
 21
56.506895055
  0
TEXT
  8
1
 62
4
  6
CONTINUOUS
 72
5
 10
184.313557483
 20
48.506895055
 40
3.000000000
  1
ＳＭＳ－４００  Ｍ２０４０
 41
0.642381093
 11
213.113557483
 21
48.506895055
  0
LINE
  8
1
 62
5
  6
CONTINUOUS
 10
48.402019432
 20
55.873435383
 11
51.766603781
 21
55.873435383
  0
DIMENSION
  8
1
 62
4
  6
CONTINUOUS
  2
*D157
 70
0
 10
123.547142323
 20
49.023435383
 11
123.495213072
 21
88.284564690
 14
102.797864292
 24
49.023435383
 13
70.516603781
 23
127.694937998
 50
90.000000000
  0
DIMENSION
  8
1
 62
4
  6
CONTINUOUS
  2
*D158
 70
0
 10
114.928418931
 20
49.023435383
 11
114.850501441
 21
56.310811809
 14
49.689253512
 24
49.023435383
 13
114.928418931
 23
63.694937998
 50
90.000000000
  0
LINE
  8
1
 62
5
  6
CONTINUOUS
 10
48.402019432
 20
53.023435383
 11
48.402019432
 21
56.023435383
  0
DIMENSION
  8
1
 62
4
  6
CONTINUOUS
  2
*D160
 70
1
 10
107.224575973
 20
103.694937998
 11
107.224575973
 21
115.694937998
 14
70.516603781
 24
103.694937998
 13
70.516603781
 23
127.694937998
 50
90.000000000
  0
DIMENSION
  8
1
 62
4
  6
CONTINUOUS
  2
*D161
 70
1
 10
21.516603781
 20
190.825152534
 11
46.266603781
 21
190.825152534
 14
21.516603781
 24
127.194937998
 13
71.016603781
 23
127.194937998
 50
360.000000000
  0
DIMENSION
  8
1
 62
4
  6
CONTINUOUS
  2
*D162
 70
0
 10
114.928418931
 20
127.694937998
 11
114.195733652
 21
95.637641440
 14
70.516603781
 24
127.694937998
 13
58.616603781
 23
63.694937998
 50
90.000000000
  0
LINE
  8
1
 62
5
  6
CONTINUOUS
 10
46.266603781
 20
66.394937998
 11
58.616603781
 21
66.394937998
  0
LINE
  8
1
 62
1
  6
CENTER
 10
46.266603781
 20
45.752751201
 11
46.266603781
 21
173.167061468
  0
TEXT
  8
1
 62
4
  6
CONTINUOUS
 72
5
 10
193.313557483
 20
44.506895055
 40
3.000000000
  1
型      式
 41
0.792183787
 11
204.113557483
 21
44.506895055
  0
TEXT
  8
1
 62
4
  6
CONTINUOUS
 72
5
 10
215.813557483
 20
44.506895055
 40
3.000000000
  1
Ｄ　寸　法
 41
0.626697305
 11
226.613557483
 21
44.506895055
  0
LINE
  8
1
 62
4
  6
CONTINUOUS
 10
213.826057483
 20
43.991895055
 11
213.826057483
 21
59.991895055
  0
LINE
  8
1
 62
4
  6
CONTINUOUS
 10
183.826057483
 20
47.991895055
 11
228.826057483
 21
47.991895055
  0
LINE
  8
1
 62
4
  6
CONTINUOUS
 10
183.826057483
 20
43.991895055
 11
228.826057483
 21
43.991895055
  0
LINE
  8
1
 62
4
  6
CONTINUOUS
 10
183.826057483
 20
59.991895055
 11
183.826057483
 21
43.991895055
  0
DIMENSION
  8
1
 62
4
  6
CONTINUOUS
  2
*D171
 70
1
 10
131.588666471
 20
167.694937998
 11
131.588666471
 21
108.359186690
 14
123.547142323
 24
167.694937998
 13
123.547142323
 23
49.023435383
 50
90.000000000
  0
LINE
  8
1
 62
5
  6
CONTINUOUS
 10
46.266603781
 20
66.594937998
 11
58.766603781
 21
66.594937998
  0
INSERT
  8
1
 62
5
  6
CONTINUOUS
  2
blk173
 10
67.700732525
 20
113.494937998
 41
6.928000000
 42
3.464000000
 50
90.000000000
  0
LINE
  8
1
 62
5
  6
CONTINUOUS
 10
44.131188131
 20
53.023435383
 11
44.131188131
 21
56.023435383
  0
TEXT
  8
1
 62
4
  6
CONTINUOUS
 72
5
 10
219.188557483
 20
52.506895055
 40
3.000000000
  1
２５
 41
0.629546726
 11
223.238557483
 21
52.506895055
  0
TEXT
  8
1
 62
4
  6
CONTINUOUS
 72
5
 10
219.188557483
 20
48.506895055
 40
3.000000000
  1
２０
 41
0.629546726
 11
223.238557483
 21
48.506895055
  0
POLYLINE
  8
1
 62
4
  6
CONTINUOUS
 66
1
  0
VERTEX
  8
1
 10
89.111198425
 20
124.187065125
  0
VERTEX
  8
1
 10
88.897636414
 20
124.734802246
  0
VERTEX
  8
1
 10
88.684074402
 20
125.282539368
  0
VERTEX
  8
1
 10
88.470512390
 20
125.830276489
  0
VERTEX
  8
1
 10
88.256950378
 20
126.378005981
  0
VERTEX
  8
1
 10
88.043388367
 20
126.925743103
  0
VERTEX
  8
1
 10
87.829826355
 20
127.473480225
  0
VERTEX
  8
1
 10
87.616264343
 20
128.021224976
  0
VERTEX
  8
1
 10
87.402702332
 20
128.568954468
  0
VERTEX
  8
1
 10
87.189140320
 20
129.116683960
  0
VERTEX
  8
1
 10
86.975578308
 20
129.664428711
  0
VERTEX
  8
1
 10
86.762016296
 20
130.212158203
  0
VERTEX
  8
1
 10
86.548454285
 20
130.759902954
  0
VERTEX
  8
1
 10
86.334892273
 20
131.307632446
  0
VERTEX
  8
1
 10
86.121330261
 20
131.855377197
  0
VERTEX
  8
1
 10
85.907768250
 20
132.403106689
  0
VERTEX
  8
1
 10
85.694206238
 20
132.950836182
  0
VERTEX
  8
1
 10
85.480644226
 20
133.498580933
  0
VERTEX
  8
1
 10
85.267082214
 20
134.046310425
  0
VERTEX
  8
1
 10
85.053520203
 20
134.594055176
  0
VERTEX
  8
1
 10
84.839958191
 20
135.141784668
  0
VERTEX
  8
1
 10
84.626396179
 20
135.689529419
  0
VERTEX
  8
1
 10
84.412834167
 20
136.237258911
  0
VERTEX
  8
1
 10
84.199272156
 20
136.785003662
  0
VERTEX
  8
1
 10
83.985710144
 20
137.332733154
  0
VERTEX
  8
1
 10
83.772148132
 20
137.880462646
  0
VERTEX
  8
1
 10
83.558586121
 20
138.428207397
  0
VERTEX
  8
1
 10
83.345024109
 20
138.975936890
  0
VERTEX
  8
1
 10
83.131462097
 20
139.523681641
  0
VERTEX
  8
1
 10
82.917907715
 20
140.071411133
  0
VERTEX
  8
1
 10
82.704345703
 20
140.619155884
  0
VERTEX
  8
1
 10
82.490783691
 20
141.166885376
  0
VERTEX
  8
1
 10
82.277221680
 20
141.714614868
  0
VERTEX
  8
1
 10
83.006271362
 20
141.714614868
  0
VERTEX
  8
1
 10
83.735328674
 20
141.714614868
  0
VERTEX
  8
1
 10
84.464385986
 20
141.714614868
  0
VERTEX
  8
1
 10
85.193443298
 20
141.714614868
  0
VERTEX
  8
1
 10
85.922500610
 20
141.714614868
  0
VERTEX
  8
1
 10
86.651550293
 20
141.714614868
  0
VERTEX
  8
1
 10
87.380607605
 20
141.714614868
  0
VERTEX
  8
1
 10
88.109664917
 20
141.714614868
  0
VERTEX
  8
1
 10
88.838722229
 20
141.714614868
  0
VERTEX
  8
1
 10
89.567771912
 20
141.714614868
  0
VERTEX
  8
1
 10
90.296829224
 20
141.714614868
  0
VERTEX
  8
1
 10
91.025886536
 20
141.714614868
  0
VERTEX
  8
1
 10
91.754943848
 20
141.714614868
  0
VERTEX
  8
1
 10
92.484001160
 20
141.714614868
  0
VERTEX
  8
1
 10
93.213050842
 20
141.714614868
  0
VERTEX
  8
1
 10
93.942108154
 20
141.714614868
  0
VERTEX
  8
1
 10
94.671165466
 20
141.714614868
  0
VERTEX
  8
1
 10
95.400222778
 20
141.714614868
  0
VERTEX
  8
1
 10
96.129272461
 20
141.714614868
  0
VERTEX
  8
1
 10
96.858329773
 20
141.714614868
  0
VERTEX
  8
1
 10
97.587387085
 20
141.714614868
  0
VERTEX
  8
1
 10
98.316444397
 20
141.714614868
  0
VERTEX
  8
1
 10
99.045501709
 20
141.714614868
  0
VERTEX
  8
1
 10
99.774551392
 20
141.714614868
  0
VERTEX
  8
1
 10
100.503608704
 20
141.714614868
  0
VERTEX
  8
1
 10
101.232666016
 20
141.714614868
  0
VERTEX
  8
1
 10
101.961723328
 20
141.714614868
  0
VERTEX
  8
1
 10
102.690773010
 20
141.714614868
  0
VERTEX
  8
1
 10
103.419830322
 20
141.714614868
  0
VERTEX
  8
1
 10
104.148887634
 20
141.714614868
  0
VERTEX
  8
1
 10
104.877944946
 20
141.714614868
  0
VERTEX
  8
1
 10
105.607002258
 20
141.714614868
  0
SEQEND
  8
1
  0
POLYLINE
  8
1
 62
4
  6
CONTINUOUS
 66
1
  0
VERTEX
  8
1
 10
88.105165080
 20
125.941458725
  0
VERTEX
  8
1
 10
89.111198425
 20
124.187065125
  0
VERTEX
  8
1
 10
88.664176895
 20
126.159416957
  0
SEQEND
  8
1
  0
POLYLINE
  8
1
 62
4
  6
CONTINUOUS
 66
1
  0
VERTEX
  8
1
 10
72.125625610
 20
108.378326416
  0
VERTEX
  8
1
 10
72.229377747
 20
107.135101318
  0
VERTEX
  8
1
 10
72.333129883
 20
105.891868591
  0
VERTEX
  8
1
 10
72.436882019
 20
104.648635864
  0
VERTEX
  8
1
 10
72.540634155
 20
103.405403137
  0
VERTEX
  8
1
 10
72.644386292
 20
102.162170410
  0
VERTEX
  8
1
 10
72.748130798
 20
100.918945313
  0
VERTEX
  8
1
 10
72.851882935
 20
99.675712585
  0
VERTEX
  8
1
 10
72.955635071
 20
98.432479858
  0
VERTEX
  8
1
 10
73.059387207
 20
97.189247131
  0
VERTEX
  8
1
 10
73.163139343
 20
95.946022034
  0
VERTEX
  8
1
 10
73.266891479
 20
94.702789307
  0
VERTEX
  8
1
 10
73.370635986
 20
93.459556580
  0
VERTEX
  8
1
 10
73.474388123
 20
92.216323853
  0
VERTEX
  8
1
 10
73.578140259
 20
90.973098755
  0
VERTEX
  8
1
 10
73.681892395
 20
89.729866028
  0
VERTEX
  8
1
 10
73.785644531
 20
88.486633301
  0
VERTEX
  8
1
 10
73.889396667
 20
87.243400574
  0
VERTEX
  8
1
 10
73.993141174
 20
86.000167847
  0
VERTEX
  8
1
 10
74.096893311
 20
84.756942749
  0
VERTEX
  8
1
 10
74.200645447
 20
83.513710022
  0
VERTEX
  8
1
 10
74.304397583
 20
82.270477295
  0
VERTEX
  8
1
 10
74.408149719
 20
81.027244568
  0
VERTEX
  8
1
 10
74.511901855
 20
79.784019470
  0
VERTEX
  8
1
 10
74.615646362
 20
78.540786743
  0
VERTEX
  8
1
 10
74.719398499
 20
77.297554016
  0
VERTEX
  8
1
 10
74.823150635
 20
76.054321289
  0
VERTEX
  8
1
 10
74.926902771
 20
74.811096191
  0
VERTEX
  8
1
 10
75.030654907
 20
73.567863464
  0
VERTEX
  8
1
 10
75.134407043
 20
72.324630737
  0
VERTEX
  8
1
 10
75.238159180
 20
71.081398010
  0
VERTEX
  8
1
 10
75.341903687
 20
69.838165283
  0
VERTEX
  8
1
 10
75.445655823
 20
68.594940186
  0
VERTEX
  8
1
 10
76.602111816
 20
68.594940186
  0
VERTEX
  8
1
 10
77.758575439
 20
68.594940186
  0
VERTEX
  8
1
 10
78.915031433
 20
68.594940186
  0
VERTEX
  8
1
 10
80.071487427
 20
68.594940186
  0
VERTEX
  8
1
 10
81.227951050
 20
68.594940186
  0
VERTEX
  8
1
 10
82.384407043
 20
68.594940186
  0
VERTEX
  8
1
 10
83.540863037
 20
68.594940186
  0
VERTEX
  8
1
 10
84.697319031
 20
68.594940186
  0
VERTEX
  8
1
 10
85.853782654
 20
68.594940186
  0
VERTEX
  8
1
 10
87.010238647
 20
68.594940186
  0
VERTEX
  8
1
 10
88.166694641
 20
68.594940186
  0
VERTEX
  8
1
 10
89.323150635
 20
68.594940186
  0
VERTEX
  8
1
 10
90.479614258
 20
68.594940186
  0
VERTEX
  8
1
 10
91.636070251
 20
68.594940186
  0
VERTEX
  8
1
 10
92.792526245
 20
68.594940186
  0
VERTEX
  8
1
 10
93.948982239
 20
68.594940186
  0
VERTEX
  8
1
 10
95.105445862
 20
68.594940186
  0
VERTEX
  8
1
 10
96.261901855
 20
68.594940186
  0
VERTEX
  8
1
 10
97.418357849
 20
68.594940186
  0
VERTEX
  8
1
 10
98.574821472
 20
68.594940186
  0
VERTEX
  8
1
 10
99.731277466
 20
68.594940186
  0
VERTEX
  8
1
 10
100.887733459
 20
68.594940186
  0
VERTEX
  8
1
 10
102.044189453
 20
68.594940186
  0
VERTEX
  8
1
 10
103.200653076
 20
68.594940186
  0
VERTEX
  8
1
 10
104.357109070
 20
68.594940186
  0
VERTEX
  8
1
 10
105.513565063
 20
68.594940186
  0
VERTEX
  8
1
 10
106.670021057
 20
68.594940186
  0
VERTEX
  8
1
 10
107.826484680
 20
68.594940186
  0
VERTEX
  8
1
 10
108.982940674
 20
68.594940186
  0
VERTEX
  8
1
 10
110.139396667
 20
68.594940186
  0
VERTEX
  8
1
 10
111.295860291
 20
68.594940186
  0
VERTEX
  8
1
 10
112.452316284
 20
68.594940186
  0
SEQEND
  8
1
  0
POLYLINE
  8
1
 62
4
  6
CONTINUOUS
 66
1
  0
VERTEX
  8
1
 10
72.590913568
 20
106.410203677
  0
VERTEX
  8
1
 10
72.125625610
 20
108.378326416
  0
VERTEX
  8
1
 10
71.992992023
 20
106.360305521
  0
SEQEND
  8
1
  0
TEXT
  8
1
 62
4
  6
CONTINUOUS
 72
5
 10
184.313557483
 20
52.506895055
 40
3.000000000
  1
ＳＭＳ－４００  Ｍ２５４０
 41
0.642381093
 11
213.113557483
 21
52.506895055
  0
TEXT
  8
1
 62
4
  6
CONTINUOUS
 72
5
 10
190.582253174
 20
177.763835780
 40
3.200000000
  1
６－φ４．５キリ
 41
0.836062240
 11
215.582253174
 21
177.763835780
  0
TEXT
  8
1
 62
4
  6
CONTINUOUS
 72
5
 10
190.582253174
 20
172.663835780
 40
3.200000000
  1
φ７．６座グリ深さ４
 41
0.835504581
 11
221.982253174
 21
172.663835780
  0
LINE
  8
1
 62
5
  6
CONTINUOUS
 10
48.402019432
 20
53.023435383
 11
44.131188131
 21
53.023435383
  0
POLYLINE
  8
1
 62
4
  6
CONTINUOUS
 66
1
  0
VERTEX
  8
1
 10
193.273468018
 20
154.747528076
  0
VERTEX
  8
1
 10
193.054336548
 20
155.434921265
  0
VERTEX
  8
1
 10
192.835220337
 20
156.122299194
  0
VERTEX
  8
1
 10
192.616088867
 20
156.809677124
  0
VERTEX
  8
1
 10
192.396972656
 20
157.497070313
  0
VERTEX
  8
1
 10
192.177841187
 20
158.184448242
  0
VERTEX
  8
1
 10
191.958724976
 20
158.871841431
  0
VERTEX
  8
1
 10
191.739593506
 20
159.559219360
  0
VERTEX
  8
1
 10
191.520477295
 20
160.246612549
  0
VERTEX
  8
1
 10
191.301345825
 20
160.933990479
  0
VERTEX
  8
1
 10
191.082229614
 20
161.621383667
  0
VERTEX
  8
1
 10
190.863098145
 20
162.308761597
  0
VERTEX
  8
1
 10
190.643981934
 20
162.996139526
  0
VERTEX
  8
1
 10
190.424850464
 20
163.683532715
  0
VERTEX
  8
1
 10
190.205734253
 20
164.370910645
  0
VERTEX
  8
1
 10
189.986602783
 20
165.058303833
  0
VERTEX
  8
1
 10
189.767486572
 20
165.745681763
  0
VERTEX
  8
1
 10
189.548355103
 20
166.433074951
  0
VERTEX
  8
1
 10
189.329238892
 20
167.120452881
  0
VERTEX
  8
1
 10
189.110107422
 20
167.807830811
  0
VERTEX
  8
1
 10
188.890991211
 20
168.495223999
  0
VERTEX
  8
1
 10
188.671859741
 20
169.182601929
  0
VERTEX
  8
1
 10
188.452743530
 20
169.869995117
  0
VERTEX
  8
1
 10
188.233612061
 20
170.557373047
  0
VERTEX
  8
1
 10
188.014495850
 20
171.244766235
  0
VERTEX
  8
1
 10
187.795364380
 20
171.932144165
  0
VERTEX
  8
1
 10
187.576248169
 20
172.619522095
  0
VERTEX
  8
1
 10
187.357116699
 20
173.306915283
  0
VERTEX
  8
1
 10
187.138000488
 20
173.994293213
  0
VERTEX
  8
1
 10
186.918869019
 20
174.681686401
  0
VERTEX
  8
1
 10
186.699752808
 20
175.369064331
  0
VERTEX
  8
1
 10
186.480621338
 20
176.056457520
  0
VERTEX
  8
1
 10
186.261505127
 20
176.743835449
  0
VERTEX
  8
1
 10
187.387023926
 20
176.743835449
  0
VERTEX
  8
1
 10
188.512542725
 20
176.743835449
  0
VERTEX
  8
1
 10
189.638076782
 20
176.743835449
  0
VERTEX
  8
1
 10
190.763595581
 20
176.743835449
  0
VERTEX
  8
1
 10
191.889114380
 20
176.743835449
  0
VERTEX
  8
1
 10
193.014648438
 20
176.743835449
  0
VERTEX
  8
1
 10
194.140167236
 20
176.743835449
  0
VERTEX
  8
1
 10
195.265686035
 20
176.743835449
  0
VERTEX
  8
1
 10
196.391220093
 20
176.743835449
  0
VERTEX
  8
1
 10
197.516738892
 20
176.743835449
  0
VERTEX
  8
1
 10
198.642257690
 20
176.743835449
  0
VERTEX
  8
1
 10
199.767776489
 20
176.743835449
  0
VERTEX
  8
1
 10
200.893310547
 20
176.743835449
  0
VERTEX
  8
1
 10
202.018829346
 20
176.743835449
  0
VERTEX
  8
1
 10
203.144348145
 20
176.743835449
  0
VERTEX
  8
1
 10
204.269882202
 20
176.743835449
  0
VERTEX
  8
1
 10
205.395401001
 20
176.743835449
  0
VERTEX
  8
1
 10
206.520919800
 20
176.743835449
  0
VERTEX
  8
1
 10
207.646453857
 20
176.743835449
  0
VERTEX
  8
1
 10
208.771972656
 20
176.743835449
  0
VERTEX
  8
1
 10
209.897491455
 20
176.743835449
  0
VERTEX
  8
1
 10
211.023025513
 20
176.743835449
  0
VERTEX
  8
1
 10
212.148544312
 20
176.743835449
  0
VERTEX
  8
1
 10
213.274063110
 20
176.743835449
  0
VERTEX
  8
1
 10
214.399581909
 20
176.743835449
  0
VERTEX
  8
1
 10
215.525115967
 20
176.743835449
  0
VERTEX
  8
1
 10
216.650634766
 20
176.743835449
  0
VERTEX
  8
1
 10
217.776153564
 20
176.743835449
  0
VERTEX
  8
1
 10
218.901687622
 20
176.743835449
  0
VERTEX
  8
1
 10
220.027206421
 20
176.743835449
  0
VERTEX
  8
1
 10
221.152725220
 20
176.743835449
  0
VERTEX
  8
1
 10
222.278259277
 20
176.743835449
  0
SEQEND
  8
1
  0
POLYLINE
  8
1
 62
4
  6
CONTINUOUS
 66
1
  0
VERTEX
  8
1
 10
192.380198937
 20
156.561934412
  0
VERTEX
  8
1
 10
193.273468018
 20
154.747528076
  0
VERTEX
  8
1
 10
192.951855670
 20
156.744166626
  0
SEQEND
  8
1
  0
TEXT
  8
1
 62
4
  6
CONTINUOUS
 72
5
 10
76.245657216
 20
69.614937998
 40
3.200000000
  1
ワンタッチ管継手１／８
 41
0.835303297
 11
110.845657216
 21
69.614937998
  0
LINE
  8
1
 62
5
  6
CONTINUOUS
 10
48.402019432
 20
56.023435383
 11
44.131188131
 21
56.023435383
  0
TEXT
  8
1
 62
4
  6
CONTINUOUS
 72
5
 10
83.077218708
 20
142.734622216
 40
3.200000000
  1
消音器１／８
 41
0.837005357
 11
101.677218708
 21
142.734622216
  0
LINE
  8
1
 62
4
  6
CONTINUOUS
 10
228.826057483
 20
51.991895055
 11
183.826057483
 21
51.991895055
  0
DIMENSION
  8
1
 62
4
  6
CONTINUOUS
  2
*D187
 70
5
 10
244.465868288
 20
111.074391841
 11
250.771839945
 21
134.608598458
 13
244.070427394
 23
111.302699747
 14
241.533607260
 24
156.449863383
 15
203.703426710
 25
134.608598459
  0
LINE
  8
1
 62
4
  6
CONTINUOUS
 10
228.826057483
 20
55.991895055
 11
183.826057483
 21
55.991895055
  0
LINE
  8
1
 62
4
  6
CONTINUOUS
 10
228.826057483
 20
59.991895055
 11
228.826057483
 21
43.991895055
  0
LINE
  8
1
 62
4
  6
CONTINUOUS
 10
48.734396317
 20
61.194937998
 11
48.734396317
 21
63.694937998
  0
ENDSEC
  0
EOF
